osu file format v5

[General]
AudioFilename: 09prom.mp3
AudioLeadIn: 0
PreviewTime: 34826
Countdown: 0
SampleSet: Normal
StackLeniency: 0.7
Mode: 0
LetterboxInBreaks: 1

[Metadata]
Title:Prom
Artist:Mindless Self Indulgence
Creator:mtmcl
Version:You Make Me Easy
Source:
Tags:

[Difficulty]
HPDrainRate:3
CircleSize:4
OverallDifficulty:3
SliderMultiplier:1.3
SliderTickRate:1

[Events]
//Background and Video events
0,0,"msi.jpg"
//Break Periods
2,38443,40526
2,58440,69856
2,105102,107185
2,118436,122129
//Storyboard Layer 0 (Background)
//Storyboard Layer 1 (Failing)
//Storyboard Layer 2 (Passing)
//Storyboard Layer 3 (Foreground)
//Storyboard Sound Samples
//Background Colour Transformations
3,100,163,162,255

[TimingPoints]
5564,333.333333333333,4,1,0,80,1

[Colours]
Combo1 : 117,70,0
Combo2 : 0,94,47
Combo3 : 0,0,85
Combo4 : 100,0,0

[HitObjects]
256,192,5563,2,0,L|120:192|120:64,1,260
304,72,6897,2,0,L|448:72|448:200,1,260
440,368,8230,6,2,L|304:368|304:232,2,260
440,272,9897,2,4,L|440:200,1,65
256,72,10897,6,0,L|256:336,1,260
72,336,12230,2,0,L|72:72,1,260
208,192,13564,6,2,L|344:192|344:64,2,260
208,280,15230,1,4
208,280,15397,1,4
488,32,16897,6,0,L|344:32,1,130
488,160,17897,2,2,L|224:160,1,260
32,352,19564,6,0,L|168:352,1,130
32,216,20563,2,2,L|296:216,1,260
88,32,22230,6,0,L|88:168,1,130
216,32,23230,2,2,L|216:160|352:160,1,260
504,384,24897,6,0,L|504:248,1,130
376,384,25897,2,2,L|376:232|256:232,1,260
256,192,26897,12,4,28230
256,192,29563,12,4,30897
256,192,32230,12,4,33563
256,40,34897,5,6
72,352,36230,5,6
432,352,37563,5,6
432,352,38230,1,6
256,192,41564,6,4,L|256:48,1,130
256,336,42897,6,4,L|400:336,1,130
112,336,44230,6,0,L|112:64,3,260
256,192,46897,12,4,48230
256,192,49564,12,4,50897
256,192,52230,12,4,53564
256,344,54897,5,6
456,40,56230,5,6
88,40,57564,5,6
88,40,58230,1,6
440,192,70897,6,0,L|304:192,1,130,0|2
312,104,71564,2,0,L|448:104,1,130,0|2
376,32,72230,2,0,L|240:32|240:160,1,260
248,336,73564,2,0,L|392:336|392:208,1,260
208,208,74897,6,2,L|72:208|72:344,2,260
296,208,76564,2,4,L|296:280,1,65
88,168,77564,6,0,L|88:24|232:24,1,260
384,32,78897,2,0,L|384:296,1,260
176,248,80230,6,2,L|312:248|312:376,2,260
176,152,81897,1,4
176,152,82063,1,4
488,352,83563,6,0,L|344:352,1,130
488,224,84563,2,2,L|224:224,1,260
32,32,86230,6,0,L|168:32,1,130
32,168,87230,2,2,L|296:168,1,260
88,352,88897,6,0,L|88:216,1,130
216,352,89897,2,2,L|216:224|352:224,1,260
504,0,91563,6,0,L|504:136,1,130
376,0,92563,2,2,L|376:152|256:152,1,260
256,192,93563,12,4,94897
256,192,96230,12,4,97563
256,192,98897,12,4,100230
256,344,101563,5,6
72,32,102897,5,6
432,32,104230,5,6
432,32,104897,1,6
256,192,108230,6,4,L|256:336,1,130
256,48,109563,6,4,L|112:48,1,130
400,48,110897,6,0,L|400:320,3,260
256,40,114897,5,6
56,344,116230,5,6
424,344,117563,5,6
424,344,118230,1,6
256,192,123563,6,4,L|256:328,1,130
8,192,124897,6,4,L|144:192,1,130
408,192,126230,6,2,L|408:328|536:328,2,260
72,48,128897,6,4,L|208:48,1,130
256,312,130230,6,4,L|256:176,1,130
496,48,131563,6,4,L|360:48,1,130
368,136,132230,2,2,L|368:272|240:272,2,260
8,192,134897,5,6
368,192,136230,5,6
0,192,137563,6,6,L|72:192,1,65
