osu file format v9

[General]
AudioFilename: Mindless Self Indulgence - On It.mp3
AudioLeadIn: 0
PreviewTime: -1
Countdown: 0
SampleSet: Soft
StackLeniency: 0.7
Mode: 0
LetterboxInBreaks: 1

[Editor]
Bookmarks: 4274
DistanceSpacing: 1.2
BeatDivisor: 6
GridSize: 8

[Metadata]
Title:On It
Artist:Mindless Self Indulgence
Creator:[Kousaka]
Version:Normal
Source:
Tags:msi

[Difficulty]
HPDrainRate:1
CircleSize:4
OverallDifficulty:2
ApproachRate:4
SliderMultiplier:1.4
SliderTickRate:1

[Events]
//Background and Video events
0,0,"bg.jpg"
//Break Periods
2,38897,45284
2,81687,88074
//Storyboard Layer 0 (Background)
//Storyboard Layer 1 (Fail)
//Storyboard Layer 2 (Pass)
//Storyboard Layer 3 (Foreground)
//Storyboard Sound Samples
//Background Colour Transformations
3,100,163,162,255

[TimingPoints]
1952.84606499868,465.116279069767,4,2,0,100,1,0
12952,-100,4,2,0,0,0,0
14987,-100,4,2,0,100,0,0
24302,-100,4,2,0,100,0,1
31762,-100,4,1,0,100,0,1
39194,-100,4,2,0,100,0,0
39222,-100,4,2,0,100,0,0
55701,-100,4,2,0,0,0,0
57797,-100,4,2,0,100,0,0
67063,-100,4,2,0,100,0,1
74564,-100,4,1,0,100,0,1
81994,-100,4,2,0,100,0,0

[Colours]
Combo1 : 79,0,61
Combo2 : 88,58,129
Combo3 : 255,128,255

[HitObjects]
104,48,7534,2,0,B|152:48,2,35
48,112,7999,1,8
104,176,8464,2,0,B|152:176,2,35
48,232,8929,1,8
232,288,9394,6,0,B|232:336,2,35
232,208,9859,1,8
312,208,10092,2,0,B|360:208,2,35
352,136,10557,1,0
296,80,10790,1,8
360,32,11022,1,4
424,88,11255,6,0,B|472:88,2,35
424,168,11720,1,8
424,248,12185,2,0,B|424:296,2,35
344,248,12650,1,8
184,248,13115,6,0,B|136:248,2,35
264,248,13580,1,0
264,168,13813,2,0,B|264:120,2,35,0|0|0
176,168,14278,1,0
120,104,14510,1,0
64,168,14743,1,0
256,192,14976,12,4,16836
104,72,17534,5,0
104,144,17766,1,0
176,112,17999,2,0,B|216:112,1,35
272,80,18464,6,0,B|278:65|297:52|321:63|326:82,1,70
376,136,18929,1,0
320,192,19162,2,0,B|314:207|295:220|271:209|266:190,2,70
400,224,19859,1,0
464,280,20092,1,0
400,336,20324,1,0
336,280,20557,1,0
272,336,21255,6,0,B|216:272|216:272|160:344|160:344,1,163.333333333333
256,192,22417,12,4,24278
56,56,25906,5,0
136,56,26138,1,4
464,328,27766,5,0
376,328,27999,1,4
256,192,29627,5,0
256,192,29782,12,0,31487
72,104,32417,5,0
152,104,32728,1,0
232,104,33115,1,8
296,200,33580,6,0,B|224:200,1,70,0|0
400,296,34278,1,0
328,296,34588,1,0
256,296,34976,1,8
96,296,35441,6,0,B|96:224,1,70,0|0
144,160,36138,1,0
80,108,36448,1,0
144,56,36836,1,8
256,56,37301,6,0,B|256:128,1,70,0|0
216,192,37999,1,0
304,192,38309,1,0
256,264,38697,1,8
72,56,46604,6,0,B|128:56|128:56|152:88|152:88|208:88,1,140,0|8
280,88,47379,1,0
208,160,47766,2,0,B|280:160,1,70,0|8
414,264,48464,6,0,B|358:264|358:264|334:232|334:232|278:232,1,140,0|8
206,232,49239,1,0
278,160,49626,2,0,B|206:160,1,70,0|8
408,48,50324,6,0,B|360:48,2,35
464,112,50789,1,8
408,176,51254,2,0,B|360:176,2,35
464,232,51719,1,8
280,288,52184,6,0,B|280:336,2,35
280,208,52649,1,8
200,208,52882,2,0,B|152:208,2,35
160,136,53347,1,0
216,80,53580,1,8
152,32,53812,1,4
88,88,54045,6,0,B|40:88,2,35
88,168,54510,1,8
88,248,54975,2,0,B|88:296,2,35
168,248,55440,1,8
328,248,55905,6,0,B|376:248,2,35
248,248,56370,1,0
248,168,56603,2,0,B|248:120,2,35,0|0|0
336,168,57068,1,0
392,104,57300,1,0
448,168,57533,1,0
256,192,57766,12,4,59626
106,89,60324,5,0
184,89,60557,2,0,B|195:121|232:134|268:116|277:71,1,116.666666666667
376,48,61255,5,0
432,112,61487,1,0
368,160,61720,1,0
432,216,61952,2,0,B|371:264,1,70,0|0
304,216,62417,5,0
216,216,62650,2,0,B|160:216,1,46.6666666666667
80,216,63348,5,4
80,96,64045,2,0,B|160:96,1,70
264,96,64588,1,0
256,192,65208,12,4,67069
64,48,68697,5,0
64,128,68929,1,4
456,48,70557,5,0
456,136,70790,1,4
256,192,72417,5,0
256,192,72650,12,0,74278
112,64,75208,5,0
176,128,75518,1,0
112,184,75906,1,8
160,264,76371,6,0,B|240:264,1,70,0|0
288,192,77069,1,0
344,256,77379,1,0
400,192,77766,1,8
400,104,78231,6,0,B|320:104,1,70,0|0
272,40,78929,1,0
224,104,79239,1,0
176,40,79627,1,8
112,96,80092,6,0,B|112:176,1,70,0|0
112,240,80790,5,0
112,320,81100,1,0
200,320,81487,1,8
440,56,89394,6,0,B|384:56|384:56|360:88|360:88|304:88,1,140,0|8
232,88,90169,1,0
304,160,90556,2,0,B|232:160,1,70,0|8
98,264,91254,6,0,B|154:264|154:264|178:232|178:232|234:232,1,140,0|8
306,232,92029,1,0
234,160,92416,2,0,B|306:160,1,70,0|8
80,64,93115,5,0
248,64,93580,1,8
80,144,93890,2,0,B|200:144,1,116.666666666667
280,144,94510,1,8
432,320,94976,5,0
264,320,95441,1,8
432,240,95751,2,0,B|312:240,1,116.666666666667
256,192,96371,1,8
112,56,96836,6,0,B|72:56|40:104|72:152|120:160,1,140,0|8
104,264,97611,1,0
248,88,98231,5,8
336,88,98464,1,0
288,160,98697,2,0,B|344:160|344:160|384:192|384:192|432:192,1,140,0|8
416,304,99472,2,0,B|344:304,1,70
248,304,100092,1,8
80,208,100557,6,0,B|84:168|135:141|179:178|182:226,1,140,0|8
128,88,101332,2,0,B|248:88,1,116.666666666667
328,88,101952,1,8
384,152,102185,1,0
440,88,102417,1,0
104,336,104278,6,0,B|152:336,2,35
48,272,104743,1,8
104,208,105208,2,0,B|152:208,2,35
48,152,105673,1,8
232,96,106138,6,0,B|232:48,2,35
232,176,106603,1,8
312,176,106836,2,0,B|360:176,2,35
352,248,107301,1,0
296,304,107534,1,8
360,352,107766,1,4
424,296,107999,6,0,B|472:296,2,35
424,216,108464,1,8
424,136,108929,2,0,B|424:88,2,35
344,136,109394,1,8
184,136,109859,6,0,B|136:136,2,35
264,136,110324,1,0
264,216,110557,2,0,B|264:264,2,35,0|0|0
176,216,111022,5,0
120,280,111254,1,0
64,216,111487,1,0
120,152,111720,1,4
72,80,112185,6,0,B|128:32|128:32|176:88|176:88,1,140
336,128,113115,2,0,B|416:128,1,70
488,128,113580,1,0
368,208,114510,6,2,B|368:296,1,70
296,208,114976,2,2,B|296:296,1,70,2|2
216,280,115441,1,4
96,280,115906,6,0,B|96:184,1,93.3333333333333
96,80,116836,1,0
168,80,117069,1,0
240,80,117301,1,0
320,136,118231,6,2,B|371:86|371:86|419:142|419:142,2,140
264,56,119627,2,0,B|248:24|200:16|168:32|168:72|184:88|200:112|192:160|152:152|104:120|96:96|72:88|56:120,1,280
64,184,121022,1,0
128,224,121952,2,2,B|128:312,3,70
208,296,122883,1,4
376,296,123348,6,0,B|440:296|440:296|440:216|440:216,1,140
440,152,124278,2,0,B|360:152,1,70
288,152,124743,1,0
256,192,125673,12,0,126604
