osu file format v5

[General]
AudioFilename: Mindless Self Indulgence - Never Wanted To Dance.mp3
AudioLeadIn: 2000
PreviewTime: 16467
Countdown: 0
SampleSet: Normal
StackLeniency: 0.3
Mode: 0
LetterboxInBreaks: 1
EditorBookmarks: 326,5244,16391,29506,37375,51145,67210,72128,83275,96390,130488,144587

[Metadata]
Title:Never Wanted To Dance
Artist:Mindless Self Indulgence
Creator:Nharox
Version:Always
Source:
Tags:

[Difficulty]
HPDrainRate:4
CircleSize:3
OverallDifficulty:4
SliderMultiplier:1.2
SliderTickRate:1

[Events]
//Background and Video events
0,0,"MSI.png"
//Break Periods
2,67410,71135
//Storyboard Layer 0 (Background)
//Storyboard Layer 1 (Failing)
//Storyboard Layer 2 (Passing)
//Storyboard Layer 3 (Foreground)
//Storyboard Sound Samples
//Background Colour Transformations
3,100,163,162,255

[TimingPoints]
326,327.868852459016,4,1,0,100,1
19014,327.868852459016,4,2,0,70,0
21145,327.868852459016,4,2,0,90,0
21637,327.868852459016,4,1,0,100,0
24260,327.868852459016,4,2,0,70,0
26391,327.868852459016,4,2,0,90,0
26883,327.868852459016,4,1,0,100,0
29506,327.868852459016,4,1,0,80,0
31801,327.868852459016,4,1,0,100,0
47539,1311.47540983607,4,1,0,100,1
48194,1311.47540983607,4,1,0,0,0
48850,327.868852459016,4,2,0,100,1
52784,327.868852459016,4,1,0,100,0
57374,327.868852459016,4,2,0,100,0
58030,327.868852459016,4,1,0,100,0
63604,655.737704918033,4,2,0,100,1
64915,655.737704918033,4,2,0,0,0
67210,327.868852459016,4,1,0,100,1
85898,327.868852459016,4,2,0,70,0
88029,327.868852459016,4,2,0,90,0
88521,327.868852459016,4,1,0,100,0
91144,327.868852459016,4,2,0,70,0
93275,327.868852459016,4,2,0,90,0
93767,327.868852459016,4,1,0,100,0
114423,1311.47540983607,4,1,0,100,1
115078,1311.47540983607,4,2,0,0,0
115734,327.868852459016,4,2,0,100,1
119668,327.868852459016,4,1,0,100,0
124258,327.868852459016,4,2,0,100,0
124914,327.868852459016,4,1,0,100,0
130488,327.868852459016,4,2,0,30,0
135570,327.868852459016,4,2,0,40,0
136881,327.868852459016,4,2,0,50,0
138028,327.868852459016,4,2,0,60,0
139339,327.868852459016,4,2,0,70,0
140650,327.868852459016,4,2,0,80,0
141961,327.868852459016,4,2,0,90,0
143272,327.868852459016,4,2,0,100,0
144586,327.868852459016,4,1,0,100,0

[Colours]
Combo1 : 77,77,77
Combo2 : 255,128,0
Combo3 : 192,192,192
Combo4 : 255,255,0

[HitObjects]
256,64,326,2,4,B|256:128,3,60
416,192,1637,6,4,B|352:192,3,60
256,320,2948,6,4,B|256:256,3,60
96,192,4260,6,4,B|160:192,3,60
416,96,5571,6,0,B|544:189|402:307,3,240
352,128,8194,6,0,B|259:0|141:142,3,240
160,256,10817,6,0,B|253:384|371:242,3,240
312,176,13112,6,0,B|260:130|177:192,4,120
256,192,14752,12,4,16063
64,64,16391,5,4
160,64,16719,1,4
256,64,17047,1,0
352,64,17375,1,2
352,160,17703,1,0
256,160,18030,1,0
160,160,18358,1,0
160,256,18686,1,4
256,256,19014,6,0,B|314:204|384:272,6,120
256,256,21145,1,4
448,320,21637,5,4
352,320,21965,1,4
256,320,22293,1,0
160,320,22621,1,2
160,224,22949,1,0
256,224,23276,1,0
352,224,23604,1,0
352,128,23932,1,4
256,128,24260,6,0,B|198:180|128:112,6,120
256,128,26391,1,4
192,192,26883,6,0,B|192:256|192:256|256:256,3,120,4|4|0|2
320,192,28194,2,0,B|320:128|320:128|256:128,3,120,0|0|0|4
256,32,29506,5,0
160,64,29834,1,0
256,96,30162,1,0
352,128,30489,1,0
256,160,30817,1,0
160,192,31145,1,0
256,224,31473,1,0
352,256,31801,1,4
256,96,32457,5,0
171,297,33440,2,0,B|363:297,2,180
206,155,35080,2,0,L|206:82|302:82|302:178,3,240,0|0|0|4
256,192,37375,12,4,38686
222,76,39998,6,0,B|222:172,1,70,0|4
288,144,40489,2,0,B|288:48,1,70,0|4
224,256,41309,2,0,B|224:352,1,70,0|4
290,329,41801,2,0,B|290:233,1,70,4|4
256,192,42621,12,4,43932
216,59,45244,6,0,B|216:139,1,60,4|4
283,59,45735,2,0,B|283:139,1,60,4|4
189,275,46555,2,0,B|317:275,2,120
218,189,47539,2,0,B|282:189,1,60,4|0
256,32,48850,5,0
256,160,49341,1,0
256,288,49833,1,0
256,288,50161,1,2
256,160,50817,1,2
256,160,51145,6,0,B|256:288,4,120
256,160,52784,1,4
160,192,53604,6,0,B|96:192,2,60,0|0|4
352,192,54915,2,0,B|416:192,2,60,0|0|4
192,32,56390,6,0,B|320:32,4,120
192,32,58029,1,4
160,288,58849,6,0,B|160:224,1,60
160,228,59177,1,0
160,228,59341,1,4
352,288,60161,2,0,B|352:224,1,60
352,228,60489,1,0
352,228,60653,1,4
224,64,61472,5,0
224,64,61636,2,0,B|288:64,10,60,0|0|0|0|0|0|2|2|2|2|4
191,160,63604,2,0,B|191:187|191:219|191:251|223:241|255:241|287:241|319:251|319:219|319:187|319:145,1,240
256,192,65243,12,4,67210
64,192,72455,6,0,B|64:64|64:64|192:64,3,240
288,64,75078,6,0,B|416:64|416:64|416:192,3,240
288,192,77701,6,0,B|288:320|288:320|160:320,3,240
160,192,79996,6,0,B|96:192|96:192|96:128,4,120,0|0|0|0|4
256,192,81636,12,4,82947
64,64,83275,6,0,B|192:64,1,120
256,160,83931,2,0,B|128:160,1,120,0|2
64,256,84587,2,0,B|192:256,1,120
256,352,85242,2,0,B|128:352,1,120,0|4
160,256,85898,6,0,B|224:320|288:256,2,120
224,192,86882,1,0
224,192,87045,1,0
288,128,87373,2,0,B|224:64|160:128,2,120,0|0|4
448,320,88521,6,0,B|320:320,1,120
256,224,89177,2,0,B|384:224,1,120,0|2
448,128,89833,2,0,B|320:128,1,120
256,32,90488,2,0,B|384:32,1,120,0|4
352,128,91144,6,0,B|288:64|224:128,2,120
288,192,92128,1,0
288,192,92291,1,0
224,256,92619,2,0,B|288:320|352:256,2,120,0|0|4
256,32,93767,6,0,B|256:160,1,120
352,160,94423,1,0
352,64,94750,1,2
256,64,95078,2,0,B|128:64,1,120
128,160,95734,1,0
224,160,96062,1,4
224,256,96390,6,0,B|320:352|320:352|224:352|224:352|320:256,2,360
271,189,98685,1,4
256,32,99341,5,0
192,224,100324,2,0,B|256:288|256:288|320:224,2,180
160,64,101964,2,0,B|192:32|224:32|256:64|288:96|320:96|352:64,3,240,0|0|0|4
256,192,104259,12,4,105570
192,128,106882,5,0
192,128,107046,1,4
320,128,107373,1,0
320,128,107537,1,4
192,256,108193,1,0
192,256,108357,1,4
320,256,108685,1,0
320,256,108849,1,4
256,192,109505,12,4,110816
208,49,112128,6,0,B|208:113,1,60,0|4
304,49,112619,2,0,B|304:113,1,60,0|4
208,296,113439,1,0
304,296,113767,1,0
256,200,114095,1,0
256,96,114423,2,0,B|256:32,1,60,4|0
160,192,115734,5,0
352,192,116225,1,0
256,288,116717,2,0,B|256:160,1,120,0|2
256,32,117701,1,2
256,128,118029,6,0,B|256:256,4,120
256,128,119668,1,0
160,192,120488,5,0
160,192,120652,1,0
160,192,120815,1,4
352,192,121799,1,0
352,192,121963,1,0
352,192,122127,1,4
192,96,123274,5,0
192,192,123602,1,0
256,256,123930,1,0
320,192,124258,1,0
320,96,124586,1,0
256,32,124914,1,4
160,256,125733,5,0
160,256,125897,1,0
160,256,126061,1,0
160,256,126225,1,4
352,256,127045,1,0
352,256,127209,1,0
352,256,127373,1,0
352,256,127537,1,4
256,96,128520,6,0,B|256:32,10,60,0|0|0|0|0|0|2|2|2|2|4
256,192,130488,12,0,135242
59,180,135570,6,0,B|110:129|142:97|174:65|206:33|238:33|270:33|302:33|334:65|366:97|398:129|459:192,1,480
256,192,138029,1,0
448,207,139340,2,0,B|397:258|365:290|333:322|301:354|269:354|237:354|205:354|173:322|141:290|109:258|48:195,1,480
256,192,141963,1,0
256,192,143274,12,4,144586
