osu file format v5

[General]
AudioFilename: Mindless Self Indulgence - Get It Up.mp3
AudioLeadIn: 0
PreviewTime: -1
Countdown: 1
SampleSet: Normal

[Metadata]
Title:Get It Up
Artist:Mindless Self Indulgence
Creator:Rolled
Version:Easy

[Difficulty]
HPDrainRate:4
CircleSize:3
OverallDifficulty:4
SliderMultiplier:1
SliderTickRate:1

[Events]
//Background and Video events
0,0,"23160981_1208687284_1208676563_msi_if_cover.jpg"
//Break Periods
2,54738,62288
//Storyboard Layer 0 (Background)
//Storyboard Layer 1 (Failing)
//Storyboard Layer 2 (Passing)
//Storyboard Layer 3 (Foreground)
//Storyboard Sound Samples
//Background Colour Transformations
3,100,163,162,255

[TimingPoints]
7538,500,4,1,0,100

[Colours]
Combo1 : 192,192,192
Combo2 : 6,3,0
Combo3 : 128,128,128
Combo4 : 187,0,0

[HitObjects]
80,304,7538,1,0
168,224,8038,1,0
248,136,8538,1,0
248,136,8788,1,0
368,272,9538,5,0
368,152,10038,1,0
368,32,10538,1,0
240,160,11288,5,0
240,160,11538,1,0
120,160,12038,1,0
120,280,12538,1,0
360,288,13538,5,0
360,168,14038,1,0
360,48,14538,1,0
256,104,15038,5,4
256,104,15288,1,4
256,104,15538,1,4
256,104,15788,1,4
64,328,17038,5,4
64,328,17288,1,4
64,328,17538,1,4
64,328,17788,1,4
360,328,19038,5,4
360,328,19288,1,4
360,328,19538,1,4
360,328,19788,1,4
256,192,21038,12,4,22538
424,88,23538,1,0
424,208,24038,1,0
312,152,24538,1,0
312,152,24788,1,0
136,104,25538,5,0
136,224,26038,1,0
232,160,26538,1,0
448,56,27538,5,0
448,176,28038,1,0
448,296,28538,1,0
448,296,28788,1,0
264,304,29538,5,0
168,224,30038,2,0,L|88:144,1,100
328,80,31538,6,0,L|328:176|224:176|224:264,1,250
64,136,33538,6,0,L|56:296|136:296|184:240,1,300
248,160,35538,5,0
336,80,36038,1,0
360,192,36538,1,0
360,192,36788,1,0
232,312,37538,5,0
152,224,38038,1,0
72,136,38538,1,0
240,80,39288,6,0,B|364:76|392:216,3,200
216,256,43038,1,0
216,136,43538,5,0
336,136,44038,1,0
456,136,44538,1,0
304,320,45538,5,0
184,320,46038,1,0
64,320,46538,1,0
64,200,47038,5,0
144,112,47538,1,0
216,200,48038,1,0
456,320,49538,5,0
456,200,50038,2,0,B|456:96,1,100
256,192,51038,12,0,54538
256,40,63038,5,4
256,40,63288,1,4
256,40,63538,1,4
256,40,63788,1,4
264,336,65038,5,4
264,336,65288,1,4
264,336,65538,1,4
264,336,65788,1,4
40,192,67038,5,4
40,192,67288,1,4
40,192,67538,1,4
40,192,67788,1,4
472,192,69038,5,4
472,192,69288,1,4
472,192,69538,1,4
472,192,69788,1,4
72,328,71538,5,0
160,240,72038,1,0
248,152,72538,1,0
248,152,72788,1,0
440,328,73538,5,0
352,240,74038,1,0
256,160,74538,1,0
256,8,75538,6,0,B|256:248,1,200
16,176,77538,5,0
136,176,78038,1,0
72,272,78538,1,0
256,112,79538,5,0
256,232,80038,1,0
256,352,80538,1,0
256,352,80788,1,0
352,200,81538,5,0
232,200,82038,1,0
112,200,82538,1,0
256,304,83288,6,0,B|312:248,6,50
176,200,85288,6,0,B|232:144,5,50
