osu file format v5

[General]
AudioFilename: mindless_self_indulgence_-_1989.mp3
AudioLeadIn: 0
PreviewTime: -1
Countdown: 1
SampleSet: Normal
StackLeniency: 0.7
Mode: 0
LetterboxInBreaks: 1

[Metadata]
Title:1989
Artist:Mindless Self Indulgence
Creator:m980
Version:Hard ROCK!
Source:
Tags:

[Difficulty]
HPDrainRate:7
CircleSize:4
OverallDifficulty:8
SliderMultiplier:2.3
SliderTickRate:2

[Events]
//Background and Video events
0,0,"1989.png"
//Break Periods
2,36948,45862
2,70861,74558
//Storyboard Layer 0 (Background)
//Storyboard Layer 1 (Failing)
//Storyboard Layer 2 (Passing)
//Storyboard Layer 3 (Foreground)
//Storyboard Sound Samples
//Background Colour Transformations
3,100,163,162,255

[TimingPoints]
2800,326.086956521739,4,1,0,100,1

[HitObjects]
336,352,2800,1,0
176,352,3126,1,0
256,208,3452,1,0
256,48,3778,1,0
400,128,4104,1,0
480,136,4267,2,2,B|464:232|328:232|320:120,1,230
190,137,4919,1,0
56,352,5408,5,4
120,304,5571,1,0
24,176,5897,1,0
144,72,6223,1,2
456,352,6713,5,4
392,304,6876,1,0
488,176,7202,1,0
368,72,7528,1,2
64,248,8017,5,0
176,360,8343,1,2
336,360,8669,1,0
448,248,8995,1,2
256,248,9321,1,0
176,240,9484,2,0,B|192:144|328:144|344:256,1,230
256,32,10299,1,0
80,48,10626,5,4
16,192,10952,1,0
80,336,11278,1,0
136,192,11604,1,0
296,192,11930,1,4
296,112,12093,2,0,B|352:8|504:24,2,230
496,352,13560,5,0
336,352,13886,1,2
176,352,14213,1,0
16,352,14539,1,2
144,256,14865,5,0
256,144,15191,1,2
368,256,15517,1,0
256,368,15843,1,2
24,40,16495,5,0
328,40,16821,1,0
408,40,16984,1,0
488,40,17147,1,4
256,88,18452,1,2
168,360,18778,5,0
344,360,19104,1,2
168,280,19430,1,0
344,280,19756,1,2
370,200,19919,2,2,B|114:200,1,230
32,32,20734,5,0
192,32,21060,1,0
192,32,21223,1,0
352,32,21550,2,2,B|496:8|504:176,1,230
504,240,22039,1,0
256,352,22365,5,0
184,312,22528,1,0
216,240,22691,1,0
296,240,22854,1,0
328,312,23017,1,0
256,168,23343,1,4
168,24,23995,5,0
344,24,24321,1,2
168,104,24647,1,0
344,104,24973,1,2
370,184,25136,2,2,B|114:184,1,230
216,352,25952,5,0
136,352,26115,1,0
176,280,26278,1,0
176,281,26441,2,2,B|152:156|8:156,1,230
256,280,27093,5,0
256,280,27256,1,0
376,352,27582,5,0
296,352,27745,1,0
336,280,27908,1,0
416,280,28071,1,0
448,200,28234,2,2,B|200:200,1,230
208,344,28886,6,2,B|8:312|0:80|208:40,1,460
256,96,29702,1,0
256,96,29865,1,4
304,344,30191,2,2,B|504:312|512:80|304:40,1,460
256,96,31006,1,0
256,96,31169,1,0
176,344,31495,5,8
16,296,31821,1,0
16,216,31984,1,8
176,176,32310,1,0
176,96,32473,1,8
336,344,32800,1,8
496,296,33126,1,0
496,216,33289,1,8
336,176,33615,1,0
336,96,33778,1,8
208,40,34104,6,2,B|8:72|0:304|208:344,1,460
256,288,34919,1,0
256,288,35082,1,4
304,40,35408,2,2,B|504:72|512:304|304:344,1,460
256,288,36223,1,0
256,288,36386,1,0
256,128,36713,5,4
456,352,47473,5,0
512,192,47799,1,2
456,32,48126,1,0
400,192,48452,1,2
56,352,48778,5,0
0,192,49104,1,2
56,32,49430,1,0
112,192,49756,1,2
256,368,50408,5,0
256,176,50734,1,0
256,96,50897,1,0
256,16,51060,1,4
256,304,52365,1,0
344,360,52691,5,0
168,360,53017,1,2
344,280,53343,1,0
168,280,53669,1,2
142,200,53832,2,2,B|398:200,1,230
480,32,54647,5,0
320,32,54973,1,0
320,32,55136,1,0
160,32,55463,2,2,B|16:8|8:176,1,230
8,240,55952,1,0
256,352,56278,5,0
328,312,56441,1,0
296,240,56604,1,0
216,240,56767,1,0
184,312,56930,1,0
256,168,57256,1,4
344,24,57908,5,0
168,24,58234,1,2
344,104,58560,1,0
168,104,58886,1,2
142,184,59049,2,2,B|398:184,1,230
296,352,59865,5,0
376,352,60028,1,0
336,280,60191,1,0
336,281,60354,2,2,B|360:156|504:156,1,230
256,280,61006,5,0
256,280,61169,1,0
136,352,61495,5,0
216,352,61658,1,0
176,280,61821,1,0
96,280,61984,1,0
64,200,62147,2,2,B|312:200,1,230
304,344,62799,6,2,B|504:312|512:80|304:40,1,460
256,96,63615,1,0
256,96,63778,1,0
208,344,64104,2,2,B|8:312|0:80|208:40,1,460
256,96,64919,1,0
256,96,65082,1,0
336,344,65408,5,8
496,296,65734,1,0
496,216,65897,1,8
336,176,66223,1,0
336,96,66386,1,8
176,344,66713,1,8
16,296,67039,1,0
16,216,67202,1,8
176,176,67528,1,0
176,96,67691,1,8
304,40,68017,6,2,B|504:72|512:304|304:344,1,460
256,288,68832,1,0
256,288,68995,1,0
208,40,69321,2,2,B|8:72|0:304|208:344,1,460
256,288,70136,1,0
256,288,70299,1,0
256,128,70626,5,4
256,192,75843,5,8
136,232,76169,1,0
136,152,76332,1,8
376,232,76658,1,0
376,152,76821,1,8
80,344,77148,6,8,B|432:344,2,345
48,248,78452,6,8,B|24:24|248:24,1,345
320,24,79104,2,0,B|464:24|488:160,1,230,0|8
496,328,79756,5,2
336,328,80083,1,2
496,248,80409,1,2
336,248,80735,1,2
184,328,81061,5,8
40,288,81387,1,0
40,208,81550,1,8
184,248,81876,1,0
184,168,82039,1,8
88,48,82365,6,8,B|456:48,2,345
328,128,83670,5,8
472,168,83996,1,0
472,248,84159,1,8
328,208,84485,1,0
328,288,84648,1,8
256,360,84974,6,4,B|256:112,3,230,4|0|0|4
80,192,86278,5,8
120,312,86604,1,0
40,312,86767,1,8
120,72,87093,1,0
40,72,87256,1,8
256,72,87583,5,0
336,72,87746,1,0
416,72,87909,1,0
336,216,88235,1,0
336,216,88561,1,0
256,192,88887,12,0,91496
256,280,92800,5,0
344,360,93126,5,0
256,360,93289,1,0
168,360,93452,1,2
344,280,93778,1,0
168,280,94104,1,2
142,200,94267,2,2,B|398:200,1,230
480,32,95083,5,0
400,64,95246,1,0
320,32,95409,1,0
320,32,95572,1,0
160,32,95898,2,2,B|16:8|8:176,1,230
8,240,96387,1,0
256,352,96713,5,0
328,312,96876,1,0
296,240,97039,1,0
216,240,97202,1,0
184,312,97365,1,0
256,168,97691,1,4
344,24,98343,5,0
256,24,98506,1,0
168,24,98670,1,2
344,104,98996,1,0
256,104,99159,1,0
168,104,99322,1,2
142,184,99485,2,2,B|398:184,1,230
296,352,100300,5,0
376,352,100463,1,0
336,280,100626,1,0
336,281,100789,2,2,B|360:156|504:156,1,230
256,280,101441,5,0
256,280,101604,1,0
136,352,101930,5,0
216,352,102093,1,0
176,280,102256,1,0
96,280,102420,1,0
64,200,102583,2,2,B|312:200,1,230
304,344,103235,6,2,B|504:312|512:80|304:40,1,460
256,96,104050,1,0
256,96,104213,1,0
208,344,104539,2,2,B|8:312|0:80|208:40,1,460
256,96,105354,1,0
256,96,105517,1,0
336,344,105843,5,8
496,296,106170,1,0
496,216,106333,1,8
336,176,106659,1,0
336,96,106822,1,8
176,344,107148,1,8
16,296,107474,1,0
16,216,107637,1,8
176,176,107963,1,0
176,96,108126,1,8
256,192,108452,12,0,111061
