osu file format v13

[General]
AudioFilename: Mind Vortex - Alive.mp3
AudioLeadIn: 0
PreviewTime: 68354
Countdown: 0
SampleSet: Normal
StackLeniency: 0.4
Mode: 0
LetterboxInBreaks: 0
WidescreenStoryboard: 0

[Editor]
Bookmarks: 25001,47198,69394,91591,92631,113787,124927,135984,158180,180377
DistanceSpacing: 0.8
BeatDivisor: 2
GridSize: 4
TimelineZoom: 1

[Metadata]
Title:Alive
TitleUnicode:Alive
Artist:Mind Vortex
ArtistUnicode:Mind Vortex
Creator:Thunderstorm
Version:Normal
Source:
Tags:dnb drum and bass Ram Records Arc hackSL ErunamoJAZZ Liquicity
BeatmapID:251795
BeatmapSetID:92939

[Difficulty]
HPDrainRate:4
CircleSize:3.5
OverallDifficulty:4
ApproachRate:5
SliderMultiplier:1.2
SliderTickRate:2

[Events]
//Background and Video events
0,0,"safe_image.jpg",0,0
//Break Periods
2,58547,68245
2,114038,123737
//Storyboard Layer 0 (Background)
//Storyboard Layer 1 (Fail)
//Storyboard Layer 2 (Pass)
//Storyboard Layer 3 (Foreground)
//Storyboard Sound Samples
//Background Colour Transformations
3,100,0,0,0

[TimingPoints]
1463,346.820809248555,4,2,0,70,1,0
25042,-100,4,2,0,55,0,0
41689,-100,4,1,0,70,0,0
69435,-100,4,1,0,70,0,1
80447,-100,4,1,0,70,0,0
80533,-100,4,1,0,70,0,1
91545,-100,4,1,0,70,0,0
91632,-100,4,1,0,70,0,1
91718,-100,4,1,0,70,0,0
102730,-100,4,1,0,70,0,1
102817,-100,4,1,0,70,0,0
124926,-100,4,2,0,70,0,0
136025,-100,4,2,0,70,0,0
152672,-100,4,1,0,70,0,0
158221,-100,4,1,0,70,0,1
169233,-100,4,1,0,70,0,0
169319,-100,4,1,0,70,0,1
180331,-100,4,1,0,70,0,0
180418,-100,4,1,0,70,0,1
180504,-100,4,1,0,70,0,0
201921,-100,4,1,0,50,0,0
202267,-100,4,1,0,30,0,0
202614,-100,4,2,0,5,0,0

[Colours]
Combo1 : 216,172,129
Combo2 : 235,221,175
Combo3 : 177,184,226
Combo4 : 220,156,163

[HitObjects]
256,56,2850,5,6,0:0:0:0:
328,180,3370,1,0,0:0:0:0:
188,156,3890,1,0,0:0:0:0:
128,232,4237,1,2,0:0:0:0:
244,316,4757,1,0,0:0:0:0:
244,316,5278,5,0,0:0:0:0:
296,236,5624,2,0,P|343:152|311:83,2,180,2|0|2,0:0|0:0|0:0,0:0:0:0:
200,236,7012,2,0,P|153:152|185:83,2,180,2|0|2,0:0|0:0|0:0,0:0:0:0:
252,316,8399,5,2,0:0:0:0:
392,292,8919,1,0,0:0:0:0:
401,147,9439,1,2,0:0:0:0:
316,196,9786,2,0,P|252:148|288:52,1,180,2|0,0:0|0:0,0:0:0:0:
132,80,10827,6,0,P|144:156|112:196,1,120,2|2,0:0|0:0,0:0:0:0:
121,332,11694,1,0,0:0:0:0:
256,276,12214,1,2,0:0:0:0:
320,204,12561,2,0,P|284:125|360:45,1,180,2|0,0:0|0:0,0:0:0:0:
474,86,13601,1,0,0:0:0:0:
472,136,13775,1,0,0:0:0:0:
476,184,13948,6,0,P|492:259|392:259,2,180,6|0|2,0:0|0:0|0:0,0:0:0:0:
379,184,15335,1,2,0:0:0:0:
234,184,15856,1,0,0:0:0:0:
90,184,16376,6,2,P|92:102|128:87,1,120
259,85,17243,1,0,0:0:0:0:
397,85,17763,6,2,P|422:99|424:181,1,120
279,180,18630,1,0,0:0:0:0:
341,309,19150,5,0,0:0:0:0:
341,309,19497,2,0,P|265:362|221:294,1,180,2|0,0:0|0:0,0:0:0:0:
118,206,20538,1,2,0:0:0:0:
118,206,20884,6,0,P|162:152|238:205,1,180,2|0,0:0|0:0,0:0:0:0:
238,349,21925,1,2,0:0:0:0:
238,349,22272,2,0,P|344:323|364:247,1,180,2|0,0:0|0:0,0:0:0:0:
226,227,23312,2,2,L|227:104,1,120
316,68,24006,5,2,0:0:0:0:
352,156,24353,1,0,0:0:0:0:
444,132,24699,1,2,0:0:0:0:
444,228,25046,6,2,P|471:280|411:336,1,120,6|2,0:0|0:0,0:0:0:0:
347,348,25740,1,0,0:0:0:0:
252,328,26087,2,2,P|126:296|130:196,1,240
91,114,27127,1,0,0:0:0:0:
184,144,27474,6,2,P|251:156|272:212,2,120,2|2|2,0:0|0:0|0:0,0:0:0:0:
188,240,28515,1,0,0:0:0:0:
255,307,28861,2,2,P|378:364|448:273,1,240,6|2,0:0|0:0,0:0:0:0:
441,206,29902,1,0,0:0:0:0:
441,206,30249,6,2,P|377:145|254:202,1,240,2|2,0:0|0:0,0:0:0:0:
158,201,31289,1,0,0:0:0:0:
90,268,31636,2,2,P|67:328|96:384,1,120,2|6,0:0|0:0,0:0:0:0:
164,320,32330,1,0,0:0:0:0:
236,256,32676,6,2,P|254:190|239:141,2,120,2|0|2,0:0|0:0|0:0,0:0:0:0:
236,352,33717,1,0,0:0:0:0:
312,296,34064,1,0,0:0:0:0:
384,232,34410,2,2,P|452:191|404:63,1,240
211,62,35798,6,2,P|163:190|232:231,1,240,2|10,0:0|0:0,0:0:0:0:
327,230,36838,1,0,0:0:0:0:
380,308,37185,2,2,P|420:216|328:128,1,240,10|10,0:0|0:0,0:0:0:0:
248,176,38226,1,0,0:0:0:0:
236,80,38572,6,2,P|168:116|192:260,2,240,10|10|10,0:0|0:0|0:0,0:0:0:0:
308,148,40306,1,0,0:0:0:0:
308,244,40653,2,10,P|404:307|500:236,1,240
404,224,41694,5,0,0:0:0:0:
444,136,42041,2,8,P|400:101|355:141,1,120
260,134,42734,1,0,0:0:0:0:
180,188,43081,2,8,P|164:120|188:64,1,120
88,56,43775,1,0,0:0:0:0:
72,152,44121,1,8,0:0:0:0:
256,192,44468,12,4,47243,0:0:0:0:
404,72,48283,6,0,L|404:196|404:352,1,240,10|0,0:0|0:0,0:0:0:0:
312,280,49324,1,0,0:0:0:0:
244,212,49671,1,8,0:0:0:0:
195,212,49844,1,0,0:0:0:0:
147,212,50017,6,0,P|117:145|181:129,1,120,4|8,0:0|0:0,0:0:0:0:
211,55,50711,1,0,0:0:0:0:
307,55,51058,2,0,P|436:64|460:204,1,240,10|8,0:0|0:0,0:0:0:0:
372,144,52098,1,0,0:0:0:0:
372,240,52445,6,0,L|442:240,2,60,8|8|4,0:0|0:0|0:0,0:0:0:0:
284,280,53139,2,8,P|163:267|140:148,2,240,8|10|8,0:0|0:0|0:0,0:0:0:0:
224,204,54873,1,0,0:0:0:0:
300,148,55220,1,8,0:0:0:0:
283,103,55393,1,0,0:0:0:0:
271,56,55567,6,8,P|384:80|404:184,2,180,4|0|4,0:0|0:0|0:0,0:0:0:0:
203,123,56954,1,0,0:0:0:0:
249,207,57301,1,8,0:0:0:0:
332,256,57647,1,0,0:0:0:0:
428,244,57994,1,8,0:0:0:0:
492,172,58341,1,4,0:0:0:0:
160,164,69439,6,0,P|140:224|196:284,1,120,2|8,0:0|0:0,0:0:0:0:
244,212,70133,1,0,0:0:0:0:
268,120,70480,2,8,P|336:216|272:308,1,240
180,304,71520,1,0,0:0:0:0:
180,304,71867,6,0,P|113:292|111:239,2,120,8|6|8,0:0|0:0|0:0,0:0:0:0:
276,304,72908,1,0,0:0:0:0:
276,304,73254,2,0,B|272:192|240:192|208:192|184:128|204:76,1,240,8|8,0:0|0:0,0:0:0:0:
151,3,74295,1,0,0:0:0:0:
104,88,74642,2,0,B|120:129|96:193|64:193|32:193|28:305,1,240,8|8,0:0|0:0,0:0:0:0:
124,304,75682,1,0,0:0:0:0:
204,356,76029,2,0,P|220:296|176:220,1,120,8|0,0:0|0:0,0:0:0:0:
296,256,76723,1,8,0:0:0:0:
201,243,77069,2,0,P|175:197|198:137,1,120,0|8,0:0|0:0,0:0:0:0:
245,54,77763,5,6,0:0:0:0:
148,54,78110,1,8,0:0:0:0:
80,121,78457,1,0,0:0:0:0:
140,196,78804,2,8,P|100:320|180:364,1,240
184,272,79844,1,0,0:0:0:0:
240,192,80191,6,8,P|314:125|222:41,1,240
176,116,81231,1,0,0:0:0:0:
120,192,81578,2,8,P|46:125|138:41,1,240
220,39,82619,1,0,0:0:0:0:
316,32,82965,6,8,P|313:155|200:180,2,240,12|8|8,0:0|0:0|0:0,0:0:0:0:
240,92,84699,1,0,0:0:0:0:
148,120,85046,6,8,P|151:243|284:256,1,240
332,318,86087,5,6,0:0:0:0:
399,250,86434,1,8,0:0:0:0:
399,154,86780,2,0,P|361:85|321:13,2,120,0|8|0,0:0|0:0|0:0,0:0:0:0:
400,250,87821,1,8,0:0:0:0:
332,319,88168,1,0,0:0:0:0:
264,251,88515,1,12,0:0:0:0:
256,192,88861,12,4,91636,0:0:0:0:
108,312,92676,6,8,P|40:224|116:120,1,240,10|8,0:0|0:0,0:0:0:0:
132,216,93717,1,0,0:0:0:0:
212,164,94064,1,8,0:0:0:0:
213,164,94410,6,0,P|233:239|193:283,1,120,4|8,0:0|0:0,0:0:0:0:
299,311,95104,1,0,0:0:0:0:
360,240,95451,2,8,P|488:232|484:96,1,240,10|8,0:0|0:0,0:0:0:0:
424,168,96491,1,0,0:0:0:0:
356,100,96838,6,0,L|311:59,2,60,8|8|4,0:0|0:0|0:0,0:0:0:0:
280,156,97532,2,8,P|171:206|47:138,1,240,8|10,0:0|0:0,0:0:0:0:
120,84,98572,2,0,P|175:102|230:81,1,120,0|8,0:0|0:0,0:0:0:0:
327,81,99266,1,0,0:0:0:0:
394,149,99613,1,8,0:0:0:0:
394,196,99786,5,8,0:0:0:0:
364,232,99960,1,0,0:0:0:0:
440,288,100306,2,8,P|329:310|276:204,1,240,12|10,0:0|0:0,0:0:0:0:
189,258,101347,1,0,0:0:0:0:
112,316,101694,2,0,P|92:240|128:184,2,120,8|0|8,0:0|0:0|0:0,0:0:0:0:
190,259,102734,5,4,0:0:0:0:
264,320,103081,2,8,P|280:192|152:180,2,240,8|10|8,0:0|0:0|0:0,0:0:0:0:
190,259,104815,1,0,0:0:0:0:
93,259,105162,1,8,0:0:0:0:
93,162,105509,5,4,0:0:0:0:
20,100,105856,2,8,P|176:112|192:184,1,240,8|10,0:0|0:0,0:0:0:0:
279,212,106896,1,0,0:0:0:0:
279,115,107243,1,8,0:0:0:0:
360,168,107590,1,0,0:0:0:0:
440,116,107936,6,0,L|479:70,2,60,8|8|4,0:0|0:0|0:0,0:0:0:0:
360,168,108630,2,8,P|341:274|452:328,2,240,8|10|8,0:0|0:0|0:0,0:0:0:0:
428,236,110364,1,0,0:0:0:0:
464,148,110711,1,8,0:0:0:0:
452,100,110884,1,8,0:0:0:0:
408,80,111058,5,4,0:0:0:0:
311,80,111405,2,8,P|248:172|318:260,1,240,8|10,0:0|0:0,0:0:0:0:
232,300,112445,2,8,P|172:192|232:40,1,240,0|8,0:0|0:0,0:0:0:0:
126,14,113486,5,8,0:0:0:0:
92,47,113659,1,8,0:0:0:0:
75,91,113832,1,4,0:0:0:0:
64,56,124931,6,2,B|20:132|225:191|92:228,1,180
66,274,125798,2,2,B|126:354|194:250|230:310,1,180
371,306,126838,2,0,L|448:306,1,60
465,271,127185,2,2,B|541:247|441:191|505:147,1,120
417,100,127879,2,0,L|362:47,1,60
283,24,128399,6,0,L|216:25,1,60,2|0,0:0|0:0,0:0:0:0:
155,92,128919,2,0,B|100:128|184:192|120:236,1,120,2|2,0:0|0:0,0:0:0:0:
76,271,129613,2,0,B|112:336|188:244|203:319,1,120
329,290,130480,2,0,B|417:274|321:182|441:178,1,180,0|2,0:0|0:0,0:0:0:0:
439,81,131347,5,2,0:0:0:0:
368,40,131694,2,2,B|316:136|256:0|176:104,1,180
111,73,132561,2,2,L|66:128,1,60
80,216,133081,6,0,P|84:296|184:316,1,180
248,268,133948,1,2,0:0:0:0:
344,268,134295,2,2,L|430:268,1,60
471,200,134815,5,2,0:0:0:0:
471,103,135162,1,2,0:0:0:0:
388,152,135509,1,2,0:0:0:0:
261,219,136029,5,6,0:0:0:0:
261,219,136549,1,0,0:0:0:0:
124,264,137069,2,2,P|68:228|72:164,1,120
64,35,137936,1,0,0:0:0:0:
208,48,138457,5,2,0:0:0:0:
260,128,138804,2,0,P|307:212|275:281,2,180,2|0|2,0:0|0:0|0:0,0:0:0:0:
164,128,140191,2,0,P|117:212|149:281,2,180,2|0|2,0:0|0:0|0:0,0:0:0:0:
209,48,141578,5,6,0:0:0:0:
344,96,142098,1,0,0:0:0:0:
388,232,142619,1,2,0:0:0:0:
316,188,142965,2,0,P|252:236|288:332,1,180,2|0,0:0|0:0,0:0:0:0:
388,232,144006,6,2,P|416:172|376:128,1,120
293,41,144873,1,0,0:0:0:0:
192,142,145393,1,2,0:0:0:0:
191,142,145740,2,0,P|155:221|231:301,1,180,2|0,0:0|0:0,0:0:0:0:
347,291,146780,1,2,0:0:0:0:
395,291,146954,1,2,0:0:0:0:
444,291,147127,6,0,P|464:192|452:96,2,180,6|0|2,0:0|0:0|0:0,0:0:0:0:
348,291,148515,1,2,0:0:0:0:
247,189,149035,1,0,0:0:0:0:
392,189,149555,2,2,P|417:175|419:93,1,120
275,93,150422,5,0,0:0:0:0:
132,93,150942,2,2,P|134:175|170:190,1,120
159,332,151809,1,0,0:0:0:0:
303,332,152330,1,0,0:0:0:0:
303,332,152676,6,0,P|379:279|424:332,1,180,0|8,0:0|0:0,0:0:0:0:
424,187,153717,1,0,0:0:0:0:
437,80,154064,2,0,P|361:27|317:81,1,180,0|8,0:0|0:0,0:0:0:0:
316,224,155104,5,0,0:0:0:0:
316,224,155451,2,0,P|271:278|195:225,1,180,0|8,0:0|0:0,0:0:0:0:
212,80,156491,2,4,P|287:56|305:98,1,120
303,174,157185,5,0,0:0:0:0:
303,269,157532,1,0,0:0:0:0:
219,222,157879,1,0,0:0:0:0:
123,222,158226,6,0,P|96:274|156:330,1,120,2|8,0:0|0:0,0:0:0:0:
222,322,158919,1,0,0:0:0:0:
302,269,159266,2,8,P|424:224|416:132,1,240
344,188,160306,1,0,0:0:0:0:
248,184,160653,6,0,P|208:236|212:296,2,120,8|6|8,0:0|0:0|0:0,0:0:0:0:
332,136,161694,1,0,0:0:0:0:
252,84,162041,2,0,P|168:8|56:60,1,240,8|8,0:0|0:0,0:0:0:0:
148,112,163081,1,0,0:0:0:0:
56,140,163428,2,0,P|104:204|240:156,1,240,10|8,0:0|0:0,0:0:0:0:
332,152,164468,1,0,0:0:0:0:
412,100,164815,2,0,P|424:164|384:228,1,120,8|0,0:0|0:0,0:0:0:0:
319,245,165509,1,8,0:0:0:0:
238,297,165856,6,0,P|218:229|262:173,1,120,0|8,0:0|0:0,0:0:0:0:
265,96,166549,1,6,0:0:0:0:
352,55,166896,1,8,0:0:0:0:
400,137,167243,1,0,0:0:0:0:
400,137,167590,6,8,P|448:265|368:305,1,240
283,305,168630,1,0,0:0:0:0:
283,305,168977,1,8,0:0:0:0:
283,305,169324,1,6,0:0:0:0:
186,305,169671,6,8,P|124:200|192:96,1,240
243,173,170711,1,0,0:0:0:0:
310,105,171058,2,8,P|372:210|304:314,1,240
233,264,172098,5,6,0:0:0:0:
160,328,172445,2,8,P|144:220|264:172,2,240
232,264,174179,1,0,0:0:0:0:
328,264,174526,6,8,P|416:260|440:116,1,240,8|8,0:0|0:0,0:0:0:0:
376,184,175567,1,0,0:0:0:0:
300,124,175913,1,8,0:0:0:0:
208,100,176260,2,0,P|239:43|307:31,2,120,0|8|0,0:0|0:0|0:0,0:0:0:0:
208,196,177301,1,8,0:0:0:0:
256,192,177647,12,4,180422,0:0:0:0:
122,67,181463,6,8,P|82:183|168:248,1,240,10|8,0:0|0:0,0:0:0:0:
245,296,182503,1,0,0:0:0:0:
245,199,182850,1,8,0:0:0:0:
327,249,183197,6,0,P|340:176|308:124,1,120,4|8,0:0|0:0,0:0:0:0:
321,40,183890,1,0,0:0:0:0:
224,36,184237,2,8,P|128:73|76:204,1,240,10|8,0:0|0:0,0:0:0:0:
167,221,185278,1,0,0:0:0:0:
133,310,185624,6,0,L|63:310,2,60,8|8|4,0:0|0:0|0:0,0:0:0:0:
229,310,186318,2,8,P|278:235|430:191,2,240,8|10|8,0:0|0:0|0:0,0:0:0:0:
161,242,188052,1,0,0:0:0:0:
93,174,188399,5,8,0:0:0:0:
160,106,188746,1,4,0:0:0:0:
248,64,189093,2,8,P|368:48|444:144,1,240,8|10,0:0|0:0,0:0:0:0:
328,152,190133,1,0,0:0:0:0:
233,152,190480,5,8,0:0:0:0:
196,242,190827,1,0,0:0:0:0:
100,242,191173,1,8,0:0:0:0:
55,156,191520,5,4,0:0:0:0:
55,156,191867,2,8,P|80:38|161:105,2,240,8|10|8,0:0|0:0|0:0,0:0:0:0:
122,223,193601,1,0,0:0:0:0:
200,280,193948,1,8,0:0:0:0:
248,282,194121,1,8,0:0:0:0:
296,280,194295,5,4,0:0:0:0:
296,183,194642,2,8,P|420:130|512:190,2,240,8|10|8,0:0|0:0|0:0,0:0:0:0:
212,232,196376,1,0,0:0:0:0:
123,185,196723,2,0,L|51:128,2,60,8|8|4,0:0|0:0|0:0,0:0:0:0:
213,231,197416,6,8,P|244:352|388:352,1,240,8|10,0:0|0:0,0:0:0:0:
312,272,198457,1,0,0:0:0:0:
419,193,198804,2,8,P|403:68|272:60,1,240
243,43,199671,1,8,0:0:0:0:
243,91,199844,1,4,0:0:0:0:
147,91,200191,6,8,P|163:216|296:256,1,240,8|10,0:0|0:0,0:0:0:0:
349,289,201231,1,0,0:0:0:0:
417,221,201578,2,0,P|428:158|412:94,2,120,8|0|8,0:0|0:0|0:0,0:0:0:0:
256,192,202619,12,0,205393,0:0:0:0:
