osu file format v13

[General]
AudioFilename: Mind Vortex - Alive.mp3
AudioLeadIn: 0
PreviewTime: 68354
Countdown: 0
SampleSet: Soft
StackLeniency: 0.5
Mode: 0
LetterboxInBreaks: 0
WidescreenStoryboard: 0

[Editor]
Bookmarks: 25001,47198,69394,91591,113787,124927,135984,137412,144349,158180,180377,180418
DistanceSpacing: 1.2
BeatDivisor: 4
GridSize: 4
TimelineZoom: 1

[Metadata]
Title:Alive
TitleUnicode:Alive
Artist:Mind Vortex
ArtistUnicode:Mind Vortex
Creator:Thunderstorm
Version:Insane
Source:
Tags:dnb drum and bass Ram Records Arc hackSL ErunamoJAZZ Liquicity
BeatmapID:251013
BeatmapSetID:92939

[Difficulty]
HPDrainRate:7
CircleSize:4
OverallDifficulty:8
ApproachRate:9
SliderMultiplier:2
SliderTickRate:2

[Events]
//Background and Video events
0,0,"safe_image.jpg",0,0
//Break Periods
2,114032,124331
//Storyboard Layer 0 (Background)
//Storyboard Layer 1 (Fail)
//Storyboard Layer 2 (Pass)
//Storyboard Layer 3 (Foreground)
//Storyboard Sound Samples
//Background Colour Transformations
3,100,0,0,0

[TimingPoints]
1463,346.820809248555,4,2,0,70,1,0
2846,-200,4,2,0,55,0,0
13944,-133.333333333333,4,2,0,70,0,0
25042,-100,4,2,0,100,0,0
41689,-100,4,1,0,55,0,0
47239,-100,4,1,0,70,0,0
68221,-100,4,3,0,70,0,0
69435,-100,4,1,0,70,0,1
80447,-100,4,2,0,70,0,0
80533,-100,4,1,0,70,0,1
91545,-100,4,1,0,70,0,0
91632,-100,4,1,0,70,0,1
91718,-100,4,1,0,70,0,0
102730,-100,4,1,0,70,0,1
102817,-100,4,1,0,70,0,0
124926,-200,4,2,0,70,0,0
136025,-200,4,2,0,70,0,0
141574,-133.333333333333,4,2,0,70,0,0
152672,-100,4,1,0,70,0,0
158221,-100,4,1,0,70,0,1
169233,-100,4,1,0,70,0,0
169319,-100,4,1,0,70,0,1
180331,-100,4,1,0,70,0,0
180418,-100,4,1,0,70,0,1
180504,-100,4,1,0,70,0,0
201400,-100,4,3,0,70,0,0
202614,-100,4,2,0,5,0,0

[Colours]
Combo1 : 216,172,129
Combo2 : 235,221,175
Combo3 : 177,184,226
Combo4 : 220,156,163

[HitObjects]
443,62,2850,6,2,P|443:137|376:180,1,150
142,64,3890,1,2,0:0:0:0:
142,64,4237,2,2,B|61:68|113:160|13:148,1,150
257,298,5278,1,2,0:0:0:0:
180,136,5624,2,2,B|254:112|254:112|334:140,1,150
52,152,6665,1,2,0:0:0:0:
52,151,7012,2,2,P|48:76|126:44,1,150
256,266,8052,1,2,0:0:0:0:
332,104,8399,6,2,P|389:106|444:34,2,150
256,52,9613,1,0,0:0:0:0:
180,104,9786,2,2,P|123:106|68:34,2,150
256,152,11000,1,0,0:0:0:0:
192,215,11173,2,2,B|128:267|128:267|128:339,2,150
256,280,12387,1,0,0:0:0:0:
320,216,12561,2,2,B|384:268|384:268|384:340,2,150
256,152,13775,1,2,0:0:0:0:
161,195,13948,6,2,P|84:142|176:86,1,225.000008583069
256,353,14989,1,2,0:0:0:0:
256,248,15162,1,0,0:0:0:0:
201,158,15335,2,0,P|104:200|8:136,2,225.000008583069
255,67,16549,1,0,0:0:0:0:
309,157,16723,2,0,P|406:199|502:135,2,225.000008583069
120,250,18110,5,2,0:0:0:0:
328,212,18457,1,0,0:0:0:0:
420,264,18630,2,2,P|494:177|430:97,1,225.000008583069
364,25,19324,1,2,0:0:0:0:
271,74,19497,2,2,P|197:161|261:241,2,225.000008583069
60,74,20884,1,2,0:0:0:0:
224,220,21231,5,2,0:0:0:0:
160,156,21405,1,2,0:0:0:0:
70,156,21578,1,2,0:0:0:0:
6,219,21752,1,2,0:0:0:0:
36,304,21925,2,0,L|193:304,1,150.000005722046,0|4,0:0|0:0,0:0:0:0:
348,220,22619,5,2,0:0:0:0:
411,156,22792,1,2,0:0:0:0:
500,156,22965,1,2,0:0:0:0:
411,157,23139,1,2,0:0:0:0:
448,76,23312,2,4,P|364:76|324:136,1,150.000005722046,0|4,0:0|0:0,0:0:0:0:
256,192,24006,12,0,25046,0:0:0:0:
136,64,25393,5,0,0:0:0:0:
56,156,25567,2,2,P|68:205|128:248,1,100,2|2,0:0|0:0,0:0:0:0:
200,308,25913,1,0,0:0:0:0:
312,268,26087,2,2,P|300:219|240:176,1,100,2|2,0:0|0:0,0:0:0:0:
247,64,26434,1,4,0:0:0:0:
468,56,26780,5,0,0:0:0:0:
400,149,26954,2,2,P|425:252|333:311,1,200
277,222,27474,1,0,0:0:0:0:
278,222,27647,1,0,0:0:0:0:
170,275,27821,2,2,P|145:172|237:113,1,200
309,48,28341,1,0,0:0:0:0:
476,216,28688,5,0,0:0:0:0:
360,248,28861,1,0,0:0:0:0:
272,168,29035,1,0,0:0:0:0:
308,48,29208,1,4,0:0:0:0:
68,20,29555,5,0,0:0:0:0:
156,104,29728,2,2,B|92:184|192:220|112:304,1,200
272,348,30249,1,0,0:0:0:0:
195,348,30422,1,0,0:0:0:0:
336,292,30595,2,2,B|272:212|372:176|292:92,1,200
236,4,31116,1,0,0:0:0:0:
88,192,31463,1,0,0:0:0:0:
172,108,31636,1,0,0:0:0:0:
256,192,31809,1,0,0:0:0:0:
256,192,31983,6,2,B|216:238|227:288|227:288|227:288|227:288|173:290|132:339,1,200,6|2,0:0|0:0,0:0:0:0:
142,207,32503,1,0,0:0:0:0:
382,207,32850,1,0,0:0:0:0:
324,311,33023,1,0,0:0:0:0:
213,264,33197,1,0,0:0:0:0:
264,152,33370,2,2,P|332:56|304:-20,1,200
232,76,33890,2,2,P|336:76|404:152,1,200
436,256,34410,1,0,0:0:0:0:
328,308,34584,1,0,0:0:0:0:
276,200,34757,6,2,P|220:292|232:380,1,200
328,308,35278,2,2,P|232:276|136:324,1,200
36,264,35798,1,0,0:0:0:0:
112,172,35971,1,0,0:0:0:0:
52,68,36145,6,0,P|160:56|228:152,1,200,0|8,0:0|0:0,0:0:0:0:
340,128,36665,1,0,0:0:0:0:
296,240,36838,1,0,0:0:0:0:
176,260,37012,1,0,0:0:0:0:
56,240,37185,1,8,0:0:0:0:
8,128,37358,1,0,0:0:0:0:
112,68,37532,2,2,P|164:4|236:76,1,200,0|8,0:0|0:0,0:0:0:0:
316,156,38052,5,0,0:0:0:0:
316,156,38226,1,0,0:0:0:0:
396,68,38399,2,8,L|492:4,1,100,0|8,0:0|0:0,0:0:0:0:
472,132,38746,1,0,0:0:0:0:
436,244,38919,2,0,B|368:228|344:284|344:284|320:356|240:324,1,200,0|8,0:0|0:0,0:0:0:0:
195,241,39439,1,0,0:0:0:0:
213,121,39613,1,0,0:0:0:0:
293,209,39786,1,0,0:0:0:0:
281,326,39960,5,8,0:0:0:0:
195,241,40133,1,0,0:0:0:0:
214,121,40306,2,0,B|296:12|296:12|376:4,1,200,0|8,0:0|0:0,0:0:0:0:
332,124,40827,1,0,0:0:0:0:
214,121,41000,1,0,0:0:0:0:
256,364,41347,1,8,0:0:0:0:
440,208,41694,6,0,B|472:44|472:44|424:32,1,200,4|8,0:0|0:0,0:0:0:0:
336,100,42214,1,0,0:0:0:0:
236,36,42387,6,0,B|204:43|204:43|236:207,1,200,0|8,0:0|0:0,0:0:0:0:
128,260,42908,1,0,0:0:0:0:
20,212,43081,2,0,P|0:264|20:312,1,100,0|0,0:0|0:0,0:0:0:0:
128,260,43428,2,0,P|148:200|120:160,1,100,8|0,0:0|0:0,0:0:0:0:
132,50,43775,1,0,0:0:0:0:
133,170,43948,1,0,0:0:0:0:
248,200,44121,1,8,0:0:0:0:
224,80,44295,1,0,0:0:0:0:
224,80,44468,5,0,0:0:0:0:
262,68,44555,1,0,0:0:0:0:
300,77,44642,1,0,0:0:0:0:
328,105,44728,1,0,0:0:0:0:
356,134,44815,1,8,0:0:0:0:
392,150,44902,1,0,0:0:0:0:
431,144,44989,1,8,0:0:0:0:
465,124,45075,1,0,0:0:0:0:
493,95,45162,5,0,0:0:0:0:
493,135,45249,1,0,0:0:0:0:
493,175,45335,1,0,0:0:0:0:
493,215,45422,1,0,0:0:0:0:
493,254,45509,1,8,0:0:0:0:
493,294,45595,1,0,0:0:0:0:
493,334,45682,1,8,0:0:0:0:
256,192,45856,12,4,47243,0:0:0:0:
58,58,47590,5,8,0:0:0:0:
58,58,47763,2,2,P|104:172|196:176,1,200,2|0,0:0|0:0,0:0:0:0:
254,98,48283,1,10,0:0:0:0:
339,183,48457,1,0,0:0:0:0:
252,264,48630,1,0,0:0:0:0:
152,202,48804,2,2,P|84:268|156:328,1,200,2|0,0:0|0:0,0:0:0:0:
336,328,49324,5,2,0:0:0:0:
462,201,49497,1,0,0:0:0:0:
292,263,49671,1,8,0:0:0:0:
472,280,49844,1,10,0:0:0:0:
340,160,50017,6,2,B|288:168|264:124|264:124|224:72|167:96,1,200,6|8,0:0|0:0,0:0:0:0:
84,8,50538,1,2,0:0:0:0:
168,96,50711,1,0,0:0:0:0:
84,180,50884,1,0,0:0:0:0:
0,96,51058,2,2,B|0:232|0:232|56:292,1,200,10|0,0:0|0:0,0:0:0:0:
168,284,51578,1,2,0:0:0:0:
152,164,51752,1,8,0:0:0:0:
240,248,51925,1,0,0:0:0:0:
232,72,52098,5,2,0:0:0:0:
317,231,52272,1,0,0:0:0:0:
317,51,52445,1,8,0:0:0:0:
404,208,52619,1,10,0:0:0:0:
400,28,52792,6,2,B|456:68|488:116|492:212,1,200,6|8,0:0|0:0,0:0:0:0:
404,280,53312,1,2,0:0:0:0:
285,258,53486,1,0,0:0:0:0:
204,168,53659,1,0,0:0:0:0:
320,136,53832,2,2,L|164:292,1,200,10|0,0:0|0:0,0:0:0:0:
57,277,54353,1,2,0:0:0:0:
141,192,54526,1,8,0:0:0:0:
224,108,54699,1,0,0:0:0:0:
312,264,54873,5,2,0:0:0:0:
132,264,55046,1,0,0:0:0:0:
224,108,55220,1,8,0:0:0:0:
312,264,55393,1,10,0:0:0:0:
132,264,55567,6,6,B|8:224|132:128|4:80,1,200,2|8,0:0|0:0,0:0:0:0:
188,95,56087,1,2,0:0:0:0:
236,204,56260,1,0,0:0:0:0:
132,264,56434,1,0,0:0:0:0:
237,320,56607,2,2,L|439:320,1,200,10|0,0:0|0:0,0:0:0:0:
309,192,57127,5,2,0:0:0:0:
181,64,57301,1,8,0:0:0:0:
240,233,57474,1,8,0:0:0:0:
260,56,57647,1,2,0:0:0:0:
164,208,57821,1,0,0:0:0:0:
316,116,57994,1,8,0:0:0:0:
136,132,58168,1,10,0:0:0:0:
76,300,58341,6,0,P|184:344|248:304,1,200,6|8,0:0|0:0,0:0:0:0:
368,304,58861,1,2,0:0:0:0:
316,192,59035,1,0,0:0:0:0:
412,120,59208,1,0,0:0:0:0:
488,28,59382,2,2,B|384:28|384:28|304:80,1,200,10|0,0:0|0:0,0:0:0:0:
192,32,59902,1,2,0:0:0:0:
208,152,60075,1,8,0:0:0:0:
304,80,60249,1,0,0:0:0:0:
128,108,60422,6,0,P|80:128|44:172,1,100,2|0,0:0|0:0,0:0:0:0:
220,107,60769,2,8,P|268:127|304:171,1,100,8|10,0:0|0:0,0:0:0:0:
172,288,61116,6,2,B|178:332|250:316|250:316|306:308|334:372,1,200,6|8,0:0|0:0,0:0:0:0:
430,299,61636,1,2,0:0:0:0:
488,196,61809,1,0,0:0:0:0:
372,224,61983,1,0,0:0:0:0:
272,156,62156,2,2,B|352:160|404:116|412:44,1,200,10|0,0:0|0:0,0:0:0:0:
292,48,62676,1,2,0:0:0:0:
180,96,62850,1,8,0:0:0:0:
72,48,63023,1,0,0:0:0:0:
252,48,63197,5,2,0:0:0:0:
168,208,63370,1,0,0:0:0:0:
168,28,63543,1,8,0:0:0:0:
168,208,63717,1,10,0:0:0:0:
72,48,63890,2,2,P|16:124|84:204,1,200,0|8,0:0|0:0,0:0:0:0:
88,320,64410,1,2,0:0:0:0:
209,324,64584,6,0,L|288:244,1,100
364,337,64931,2,2,L|498:181,1,200,10|0,0:0|0:0,0:0:0:0:
416,92,65451,1,2,0:0:0:0:
331,176,65624,1,8,0:0:0:0:
245,261,65798,1,0,0:0:0:0:
245,81,65971,5,2,0:0:0:0:
68,112,66145,1,0,0:0:0:0:
180,252,66318,1,8,0:0:0:0:
245,81,66491,1,10,0:0:0:0:
360,220,66665,6,2,B|360:376|360:376|308:376,1,200,6|8,0:0|0:0,0:0:0:0:
196,360,67185,1,2,0:0:0:0:
244,248,67358,1,0,0:0:0:0:
220,132,67532,1,0,0:0:0:0:
136,48,67705,2,2,B|192:16|232:40|232:40|280:68|348:12,1,200,10|0,0:0|0:0,0:0:0:0:
450,165,68226,5,4,0:0:0:0:
379,94,68399,1,4,0:0:0:0:
379,213,68572,1,4,0:0:0:0:
286,118,68746,1,4,0:0:0:0:
282,264,68919,1,4,0:0:0:0:
152,141,69093,1,4,0:0:0:0:
150,314,69266,1,4,0:0:0:0:
9,201,69439,6,0,B|11:32|11:32|82:32,1,200,4|8,0:0|0:0,0:0:0:0:
160,60,69960,1,0,0:0:0:0:
200,172,70133,1,0,0:0:0:0:
308,228,70306,2,0,L|369:314,1,100,0|8,0:0|0:0,0:0:0:0:
450,224,70653,1,0,0:0:0:0:
448,104,70827,2,0,B|428:48|380:12|324:44|312:108,1,200,0|8,0:0|0:0,0:0:0:0:
154,192,71347,5,0,0:0:0:0:
56,120,71520,1,0,0:0:0:0:
154,192,71694,2,0,L|228:116,2,100,0|8|0,0:0|0:0|0:0,0:0:0:0:
56,260,72214,2,0,B|84:312|84:312|232:312,1,200,4|8,0:0|0:0,0:0:0:0:
320,240,72734,1,0,0:0:0:0:
440,208,72908,1,0,0:0:0:0:
504,108,73081,2,0,P|468:48|400:48,1,100,0|8,0:0|0:0,0:0:0:0:
340,104,73428,1,0,0:0:0:0:
244,32,73601,2,0,B|232:132|112:64|96:172,1,200,0|8,0:0|0:0,0:0:0:0:
228,279,74121,5,0,0:0:0:0:
136,356,74295,2,0,L|100:252,1,100
164,156,74642,1,8,0:0:0:0:
104,261,74815,1,0,0:0:0:0:
228,280,74989,2,0,P|324:249|324:121,1,200,4|8,0:0|0:0,0:0:0:0:
293,52,75509,1,0,0:0:0:0:
412,52,75682,1,0,0:0:0:0:
468,160,75856,1,0,0:0:0:0:
462,279,76029,2,0,P|366:248|366:120,2,200,8|0|8,0:0|0:0|0:0,0:0:0:0:
284,316,76896,5,0,0:0:0:0:
192,240,77069,1,0,0:0:0:0:
76,204,77243,1,0,0:0:0:0:
164,124,77416,2,0,P|272:106|289:188,1,200,8|4,0:0|0:0,0:0:0:0:
193,240,77936,1,0,0:0:0:0:
78,204,78110,1,8,0:0:0:0:
164,124,78283,1,0,0:0:0:0:
192,240,78457,2,0,B|248:240|248:276|248:328|248:328|344:328,1,200,0|8,0:0|0:0,0:0:0:0:
392,236,78977,1,0,0:0:0:0:
292,88,79150,5,0,0:0:0:0:
192,240,79324,1,0,0:0:0:0:
328,356,79497,1,10,0:0:0:0:
428,204,79671,1,10,0:0:0:0:
272,112,79844,1,0,0:0:0:0:
192,272,80017,1,0,0:0:0:0:
348,364,80191,1,10,0:0:0:0:
445,213,80364,1,10,0:0:0:0:
316,92,80538,6,0,B|224:48|224:48|104:96,1,200,4|8,0:0|0:0,0:0:0:0:
76,190,81058,1,0,0:0:0:0:
180,252,81231,1,0,0:0:0:0:
180,132,81405,1,0,0:0:0:0:
76,190,81578,2,0,P|10:161|25:48,2,200,8|0|8,0:0|0:0|0:0,0:0:0:0:
196,192,82445,1,0,0:0:0:0:
308,150,82619,1,0,0:0:0:0:
420,192,82792,1,0,0:0:0:0:
308,150,82965,1,8,0:0:0:0:
240,248,83139,1,0,0:0:0:0:
68,300,83312,6,0,B|184:296|56:132|200:144,1,200,4|8,0:0|0:0,0:0:0:0:
192,32,83832,1,0,0:0:0:0:
157,147,84006,1,0,0:0:0:0:
56,80,84179,1,0,0:0:0:0:
176,88,84353,2,8,P|260:128|376:60,2,200,8|0|8,0:0|0:0|0:0,0:0:0:0:
56,80,85220,1,0,0:0:0:0:
56,199,85393,2,0,L|148:262,1,100
240,324,85740,1,8,0:0:0:0:
240,204,85913,1,0,0:0:0:0:
412,264,86087,6,0,L|464:60,1,200,4|8,0:0|0:0,0:0:0:0:
347,107,86607,1,0,0:0:0:0:
308,220,86780,1,0,0:0:0:0:
264,108,86954,2,0,P|209:126|197:186,1,100,0|8,0:0|0:0,0:0:0:0:
76,196,87301,1,0,0:0:0:0:
44,80,87474,2,0,B|100:48|100:48|172:48|172:48|248:8,1,200,0|8,0:0|0:0,0:0:0:0:
348,18,87994,1,0,0:0:0:0:
229,19,88168,1,0,0:0:0:0:
229,138,88341,1,0,0:0:0:0:
356,265,88515,6,0,P|362:170|490:154,1,200,8|4,0:0|0:0,0:0:0:0:
449,255,89035,1,0,0:0:0:0:
450,135,89208,1,8,0:0:0:0:
364,56,89382,2,0,B|316:40|316:40|260:56,1,100,8|4,0:0|0:0,0:0:0:0:
316,168,89728,1,0,0:0:0:0:
365,56,89902,1,8,0:0:0:0:
316,168,90075,1,8,0:0:0:0:
332,288,90249,5,0,0:0:0:0:
296,306,90335,1,0,0:0:0:0:
259,321,90422,1,0,0:0:0:0:
220,331,90509,1,0,0:0:0:0:
180,334,90595,5,8,0:0:0:0:
141,329,90682,1,0,0:0:0:0:
103,316,90769,1,8,0:0:0:0:
69,295,90856,1,0,0:0:0:0:
39,269,90942,5,0,0:0:0:0:
34,232,91029,1,0,0:0:0:0:
43,193,91116,1,0,0:0:0:0:
61,157,91202,1,0,0:0:0:0:
86,126,91289,5,8,0:0:0:0:
117,101,91376,1,0,0:0:0:0:
152,81,91463,1,8,0:0:0:0:
189,66,91549,1,0,0:0:0:0:
225,50,91636,6,2,P|337:22|421:42,1,200,6|8,0:0|0:0,0:0:0:0:
417,160,92156,2,0,P|305:188|221:168,1,200,2|0,0:0|0:0,0:0:0:0:
139,254,92676,1,10,0:0:0:0:
53,168,92850,1,0,0:0:0:0:
167,132,93023,1,0,0:0:0:0:
252,217,93197,2,2,B|353:222|313:370|407:342,1,200,2|0,0:0|0:0,0:0:0:0:
457,179,93717,5,2,0:0:0:0:
300,96,93890,2,0,B|256:68|256:68|204:96,1,100,0|8,0:0|0:0,0:0:0:0:
56,178,94237,1,10,0:0:0:0:
164,324,94410,6,2,L|392:324,1,200,6|8,0:0|0:0,0:0:0:0:
432,224,94931,1,2,0:0:0:0:
324,164,95104,1,0,0:0:0:0:
208,132,95278,1,0,0:0:0:0:
296,52,95451,2,2,P|432:72|488:144,1,200,10|0,0:0|0:0,0:0:0:0:
432,224,95971,1,2,0:0:0:0:
324,165,96145,1,8,0:0:0:0:
208,132,96318,1,0,0:0:0:0:
42,207,96491,5,2,0:0:0:0:
136,52,96665,1,0,0:0:0:0:
312,51,96838,1,8,0:0:0:0:
225,211,97012,1,10,0:0:0:0:
408,203,97185,6,2,B|476:114|476:114|478:23,1,200,6|8,0:0|0:0,0:0:0:0:
379,92,97705,1,2,0:0:0:0:
296,180,97879,1,0,0:0:0:0:
409,203,98052,1,0,0:0:0:0:
496,288,98226,2,2,P|392:327|316:265,1,200,10|0,0:0|0:0,0:0:0:0:
262,179,98746,1,2,0:0:0:0:
381,176,98919,1,8,0:0:0:0:
326,282,99093,1,0,0:0:0:0:
156,224,99266,6,0,P|95:162|69:160,1,100,2|0,0:0|0:0,0:0:0:0:
247,77,99613,2,8,P|202:56|177:13,1,100,8|10,0:0|0:0,0:0:0:0:
262,179,99960,6,2,B|368:236|368:236|456:237,1,200,6|8,0:0|0:0,0:0:0:0:
396,128,100480,1,2,0:0:0:0:
448,237,100653,1,0,0:0:0:0:
394,343,100827,1,0,0:0:0:0:
276,340,101000,2,2,B|340:295|180:216|264:152,1,200,10|0,0:0|0:0,0:0:0:0:
99,249,101520,5,2,0:0:0:0:
99,68,101694,1,8,0:0:0:0:
253,162,101867,1,8,0:0:0:0:
73,162,102041,1,2,0:0:0:0:
229,70,102214,1,0,0:0:0:0:
229,250,102387,1,8,0:0:0:0:
165,81,102561,1,10,0:0:0:0:
229,250,102734,6,4,P|168:312|100:240,1,200,6|8,0:0|0:0,0:0:0:0:
96,128,103254,1,2,0:0:0:0:
165,226,103428,1,0,0:0:0:0:
233,130,103601,1,0,0:0:0:0:
316,40,103775,2,2,B|420:84|420:84|468:196,1,200,10|0,0:0|0:0,0:0:0:0:
454,284,104295,1,2,0:0:0:0:
369,199,104468,1,8,0:0:0:0:
283,284,104642,1,0,0:0:0:0:
156,157,104815,5,2,0:0:0:0:
84,321,104989,1,0,0:0:0:0:
236,225,105162,1,8,0:0:0:0:
57,226,105335,1,10,0:0:0:0:
208,321,105509,6,2,P|260:387|324:303,1,200,6|8,0:0|0:0,0:0:0:0:
420,244,106029,1,2,0:0:0:0:
392,127,106202,1,0,0:0:0:0:
289,64,106376,1,0,0:0:0:0:
169,64,106549,2,2,P|55:107|23:203,1,200,10|0,0:0|0:0,0:0:0:0:
48,290,107069,1,2,0:0:0:0:
167,315,107243,1,8,0:0:0:0:
267,247,107416,1,0,0:0:0:0:
432,316,107590,6,0,L|500:236,1,100,2|0,0:0|0:0,0:0:0:0:
352,136,107936,1,8,0:0:0:0:
352,316,108110,1,10,0:0:0:0:
192,240,108283,6,2,B|108:304|52:164|-24:240,1,200,6|8,0:0|0:0,0:0:0:0:
61,111,108804,1,2,0:0:0:0:
176,144,108977,1,0,0:0:0:0:
149,28,109150,1,0,0:0:0:0:
257,79,109324,2,2,P|338:6|441:4,1,200,10|0,0:0|0:0,0:0:0:0:
369,108,109844,1,2,0:0:0:0:
310,212,110017,1,8,0:0:0:0:
193,241,110191,1,8,0:0:0:0:
204,113,110364,5,2,0:0:0:0:
371,45,110538,1,0,0:0:0:0:
371,224,110711,1,8,0:0:0:0:
204,292,110884,1,10,0:0:0:0:
204,112,111058,2,2,B|108:112|108:112|48:200,1,200,6|8,0:0|0:0,0:0:0:0:
169,197,111578,1,2,0:0:0:0:
284,232,111752,1,0,0:0:0:0:
368,316,111925,1,0,0:0:0:0:
480,268,112098,2,2,L|484:68,1,200,10|0,0:0|0:0,0:0:0:0:
302,68,112619,5,2,0:0:0:0:
122,68,112792,1,8,0:0:0:0:
56,236,112965,1,8,0:0:0:0:
208,332,113139,1,2,0:0:0:0:
360,236,113312,1,0,0:0:0:0:
212,132,113486,1,8,0:0:0:0:
120,288,113659,1,2,0:0:0:0:
300,288,113832,1,4,0:0:0:0:
96,68,124931,6,2,P|76:124|104:224,1,150
251,298,125798,1,2,0:0:0:0:
488,172,126318,2,2,P|509:104|485:12,1,150,0|2,0:0|0:0,0:0:0:0:
413,69,127012,1,2,0:0:0:0:
331,32,127185,2,2,P|284:26|232:34,1,100
294,203,127879,1,2,0:0:0:0:
368,152,128052,2,2,P|384:199|360:260,1,100,2|0,0:0|0:0,0:0:0:0:
422,320,128572,5,2,0:0:0:0:
340,358,128746,1,0,0:0:0:0:
260,320,128919,2,2,B|232:252|136:320|144:228,1,150
207,182,129613,1,2,0:0:0:0:
334,54,129960,1,0,0:0:0:0:
247,78,130133,1,0,0:0:0:0:
165,116,130306,1,2,0:0:0:0:
116,192,130480,6,2,L|64:336,1,150
236,276,131347,1,2,0:0:0:0:
404,340,131694,2,2,P|448:200|400:96,1,250
336,60,132734,1,2,0:0:0:0:
184,160,133081,1,2,0:0:0:0:
336,60,133428,5,2,0:0:0:0:
416,100,133601,2,0,P|468:132|480:180,2,100,2|2|2,0:0|0:0|0:0,0:0:0:0:
392,188,134468,1,2,0:0:0:0:
380,364,134815,2,2,P|322:314|324:293,1,100
184,184,135509,1,2,0:0:0:0:
444,120,136029,6,2,P|429:51|361:51,1,150,6|2,0:0|0:0,0:0:0:0:
256,300,137069,1,2,0:0:0:0:
76,280,137416,2,2,L|36:116,1,150
292,40,138457,1,2,0:0:0:0:
368,204,138804,6,2,P|444:204|496:144,2,150
292,40,140191,1,2,0:0:0:0:
36,128,140711,1,2,0:0:0:0:
260,276,141231,1,2,0:0:0:0:
460,212,141578,6,2,P|470:116|350:124,1,225.000008583069,6|2,0:0|0:0,0:0:0:0:
183,211,142445,1,0,0:0:0:0:
184,211,142619,1,8,0:0:0:0:
64,40,142965,2,2,B|0:120|112:200|40:268,1,225.000008583069
184,92,143832,1,0,0:0:0:0:
289,92,144006,1,8,0:0:0:0:
492,36,144353,6,2,B|556:116|444:196|516:264,1,225.000008583069
316,344,145220,1,0,0:0:0:0:
412,302,145393,1,8,0:0:0:0:
228,204,145740,2,2,P|124:152|36:208,2,225.000008583069,2|2|10,0:0|0:0|0:0,0:0:0:0:
326,240,146954,1,2,0:0:0:0:
308,344,147127,6,0,P|413:353|411:233,1,225.000008583069,4|2,0:0|0:0,0:0:0:0:
410,151,147821,1,8,0:0:0:0:
335,76,147994,1,0,0:0:0:0:
260,150,148168,2,2,P|176:183|184:255,2,150.000005722046,2|10|2,0:0|0:0|0:0,0:0:0:0:
260,44,149035,1,0,0:0:0:0:
261,150,149208,1,8,0:0:0:0:
261,255,149382,1,0,0:0:0:0:
186,329,149555,1,2,0:0:0:0:
60,160,149902,6,0,B|60:328|60:328|120:328,1,225.000008583069,8|0,0:0|0:0,0:0:0:0:
221,328,150595,1,8,0:0:0:0:
326,328,150769,1,0,0:0:0:0:
276,236,150942,1,2,0:0:0:0:
464,328,151289,2,0,B|464:164|464:164|392:164,1,225.000008583069,8|0,0:0|0:0,0:0:0:0:
403,58,151983,1,8,0:0:0:0:
309,9,152156,1,0,0:0:0:0:
403,58,152330,1,0,0:0:0:0:
308,104,152503,1,2,0:0:0:0:
164,124,152676,5,0,0:0:0:0:
82,189,152850,1,0,0:0:0:0:
164,260,153023,1,8,0:0:0:0:
255,73,153197,1,8,0:0:0:0:
255,311,153370,1,0,0:0:0:0:
348,124,153543,5,0,0:0:0:0:
430,189,153717,1,8,0:0:0:0:
348,260,153890,1,8,0:0:0:0:
255,73,154064,5,0,0:0:0:0:
255,311,154237,1,0,0:0:0:0:
164,123,154410,1,8,0:0:0:0:
165,260,154584,1,8,0:0:0:0:
83,189,154757,1,0,0:0:0:0:
36,73,154931,5,0,0:0:0:0:
36,311,155104,1,8,0:0:0:0:
84,189,155278,1,8,0:0:0:0:
204,188,155451,5,0,0:0:0:0:
243,188,155538,1,0,0:0:0:0:
283,188,155624,1,0,0:0:0:0:
311,159,155711,1,0,0:0:0:0:
288,128,155798,1,8,0:0:0:0:
247,128,155884,1,0,0:0:0:0:
206,128,155971,1,8,0:0:0:0:
177,99,156058,1,0,0:0:0:0:
199,72,156145,5,0,0:0:0:0:
239,72,156231,1,0,0:0:0:0:
279,72,156318,1,0,0:0:0:0:
307,43,156405,1,0,0:0:0:0:
280,16,156491,1,8,0:0:0:0:
240,16,156578,1,0,0:0:0:0:
200,16,156665,1,8,0:0:0:0:
256,192,156838,12,4,158226,0:0:0:0:
376,320,158572,5,8,0:0:0:0:
444,220,158746,1,0,0:0:0:0:
424,100,158919,1,0,0:0:0:0:
340,188,159093,2,0,B|304:140|304:140|304:84,1,100,0|8,0:0|0:0,0:0:0:0:
204,36,159439,1,0,0:0:0:0:
96,92,159613,2,0,B|96:224|96:224|160:288,1,200,0|8,0:0|0:0,0:0:0:0:
312,338,160133,5,0,0:0:0:0:
236,244,160306,1,0,0:0:0:0:
232,124,160480,2,0,L|232:20,2,100,0|8|0,0:0|0:0|0:0,0:0:0:0:
236,244,161000,2,0,B|320:176|372:288|456:200,1,200,4|8,0:0|0:0,0:0:0:0:
356,128,161520,1,0,0:0:0:0:
427,224,161694,1,0,0:0:0:0:
504,132,161867,2,0,L|504:28,1,100,0|8,0:0|0:0,0:0:0:0:
383,32,162214,1,0,0:0:0:0:
268,68,162387,2,0,P|161:30|84:72,1,200,0|8,0:0|0:0,0:0:0:0:
174,226,162908,5,0,0:0:0:0:
96,316,163081,2,0,L|36:232,1,100
104,132,163428,1,8,0:0:0:0:
38,235,163601,1,0,0:0:0:0:
174,226,163775,2,0,B|296:200|236:312|404:276,1,200,4|8,0:0|0:0,0:0:0:0:
440,197,164295,1,0,0:0:0:0:
368,100,164468,1,0,0:0:0:0:
252,72,164642,1,0,0:0:0:0:
132,84,164815,2,0,P|56:112|24:228,2,200,8|0|8,0:0|0:0|0:0,0:0:0:0:
148,272,165682,5,0,0:0:0:0:
236,192,165856,1,0,0:0:0:0:
352,164,166029,1,0,0:0:0:0:
468,140,166202,2,0,B|504:240|472:340|472:340,1,200,8|4,0:0|0:0,0:0:0:0:
356,364,166723,1,0,0:0:0:0:
240,340,166896,1,8,0:0:0:0:
148,272,167069,1,0,0:0:0:0:
233,186,167243,2,0,B|120:176|200:56|64:72,1,200,0|8,0:0|0:0,0:0:0:0:
204,32,167763,1,0,0:0:0:0:
363,115,167936,5,0,0:0:0:0:
412,288,168110,1,0,0:0:0:0:
244,220,168283,1,10,0:0:0:0:
76,284,168457,1,10,0:0:0:0:
132,112,168630,1,0,0:0:0:0:
244,252,168804,1,0,0:0:0:0:
248,72,168977,1,10,0:0:0:0:
336,228,169150,1,10,0:0:0:0:
156,232,169324,6,0,B|68:184|68:184|24:84,1,200,4|8,0:0|0:0,0:0:0:0:
140,48,169844,1,0,0:0:0:0:
224,132,170017,1,0,0:0:0:0:
336,88,170191,1,0,0:0:0:0:
400,188,170364,2,0,P|476:224|444:332,2,200,8|0|8,0:0|0:0|0:0,0:0:0:0:
460,84,171231,1,0,0:0:0:0:
400,188,171405,1,0,0:0:0:0:
292,240,171578,1,0,0:0:0:0:
392,308,171752,1,8,0:0:0:0:
400,188,171925,1,0,0:0:0:0:
252,84,172098,6,0,P|232:176|136:204,1,200,4|8,0:0|0:0,0:0:0:0:
139,83,172619,1,0,0:0:0:0:
39,149,172792,1,0,0:0:0:0:
39,268,172965,1,0,0:0:0:0:
132,344,173139,2,0,P|224:304|236:192,2,200,8|0|8,0:0|0:0|0:0,0:0:0:0:
40,268,174006,1,0,0:0:0:0:
39,149,174179,2,0,L|40:40,1,100
160,36,174526,1,8,0:0:0:0:
160,155,174699,1,0,0:0:0:0:
332,96,174873,6,0,B|384:4|464:120|512:8,1,200,4|8,0:0|0:0,0:0:0:0:
472,144,175393,1,0,0:0:0:0:
372,208,175567,1,0,0:0:0:0:
260,164,175740,2,0,P|212:145|180:105,1,100,0|8,0:0|0:0,0:0:0:0:
68,68,176087,1,0,0:0:0:0:
180,28,176260,2,0,P|284:16|388:32,1,200,0|8,0:0|0:0,0:0:0:0:
332,140,176780,1,0,0:0:0:0:
452,128,176954,1,0,0:0:0:0:
378,30,177127,1,0,0:0:0:0:
404,208,177301,6,0,B|356:328|356:328|284:352,1,200,8|4,0:0|0:0,0:0:0:0:
203,265,177821,1,0,0:0:0:0:
244,152,177994,1,8,0:0:0:0:
156,72,178168,2,0,L|56:24,1,100,8|4,0:0|0:0,0:0:0:0:
65,149,178515,1,0,0:0:0:0:
149,233,178688,2,8,L|49:281,1,100
160,340,179035,5,0,0:0:0:0:
198,329,179121,1,0,0:0:0:0:
238,324,179208,1,0,0:0:0:0:
277,331,179295,1,0,0:0:0:0:
314,345,179382,1,8,0:0:0:0:
354,352,179468,1,0,0:0:0:0:
393,348,179555,1,8,0:0:0:0:
432,337,179642,1,0,0:0:0:0:
456,304,179728,5,0,0:0:0:0:
468,264,179815,1,0,0:0:0:0:
456,224,179902,1,0,0:0:0:0:
417,214,179989,1,0,0:0:0:0:
377,209,180075,1,8,0:0:0:0:
338,216,180162,1,0,0:0:0:0:
301,230,180249,1,8,0:0:0:0:
261,237,180335,1,0,0:0:0:0:
220,232,180422,6,2,P|128:184|109:96,1,200,6|8,0:0|0:0,0:0:0:0:
224,136,180942,2,0,P|136:224|152:296,1,200,2|0,0:0|0:0,0:0:0:0:
260,332,181463,1,10,0:0:0:0:
152,380,181636,1,0,0:0:0:0:
44,328,181809,1,0,0:0:0:0:
16,212,181983,2,2,L|0:12,1,200,2|0,0:0|0:0,0:0:0:0:
171,68,182503,5,2,0:0:0:0:
350,68,182676,1,0,0:0:0:0:
350,248,182850,1,8,0:0:0:0:
260,92,183023,1,10,0:0:0:0:
174,251,183197,6,2,B|174:351|174:351|277:351,1,200,6|8,0:0|0:0,0:0:0:0:
392,328,183717,1,2,0:0:0:0:
476,244,183890,1,0,0:0:0:0:
444,128,184064,1,0,0:0:0:0:
352,204,184237,2,2,P|352:116|248:84,1,200,10|0,0:0|0:0,0:0:0:0:
152,136,184757,1,2,0:0:0:0:
237,221,184931,1,8,0:0:0:0:
352,204,185104,1,0,0:0:0:0:
476,72,185278,5,2,0:0:0:0:
300,36,185451,1,0,0:0:0:0:
140,112,185624,1,8,0:0:0:0:
220,272,185798,1,10,0:0:0:0:
399,272,185971,6,2,P|448:184|368:120,1,200,6|8,0:0|0:0,0:0:0:0:
300,204,186491,1,2,0:0:0:0:
208,280,186665,1,0,0:0:0:0:
100,232,186838,1,0,0:0:0:0:
24,136,187012,2,2,B|112:124|60:36|192:28,1,200,10|0,0:0|0:0,0:0:0:0:
260,120,187532,1,2,0:0:0:0:
348,40,187705,1,8,0:0:0:0:
440,120,187879,1,0,0:0:0:0:
352,276,188052,6,0,B|352:348|352:348|304:348,1,100,2|0,0:0|0:0,0:0:0:0:
164,264,188399,2,8,B|164:192|164:192|212:192,1,100,8|10,0:0|0:0,0:0:0:0:
344,96,188746,6,6,B|246:127|232:-8|136:36,1,200,6|8,0:0|0:0,0:0:0:0:
92,124,189266,1,2,0:0:0:0:
32,228,189439,1,0,0:0:0:0:
152,228,189613,1,0,0:0:0:0:
92,124,189786,2,2,B|196:124|196:124|288:220,1,200,10|0,0:0|0:0,0:0:0:0:
262,13,190306,5,2,0:0:0:0:
262,193,190480,1,8,0:0:0:0:
389,66,190653,1,8,0:0:0:0:
389,246,190827,1,2,0:0:0:0:
279,102,191000,1,0,0:0:0:0:
447,166,191173,1,8,0:0:0:0:
304,280,191347,1,10,0:0:0:0:
279,102,191520,6,2,B|188:46|140:166|72:96,1,200,6|0,0:0|0:0,0:0:0:0:
88,232,192041,1,2,0:0:0:0:
90,112,192214,1,0,0:0:0:0:
168,20,192387,1,0,0:0:0:0:
288,20,192561,2,2,P|392:4|496:24,1,200,10|0,0:0|0:0,0:0:0:0:
448,136,193081,1,2,0:0:0:0:
328,136,193254,1,8,0:0:0:0:
384,244,193428,1,0,0:0:0:0:
216,304,193601,6,0,L|144:228,1,100,2|0,0:0|0:0,0:0:0:0:
19,103,193948,2,8,L|106:194,1,100,8|10,0:0|0:0,0:0:0:0:
0,332,194295,6,0,L|156:160,1,200,6|8,0:0|0:0,0:0:0:0:
248,224,194815,1,2,0:0:0:0:
316,324,194989,1,0,0:0:0:0:
380,224,195162,1,0,0:0:0:0:
308,128,195335,2,2,B|308:12|308:12|216:12,1,200,10|0,0:0|0:0,0:0:0:0:
136,96,195856,1,2,0:0:0:0:
136,215,196029,1,8,0:0:0:0:
228,292,196202,1,0,0:0:0:0:
408,264,196376,5,2,0:0:0:0:
408,84,196549,1,0,0:0:0:0:
321,242,196723,1,8,0:0:0:0:
321,62,196896,1,10,0:0:0:0:
232,216,197069,6,2,P|156:220|100:336,1,200,6|8,0:0|0:0,0:0:0:0:
40,212,197590,1,2,0:0:0:0:
140,144,197763,1,0,0:0:0:0:
260,144,197936,1,0,0:0:0:0:
200,40,198110,2,2,L|420:40,1,200,10|0,0:0|0:0,0:0:0:0:
460,144,198630,1,2,0:0:0:0:
340,144,198804,1,8,0:0:0:0:
400,40,198977,1,0,0:0:0:0:
401,220,199150,5,2,0:0:0:0:
273,92,199324,1,0,0:0:0:0:
273,271,199497,1,8,0:0:0:0:
375,122,199671,1,10,0:0:0:0:
208,188,199844,6,2,P|156:120|44:144,1,200,6|8,0:0|0:0,0:0:0:0:
104,244,200364,1,2,0:0:0:0:
216,288,200538,1,0,0:0:0:0:
324,236,200711,1,0,0:0:0:0:
404,328,200884,2,2,P|448:228|392:136,1,200,2|0,0:0|0:0,0:0:0:0:
308,92,201405,5,4,0:0:0:0:
129,92,201578,1,4,0:0:0:0:
218,249,201752,1,4,0:0:0:0:
218,69,201925,1,4,0:0:0:0:
130,225,202098,1,4,0:0:0:0:
311,225,202272,1,4,0:0:0:0:
218,69,202445,1,4,0:0:0:0:
256,192,202619,12,0,205393,0:0:0:0:
