osu file format v13

[General]
AudioFilename: Mind Vortex - Alive.mp3
AudioLeadIn: 0
PreviewTime: 68354
Countdown: 0
SampleSet: Normal
StackLeniency: 0.4
Mode: 0
LetterboxInBreaks: 0
WidescreenStoryboard: 0

[Editor]
Bookmarks: 25001,47198,69394,72862,91591,92631,113787,124927,135984,158180,180377
DistanceSpacing: 0.8
BeatDivisor: 4
GridSize: 4
TimelineZoom: 1

[Metadata]
Title:Alive
TitleUnicode:Alive
Artist:Mind Vortex
ArtistUnicode:Mind Vortex
Creator:Thunderstorm
Version:Easy
Source:
Tags:dnb drum and bass Ram Records Arc hackSL ErunamoJAZZ Liquicity
BeatmapID:251573
BeatmapSetID:92939

[Difficulty]
HPDrainRate:1
CircleSize:3
OverallDifficulty:1
ApproachRate:2
SliderMultiplier:0.799999999999999
SliderTickRate:1

[Events]
//Background and Video events
0,0,"safe_image.jpg",0,0
//Break Periods
2,58540,67879
2,114032,123371
//Storyboard Layer 0 (Background)
//Storyboard Layer 1 (Fail)
//Storyboard Layer 2 (Pass)
//Storyboard Layer 3 (Foreground)
//Storyboard Sound Samples
//Background Colour Transformations
3,100,0,0,0

[TimingPoints]
1463,346.820809248555,4,2,0,70,1,0
25042,-100,4,2,0,55,0,0
41689,-100,4,1,0,70,0,0
69435,-100,4,1,0,70,0,1
80447,-100,4,1,0,70,0,0
80533,-100,4,1,0,70,0,1
91545,-100,4,1,0,70,0,0
91632,-100,4,1,0,70,0,1
91718,-100,4,1,0,70,0,0
102730,-100,4,1,0,70,0,1
102817,-100,4,1,0,70,0,0
124926,-100,4,2,0,70,0,0
136025,-100,4,2,0,70,0,0
152672,-100,4,1,0,70,0,0
158221,-100,4,1,0,70,0,1
169233,-100,4,1,0,70,0,0
169319,-100,4,1,0,70,0,1
180331,-100,4,1,0,70,0,0
180418,-100,4,1,0,70,0,1
180504,-100,4,1,0,70,0,0
201574,-100,4,1,0,50,0,0
202267,-100,4,1,0,30,0,0
202614,-100,4,2,0,5,0,0

[Colours]
Combo1 : 216,172,129
Combo2 : 235,221,175
Combo3 : 177,184,226
Combo4 : 220,156,163

[HitObjects]
416,60,2850,6,2,P|464:184|328:140,2,320,6|2|2,0:0|0:0|0:0,0:0:0:0:
160,60,7012,1,2,0:0:0:0:
148,316,8399,6,2,P|36:240|184:208,1,320,6|2,0:0|0:0,0:0:0:0:
365,316,11173,2,2,P|477:240|329:208,1,320
121,86,13948,5,4,0:0:0:0:
312,86,14989,2,2,L|392:120,1,79.9999999999999
312,296,16376,2,2,L|393:264,1,79.9999999999999
196,296,17763,6,2,L|112:256,1,79.9999999999999
188,80,19150,2,2,L|109:110,1,79.9999999999999,2|6,0:0|0:0,0:0:0:0:
311,150,20884,6,2,P|472:100|372:44,2,320
159,275,25046,6,2,P|75:131|211:135,1,320,2|6,0:0|0:0,0:0:0:0:
257,195,27127,1,0,0:0:0:0:
347,104,27821,6,2,P|438:130|354:274,1,320,0|6,0:0|0:0,0:0:0:0:
257,195,29902,1,0,0:0:0:0:
168,285,30595,2,0,P|95:256|73:182,1,160,0|2,0:0|0:0,0:0:0:0:
164,92,31983,5,4,0:0:0:0:
260,176,32676,1,0,0:0:0:0:
327,284,33370,6,2,P|260:322|192:288,1,160
64,288,34757,2,2,P|74:212|144:180,1,160
224,280,36145,6,0,P|352:280|396:104,1,320,4|8,0:0|0:0,0:0:0:0:
164,208,38919,6,0,P|194:61|343:46,1,320,0|8,0:0|0:0,0:0:0:0:
280,156,41000,1,0,0:0:0:0:
380,236,41694,6,0,P|376:296|280:316,1,160,0|8,0:0|0:0,0:0:0:0:
164,340,43081,6,0,P|157:264|225:232,1,160,0|8,0:0|0:0,0:0:0:0:
256,192,44121,12,4,47243,0:0:0:0:
256,59,48977,6,0,P|328:84|376:164,2,160,0|8|0,0:0|0:0|0:0,0:0:0:0:
256,187,51058,1,10,0:0:0:0:
256,315,51752,2,0,P|184:290|136:210,2,160,0|8|0,0:0|0:0|0:0,0:0:0:0:
384,314,53832,5,10,0:0:0:0:
420,192,54526,2,8,B|472:136|360:96|440:64|424:24,1,160,0|8,0:0|0:0,0:0:0:0:
309,94,55913,1,0,0:0:0:0:
190,45,56607,2,8,B|204:68|124:100|236:140|184:196,1,160,10|0,0:0|0:0,0:0:0:0:
268,292,57994,2,0,L|353:292,1,79.9999999999999,8|4,0:0|0:0,0:0:0:0:
376,332,69439,5,4,0:0:0:0:
272,256,70133,1,8,0:0:0:0:
167,193,70827,2,0,P|112:132|112:48,1,160,0|8,0:0|0:0,0:0:0:0:
236,84,72214,5,4,0:0:0:0:
360,60,72908,2,0,P|355:138|301:195,1,160,8|0,0:0|0:0,0:0:0:0:
174,192,74295,1,8,0:0:0:0:
174,319,74989,5,4,0:0:0:0:
302,319,75682,2,0,P|382:254|374:194,1,160,8|0,0:0|0:0,0:0:0:0:
290,117,77069,1,8,0:0:0:0:
199,26,77763,6,0,P|119:91|127:151,1,160,4|8,0:0|0:0,0:0:0:0:
121,267,79150,2,0,P|134:340|209:358,1,160,0|8,0:0|0:0,0:0:0:0:
336,356,80538,5,4,0:0:0:0:
336,356,80884,2,0,P|411:338|424:264,1,160,8|0,0:0|0:0,0:0:0:0:
371,138,82272,5,8,0:0:0:0:
404,14,82965,1,0,0:0:0:0:
290,73,83659,2,0,P|210:101|172:176,2,160,8|0|8,0:0|0:0|0:0,0:0:0:0:
290,201,85740,5,0,0:0:0:0:
183,271,86434,1,8,0:0:0:0:
76,199,87127,2,0,P|46:113|70:52,1,160,0|8,0:0|0:0,0:0:0:0:
256,192,88515,12,4,91636,0:0:0:0:
184,92,93370,6,0,B|108:80|224:208|80:144|116:220,2,160,0|0|0,0:0|0:0|0:0,0:0:0:0:
256,196,95451,1,10,0:0:0:0:
384,180,96145,6,0,B|417:249|276:188|389:313|313:301,2,160,0|0|0,0:0|0:0|0:0,0:0:0:0:
300,84,98226,5,10,0:0:0:0:
171,84,98919,2,0,P|70:56|42:96,1,160,0|8,0:0|0:0,0:0:0:0:
108,196,100306,1,0,0:0:0:0:
174,304,101000,2,0,P|112:347|48:308,2,160,10|0|8,0:0|0:0|0:0,0:0:0:0:
238,304,102734,5,4,0:0:0:0:
302,304,103081,2,0,P|296:224|232:188,1,160,0|10,0:0|0:0,0:0:0:0:
232,59,104468,1,0,0:0:0:0:
124,124,105162,1,8,0:0:0:0:
196,228,105856,6,0,P|128:264|56:220,1,160,0|10,0:0|0:0,0:0:0:0:
28,104,107243,1,0,0:0:0:0:
128,184,107936,1,8,0:0:0:0:
218,93,108630,6,0,P|224:55|327:37,1,160,0|10,0:0|0:0,0:0:0:0:
326,164,110017,1,0,0:0:0:0:
436,232,110711,2,0,P|429:269|326:287,1,160,8|0,0:0|0:0,0:0:0:0:
326,163,112098,6,0,P|223:181|223:241,2,160,2|0|0,0:0|0:0|0:0,0:0:0:0:
371,208,113832,1,4,0:0:0:0:
80,64,124931,6,0,B|212:116|88:276|280:308,1,320
340,204,127012,1,0,0:0:0:0:
268,100,127705,6,0,P|408:92|456:248,2,320,2|0|2,0:0|0:0|0:0,0:0:0:0:
160,121,131000,5,0,0:0:0:0:
60,40,131694,2,0,P|28:128|77:233,1,200
162,222,133081,2,0,P|199:127|167:39,1,200
263,39,134468,1,0,0:0:0:0:
288,164,135162,1,0,0:0:0:0:
447,164,136029,6,2,P|495:40|359:84,2,320,6|2|2,0:0|0:0|0:0,0:0:0:0:
220,284,140191,1,2,0:0:0:0:
147,45,141578,6,2,P|35:121|183:153,1,320,6|2,0:0|0:0,0:0:0:0:
368,48,144353,2,2,P|480:124|332:156,1,320
121,298,147127,5,4,0:0:0:0:
312,298,148168,2,2,L|401:298,1,79.9999999999999
313,122,149555,2,0,L|391:73,1,79.9999999999999
192,120,150942,2,0,L|122:75,1,79.9999999999999
152,268,152330,5,0,0:0:0:0:
180,328,152676,2,0,P|333:299|225:207,1,320,0|0,0:0|0:0,0:0:0:0:
336,92,154757,1,0,0:0:0:0:
256,192,155451,12,4,158226,0:0:0:0:
257,281,159613,6,0,P|212:348|136:336,1,160,0|8,0:0|0:0,0:0:0:0:
141,212,161000,5,4,0:0:0:0:
141,85,161694,2,0,P|211:77|256:144,1,160,8|0,0:0|0:0,0:0:0:0:
385,144,163081,1,8,0:0:0:0:
385,272,163775,5,4,0:0:0:0:
385,144,164468,2,0,P|320:64|260:72,1,160,8|0,0:0|0:0,0:0:0:0:
181,158,165856,1,8,0:0:0:0:
90,249,166549,6,0,P|108:324|220:300,1,160,4|8,0:0|0:0,0:0:0:0:
308,337,167936,2,0,P|381:323|399:248,1,160,0|8,0:0|0:0,0:0:0:0:
400,120,169324,5,4,0:0:0:0:
337,119,169671,2,0,P|262:101|249:27,1,160,8|0,0:0|0:0,0:0:0:0:
376,32,171058,1,8,0:0:0:0:
466,122,171752,5,0,0:0:0:0:
375,212,172445,2,0,P|286:261|302:329,2,160,8|0|8,0:0|0:0|0:0,0:0:0:0:
284,121,174526,5,0,0:0:0:0:
176,192,175220,1,8,0:0:0:0:
72,268,175913,2,0,P|42:182|66:121,1,160,0|8,0:0|0:0,0:0:0:0:
188,84,177301,1,0,0:0:0:0:
256,192,177647,12,4,180422,0:0:0:0:
412,168,182156,5,0,0:0:0:0:
348,280,182850,1,8,0:0:0:0:
220,292,183543,1,0,0:0:0:0:
292,188,184237,2,8,P|264:140|304:36,2,160,2|0|8,0:0|0:0|0:0,0:0:0:0:
168,216,186318,5,0,0:0:0:0:
134,320,187012,1,10,0:0:0:0:
263,320,187705,2,0,P|364:348|392:308,1,160,0|8,0:0|0:0,0:0:0:0:
330,202,189093,5,0,0:0:0:0:
392,90,189786,2,0,P|291:62|263:102,1,160,10|0,0:0|0:0,0:0:0:0:
231,147,190827,1,0,0:0:0:0:
136,228,191520,5,4,0:0:0:0:
72,236,191867,2,0,P|78:316|178:280,1,160,0|10,0:0|0:0,0:0:0:0:
266,281,193254,1,0,0:0:0:0:
325,167,193948,1,8,0:0:0:0:
259,56,194642,6,0,P|339:21|407:85,1,160,0|10,0:0|0:0,0:0:0:0:
463,164,196029,1,0,0:0:0:0:
340,200,196723,1,8,0:0:0:0:
216,160,197416,6,0,P|113:178|113:238,1,160,0|2,0:0|0:0,0:0:0:0:
186,310,198804,1,0,0:0:0:0:
314,310,199497,2,0,P|417:292|424:255,1,160,8|0,0:0|0:0,0:0:0:0:
423,125,200884,2,0,P|320:143|313:181,2,160,10|0|10,0:0|0:0|0:0,0:0:0:0:
256,192,202619,12,0,205393,0:0:0:0:
