osu file format v13

[General]
AudioFilename: Mind Vortex - Alive.mp3
AudioLeadIn: 0
PreviewTime: 155458
Countdown: 0
SampleSet: None
StackLeniency: 0.7
Mode: 0
LetterboxInBreaks: 0
WidescreenStoryboard: 0

[Editor]
DistanceSpacing: 1.2
BeatDivisor: 4
GridSize: 4
TimelineZoom: 2.7

[Metadata]
Title:Alive
TitleUnicode:Alive
Artist:Mind Vortex
ArtistUnicode:Mind Vortex
Creator:Katty Pie
Version:Kazuya's Normal
Source:
Tags:kazuya arc alive wafu dnb drum and bass kazuya-sama nozhomi
BeatmapID:487413
BeatmapSetID:205309

[Difficulty]
HPDrainRate:4
CircleSize:3
OverallDifficulty:4
ApproachRate:5
SliderMultiplier:0.999999999999999
SliderTickRate:2

[Events]
//Background and Video events
0,0,"www.jpg",0,0
//Break Periods
2,89069,97900
2,101034,102235
2,105715,109865
//Storyboard Layer 0 (Background)
//Storyboard Layer 1 (Fail)
//Storyboard Layer 2 (Pass)
//Storyboard Layer 3 (Foreground)
//Storyboard Sound Samples

[TimingPoints]
83,346.820809248555,4,2,0,90,1,0
44476,-100,4,1,0,70,0,0
66672,-100,4,1,1,60,0,1
88869,-100,4,1,1,70,0,0
99100,-100,4,2,0,70,0,0
133262,-100,4,1,1,60,0,1
155458,-100,4,1,0,70,0,0
176267,-100,4,2,0,70,0,0

[Colours]
Combo1 : 85,235,20
Combo2 : 80,241,225
Combo3 : 255,255,0
Combo4 : 139,87,249
Combo5 : 216,61,154
Combo6 : 255,96,72

[HitObjects]
288,208,21239,6,0,P|276:268|288:304,2,99.9999999999999,0|0|0,0:0|0:0|0:0,0:0:0:0:
384,136,22279,2,0,P|396:76|384:40,2,99.9999999999999,4|2|0,0:0|0:0|0:0,0:0:0:0:
288,208,23319,1,2,0:0:0:0:
192,136,23666,1,0,0:0:0:0:
164,252,24013,2,0,P|128:304|84:316,1,99.9999999999999,2|0,0:0|0:0,0:0:0:0:
57,200,24707,6,0,P|64:100|152:68,1,200,2|2,0:0|0:0,0:0:0:0:
248,132,25747,2,0,P|296:152|356:144,1,99.9999999999999,0|2,0:0|0:0,0:0:0:0:
436,72,26441,1,0,0:0:0:0:
488,180,26788,1,2,0:0:0:0:
396,256,27135,1,2,0:0:0:0:
284,212,27481,6,0,P|184:184|124:252,1,200,2|2,0:0|0:0,0:0:0:0:
196,344,28522,2,0,L|304:352,1,99.9999999999999,0|2,0:0|0:0,0:0:0:0:
404,300,29215,1,0,0:0:0:0:
464,196,29562,2,0,L|472:136,1,50,2|0,0:0|0:0,0:0:0:0:
480,87,29909,2,0,P|461:69|384:63,1,99.9999999999999,0|2,0:0|0:0,0:0:0:0:
300,140,30603,6,0,P|281:157|204:164,1,99.9999999999999,0|2,0:0|0:0,0:0:0:0:
116,92,31296,1,0,0:0:0:0:
44,188,31643,2,0,P|44:296|120:324,1,200,2|2,0:0|0:0,0:0:0:0:
196,236,32684,1,0,0:0:0:0:
274,327,33030,6,0,P|357:284|347:190,1,200,6|2,0:0|0:0,0:0:0:0:
255,114,34071,1,0,0:0:0:0:
164,192,34418,2,0,P|113:209|60:200,1,99.9999999999999,2|0,0:0|0:0,0:0:0:0:
47,85,35111,2,0,P|97:67|151:77,1,99.9999999999999,2|0,0:0|0:0,0:0:0:0:
256,116,35805,2,0,P|302:198|400:192,1,200,2|2,0:0|0:0,0:0:0:0:
468,96,36846,1,0,0:0:0:0:
372,24,37192,2,0,P|348:72|348:120,1,99.9999999999999,2|0,0:0|0:0,0:0:0:0:
468,96,37886,6,0,P|492:144|492:192,1,99.9999999999999,2|0,0:0|0:0,0:0:0:0:
436,296,38580,2,0,B|344:332|344:332|244:320,1,200,2|2,0:0|0:0,0:0:0:0:
125,298,39620,1,0,0:0:0:0:
56,200,39967,1,2,0:0:0:0:
152,128,40314,2,0,P|188:80|196:36,2,99.9999999999999,0|2|0,0:0|0:0|0:0,0:0:0:0:
56,200,41354,1,2,0:0:0:0:
256,192,41701,12,4,43088,0:0:0:0:
108,320,44476,6,0,P|152:300|212:308,1,99.9999999999999,4|8,0:0|0:0,0:0:0:0:
256,332,44996,2,0,P|300:352|396:332,1,150,0|8,2:0|0:0,0:0:0:0:
468,236,45863,1,0,0:0:0:0:
416,128,46210,1,8,0:0:0:0:
306,79,46556,2,0,P|258:71|208:80,1,99.9999999999999,0|8,0:0|0:0,0:0:0:0:
108,148,47250,6,0,L|96:252,1,99.9999999999999,0|8,0:0|0:0,0:0:0:0:
93,307,47770,2,0,P|161:343|249:319,1,150,0|8,2:0|0:0,0:0:0:0:
324,256,48637,1,0,0:0:0:0:
228,184,48984,2,0,P|208:132|212:84,1,99.9999999999999,8|0,0:0|0:0,0:0:0:0:
312,24,49678,2,0,L|380:32,1,50,8|0,0:0|2:0,0:0:0:0:
421,39,50025,6,0,P|449:83|449:139,1,99.9999999999999,0|8,0:0|0:0,0:0:0:0:
431,186,50545,2,0,P|366:230|298:214,1,150,0|8,2:0|0:0,0:0:0:0:
256,104,51412,1,0,0:0:0:0:
148,52,51759,1,8,0:0:0:0:
76,148,52106,2,0,L|88:260,1,99.9999999999999,0|8,0:0|0:0,0:0:0:0:
152,348,52799,6,0,P|200:360|252:350,1,99.9999999999999,0|8,0:0|0:0,0:0:0:0:
299,318,53319,2,0,P|328:244|308:172,1,150,0|8,2:0|0:0,0:0:0:0:
201,130,54187,2,0,P|143:145|97:142,1,99.9999999999999,0|8,0:0|0:0,0:0:0:0:
51,114,54707,2,0,L|39:270,1,150,0|8,2:0|0:0,0:0:0:0:
132,340,55574,6,0,P|180:316|228:320,1,99.9999999999999,4|8,0:0|0:0,0:0:0:0:
280,344,56094,2,0,P|324:360|420:328,1,150,0|8,2:0|0:0,0:0:0:0:
488,232,56961,1,0,0:0:0:0:
428,128,57308,1,8,0:0:0:0:
316,172,57655,2,0,P|252:185|208:176,1,99.9999999999999,0|8,0:0|0:0,0:0:0:0:
121,108,58348,6,0,P|101:152|105:216,1,99.9999999999999,0|8,0:0|0:0,0:0:0:0:
131,255,58869,2,0,P|187:295|272:284,1,150,0|8,2:0|0:0,0:0:0:0:
371,232,59736,1,0,0:0:0:0:
452,144,60083,2,0,P|473:99|468:36,2,99.9999999999999,8|0|8,0:0|0:0|0:0,0:0:0:0:
371,232,61123,6,0,P|324:244|272:224,1,99.9999999999999,0|8,0:0|0:0,0:0:0:0:
228,192,61643,2,0,P|159:167|87:190,1,150,0|8,2:0|0:0,0:0:0:0:
36,297,62510,1,0,0:0:0:0:
156,288,62857,2,0,L|285:301,1,99.9999999999999,8|0,0:0|0:0,0:0:0:0:
372,320,63551,2,0,P|388:288|392:268,1,50,8|0,0:0|2:0,0:0:0:0:
416,220,63898,6,0,P|398:166|408:116,1,99.9999999999999,0|8,0:0|0:0,0:0:0:0:
440,76,64418,2,0,P|376:112|300:104,1,150,0|8,2:0|0:0,0:0:0:0:
204,36,65285,1,0,0:0:0:0:
126,128,65632,2,0,P|93:88|86:34,2,99.9999999999999,8|0|8,0:0|0:0|0:0,0:0:0:0:
238,171,66672,6,0,P|269:208|278:257,1,99.9999999999999,4|8,0:0|0:0,0:0:0:0:
161,287,67366,2,0,P|144:333|106:365,2,99.9999999999999,0|8|0,0:0|0:0|0:0,0:0:0:0:
89,190,68406,1,8,0:0:0:0:
178,109,68753,1,0,0:0:0:0:
272,184,69100,6,0,P|376:216|428:152,1,200,8|8,0:0|0:0,0:0:0:0:
424,36,70140,1,0,0:0:0:0:
304,44,70487,2,0,L|204:52,1,99.9999999999999,8|0,0:0|0:0,0:0:0:0:
108,124,71181,2,0,P|108:180|88:224,1,99.9999999999999,8|0,0:0|0:0,0:0:0:0:
24,320,71874,6,0,B|104:360|168:312|168:312|208:268,1,200,8|8,0:0|0:0,0:0:0:0:
256,171,72915,1,0,0:0:0:0:
324,72,73262,2,0,P|372:64|420:88,1,99.9999999999999,8|0,0:0|0:0,0:0:0:0:
472,192,73955,2,0,L|464:256,1,50,8|0,0:0|0:0,0:0:0:0:
452,300,74302,2,0,P|412:328|348:320,1,99.9999999999999,0|8,0:0|0:0,0:0:0:0:
268,252,74996,6,0,L|164:240,1,99.9999999999999,0|8,0:0|0:0,0:0:0:0:
76,164,75689,1,0,0:0:0:0:
152,72,76036,2,0,B|212:76|212:76|288:52|288:52|364:56,1,200,8|8,0:0|0:0,0:0:0:0:
456,108,77077,1,0,0:0:0:0:
412,220,77424,6,0,P|352:316|280:304,1,200,12|8,0:0|0:0,0:0:0:0:
212,204,78464,2,0,P|234:156|236:104,1,99.9999999999999,0|8,0:0|0:0,0:0:0:0:
131,51,79158,1,0,0:0:0:0:
51,141,79504,1,8,0:0:0:0:
101,249,79851,1,0,0:0:0:0:
212,204,80198,6,0,P|256:152|384:164,1,200,8|8,0:0|0:0,0:0:0:0:
396,278,81239,2,0,L|292:294,1,99.9999999999999,0|8,0:0|0:0,0:0:0:0:
178,312,81932,1,0,0:0:0:0:
88,232,82279,2,0,L|76:128,1,99.9999999999999,8|0,0:0|0:0,0:0:0:0:
136,28,82973,6,0,L|344:44,1,200,8|8,0:0|0:0,0:0:0:0:
428,120,84013,1,0,0:0:0:0:
332,192,84360,1,8,0:0:0:0:
440,244,84707,2,0,P|460:288|456:344,2,99.9999999999999,0|8|0,0:0|0:0|0:0,0:0:0:0:
332,192,85747,6,0,B|272:184|272:184|196:200|196:200|132:192,1,200,8|8,0:0|0:0,0:0:0:0:
36,124,86788,1,0,0:0:0:0:
112,32,87135,1,8,0:0:0:0:
208,104,87481,2,0,P|260:108|312:100,1,99.9999999999999,4|8,0:0|0:0,0:0:0:0:
364,80,88002,2,0,L|360:248,1,150,4|8,0:0|0:0,0:0:0:0:
356,350,88869,1,4,1:0:0:0:
44,100,99100,6,0,L|36:40,2,50,0|2|0,0:0|0:0|0:0,0:0:0:0:
104,204,99793,2,0,L|96:304,2,99.9999999999999,0|0|0,0:0|0:0|0:0,0:0:0:0:
176,108,100834,1,0,0:0:0:0:
64,236,103435,6,0,P|108:256|164:252,1,99.9999999999999,2|0,0:0|0:0,0:0:0:0:
208,220,103955,2,0,L|316:208,1,99.9999999999999,2|0,0:0|0:0,0:0:0:0:
386,118,104649,1,2,0:0:0:0:
480,272,105169,2,0,L|472:336,2,50,2|0|4,0:0|0:0|0:0,0:0:0:0:
204,160,111065,6,0,P|168:92|192:24,2,150,4|0|8,0:0|0:0|3:0,0:0:0:0:
308,220,112452,2,0,P|344:288|320:356,2,150,0|0|8,0:0|0:0|3:0,0:0:0:0:
204,160,113840,2,0,L|36:148,2,150,0|0|8,0:0|0:0|3:0,0:0:0:0:
308,220,115227,2,0,L|476:232,2,150,0|0|8,0:0|0:0|3:0,0:0:0:0:
204,280,116614,6,0,L|54:269,2,150,0|0|8,0:0|0:0|3:0,0:0:0:0:
324,283,118002,2,0,P|384:240|380:168,1,150
256,40,119042,1,8,3:0:0:0:
160,112,119389,2,0,L|0:120,2,150,0|0|8,0:0|0:0|3:0,0:0:0:0:
280,104,120776,2,0,B|316:176|316:176|272:232,1,150
136,348,121817,1,8,3:0:0:0:
44,272,122163,6,0,L|32:112,2,150,4|8|8,0:0|3:0|3:0,0:0:0:0:
136,348,123551,1,0,0:0:0:0:
244,204,124071,2,0,P|304:160|388:172,1,150,8|8,3:0|3:0,0:0:0:0:
476,232,124938,1,0,0:0:0:0:
315,313,125458,2,0,L|143:297,1,150,8|8,3:0|3:0,0:0:0:0:
46,286,126325,1,0,0:0:0:0:
72,108,126846,2,0,P|132:68|212:80,1,150,8|8,3:0|3:0,0:0:0:0:
308,140,127713,5,8,3:0:0:0:
400,295,128233,2,0,L|248:307,1,150,8|8,3:0|3:0,0:0:0:0:
131,319,129100,1,8,3:0:0:0:
37,166,129620,2,0,P|105:138|181:150,1,150,8|8,3:0|3:0,0:0:0:0:
256,192,130487,12,4,131874,0:0:0:0:
448,176,133262,6,0,P|456:227|440:280,1,99.9999999999999,4|8,0:0|0:0,0:0:0:0:
360,360,133955,1,0,0:0:0:0:
264,288,134302,2,0,L|152:280,1,99.9999999999999,8|0,0:0|0:0,0:0:0:0:
56,228,134996,2,0,P|44:180|56:128,1,99.9999999999999,8|0,0:0|0:0,0:0:0:0:
148,56,135689,6,0,P|244:84|356:68,1,200,8|8,0:0|0:0,0:0:0:0:
456,36,136730,1,0,0:0:0:0:
493,149,137077,2,0,L|485:257,1,99.9999999999999,8|0,0:0|0:0,0:0:0:0:
375,296,137770,1,8,0:0:0:0:
268,240,138117,1,0,0:0:0:0:
173,313,138464,6,0,P|69:321|45:233,1,200,8|8,0:0|0:0,0:0:0:0:
92,136,139504,2,0,L|192:132,1,99.9999999999999,0|8,0:0|0:0,0:0:0:0:
296,72,140198,1,0,0:0:0:0:
368,168,140545,2,0,P|390:151|404:128,2,50,8|0|0,0:0|0:0|0:0,0:0:0:0:
272,240,141239,1,8,0:0:0:0:
344,336,141585,6,0,P|392:348|444:336,2,99.9999999999999,0|8|0,0:0|0:0|0:0,0:0:0:0:
272,240,142626,2,0,P|208:187|95:201,1,200,8|8,0:0|0:0,0:0:0:0:
44,307,143666,1,0,0:0:0:0:
164,312,144013,6,0,P|256:368|344:344,1,200,12|8,0:0|0:0,0:0:0:0:
420,256,145054,2,0,L|412:156,1,99.9999999999999,0|8,0:0|0:0,0:0:0:0:
397,37,145747,1,0,0:0:0:0:
300,108,146094,2,0,P|252:124|200:116,1,99.9999999999999,8|0,0:0|0:0,0:0:0:0:
124,28,146788,6,0,P|84:108|124:208,1,200,8|8,0:0|0:0,0:0:0:0:
224,268,147828,2,0,P|272:284|344:280,1,99.9999999999999,0|8,0:0|0:0,0:0:0:0:
414,208,148522,1,0,0:0:0:0:
326,126,148869,2,0,P|276:126|228:142,1,99.9999999999999,8|0,0:0|0:0,0:0:0:0:
124,202,149562,6,0,P|40:160|56:68,1,200,8|8,0:0|0:0,0:0:0:0:
171,35,150603,2,0,P|230:54|287:51,1,99.9999999999999,0|8,0:0|0:0,0:0:0:0:
384,24,151296,1,0,0:0:0:0:
480,96,151643,1,8,0:0:0:0:
388,172,151990,1,0,0:0:0:0:
484,244,152337,6,0,P|432:344|356:336,1,200,8|8,0:0|0:0,0:0:0:0:
256,273,153377,1,0,0:0:0:0:
154,336,153724,1,8,0:0:0:0:
68,252,154071,2,0,P|44:208|36:148,1,99.9999999999999,4|8,0:0|0:0,0:0:0:0:
156,168,154765,2,0,P|157:117|180:61,1,99.9999999999999,4|8,0:0|0:0,0:0:0:0:
272,140,155458,6,0,P|320:164|376:148,1,99.9999999999999,4|8,0:0|0:0,0:0:0:0:
396,105,155978,2,0,B|412:177|412:177|392:269,1,150,0|8,2:0|0:0,0:0:0:0:
344,360,156846,1,0,0:0:0:0:
256,278,157192,1,8,0:0:0:0:
144,320,157539,2,0,P|96:328|40:308,1,99.9999999999999,0|8,0:0|0:0,0:0:0:0:
102,205,158233,6,0,L|110:89,1,99.9999999999999,0|8,0:0|0:0,0:0:0:0:
128,48,158753,2,0,P|172:28|284:52,1,150,0|8,2:0|0:0,0:0:0:0:
368,112,159620,1,0,0:0:0:0:
472,52,159967,1,8,0:0:0:0:
480,172,160314,2,0,P|484:224|464:272,1,99.9999999999999,0|8,0:0|0:0,0:0:0:0:
368,336,161007,6,0,P|320:348|256:328,1,99.9999999999999,0|8,0:0|0:0,0:0:0:0:
224,300,161528,2,0,B|176:288|176:288|128:304|128:304|60:288,1,150,0|8,2:0|0:0,0:0:0:0:
20,188,162395,1,0,0:0:0:0:
92,92,162741,1,8,0:0:0:0:
200,144,163088,1,0,0:0:0:0:
296,72,163435,2,0,P|328:76|360:68,1,50,8|0,0:0|2:0,0:0:0:0:
398,44,163782,6,0,P|386:92|394:144,1,99.9999999999999,0|8,0:0|0:0,0:0:0:0:
422,193,164302,2,0,P|443:264|417:335,1,150,0|8,2:0|0:0,0:0:0:0:
322,261,165169,2,0,P|276:240|214:245,1,99.9999999999999,0|8,0:0|0:0,0:0:0:0:
136,320,165863,1,0,0:0:0:0:
60,228,166210,2,0,P|62:200|56:172,1,50,8|0,0:0|2:0,0:0:0:0:
16,135,166556,6,0,P|64:148|113:135,1,99.9999999999999,4|8,0:0|0:0,0:0:0:0:
160,100,167077,2,0,P|232:80|304:100,1,150,0|8,2:0|0:0,0:0:0:0:
392,180,167944,1,0,0:0:0:0:
340,288,168291,1,8,0:0:0:0:
236,228,168637,2,0,P|188:240|128:232,1,99.9999999999999,0|8,0:0|0:0,0:0:0:0:
36,172,169331,6,0,P|28:124|52:68,1,99.9999999999999,0|8,0:0|0:0,0:0:0:0:
96,44,169851,2,0,L|252:52,1,150,0|8,2:0|0:0,0:0:0:0:
365,57,170718,1,0,0:0:0:0:
432,156,171065,1,8,0:0:0:0:
380,264,171412,2,0,P|328:256|280:272,1,99.9999999999999,0|8,0:0|0:0,0:0:0:0:
180,332,172106,6,0,L|72:320,1,99.9999999999999,0|8,0:0|0:0,0:0:0:0:
24,300,172626,2,0,P|0:232|24:160,1,150,0|8,2:0|0:0,0:0:0:0:
104,72,173493,1,0,0:0:0:0:
212,124,173840,1,8,0:0:0:0:
308,52,174187,1,0,0:0:0:0:
380,148,174533,2,0,P|416:156|440:152,1,50,8|0,0:0|2:0,0:0:0:0:
480,123,174880,6,0,P|460:172|464:220,1,99.9999999999999,0|8,0:0|0:0,0:0:0:0:
510,256,175400,2,0,P|440:232|368:256,1,150,0|8,2:0|0:0,0:0:0:0:
256,192,176267,12,4,177655,1:0:0:0:
