osu file format v13

[General]
AudioFilename: Mind Vortex - Alive.mp3
AudioLeadIn: 0
PreviewTime: 155458
Countdown: 0
SampleSet: Soft
StackLeniency: 0.7
Mode: 0
LetterboxInBreaks: 0
WidescreenStoryboard: 0

[Editor]
DistanceSpacing: 1.2
BeatDivisor: 4
GridSize: 4
TimelineZoom: 3.7

[Metadata]
Title:Alive
TitleUnicode:Alive
Artist:Mind Vortex
ArtistUnicode:Mind Vortex
Creator:Katty Pie
Version:Insane
Source:
Tags:kazuya arc alive wafu dnb drum and bass kazuya-sama nozhomi
BeatmapID:484661
BeatmapSetID:205309

[Difficulty]
HPDrainRate:7
CircleSize:4
OverallDifficulty:8
ApproachRate:9
SliderMultiplier:2
SliderTickRate:2

[Events]
//Background and Video events
0,0,"www.jpg",0,0
//Break Periods
2,89069,98673
2,101033,102835
2,105716,109078
//Storyboard Layer 0 (Background)
//Storyboard Layer 1 (Fail)
//Storyboard Layer 2 (Pass)
//Storyboard Layer 3 (Foreground)
//Storyboard Sound Samples

[TimingPoints]
83,346.820809248555,4,2,0,90,1,0
22279,-133.333333333333,4,2,0,90,0,0
38926,-133.333333333333,4,1,0,15,0,0
39620,-133.333333333333,4,1,0,20,0,0
40314,-133.333333333333,4,1,0,25,0,0
41007,-133.333333333333,4,1,0,30,0,0
41701,-133.333333333333,4,1,0,35,0,0
42395,-133.333333333333,4,1,0,40,0,0
43088,-133.333333333333,4,1,0,45,0,0
44476,-86.9565217391304,4,1,0,70,0,0
66672,-86.9565217391304,4,1,1,100,0,1
66759,-86.9565217391304,4,1,1,50,0,1
69447,-86.9565217391304,4,1,1,100,0,1
69533,-86.9565217391304,4,1,1,50,0,1
72221,-86.9565217391304,4,1,1,100,0,1
72308,-86.9565217391304,4,1,1,50,0,1
74996,-86.9565217391304,4,1,1,100,0,1
75082,-86.9565217391304,4,1,1,50,0,1
75689,-86.9565217391304,4,1,1,100,0,1
75776,-86.9565217391304,4,1,1,50,0,1
76383,-86.9565217391304,4,1,1,100,0,1
76470,-86.9565217391304,4,1,1,50,0,1
77770,-86.9565217391304,4,1,1,100,0,1
77857,-86.9565217391304,4,1,1,50,0,1
80545,-86.9565217391304,4,1,1,100,0,1
80631,-86.9565217391304,4,1,1,50,0,1
83319,-86.9565217391304,4,1,1,100,0,1
83406,-86.9565217391304,4,1,1,50,0,1
84013,-86.9565217391304,4,1,1,100,0,1
84100,-86.9565217391304,4,1,1,50,0,1
84706,-86.9565217391304,4,1,1,100,0,1
84793,-86.9565217391304,4,1,1,50,0,1
85400,-86.9565217391304,4,1,1,100,0,1
85487,-86.9565217391304,4,1,1,50,0,1
86094,-86.9565217391304,4,1,1,25,0,1
86441,-86.9565217391304,4,1,1,30,0,1
86788,-86.9565217391304,4,1,1,35,0,1
87135,-86.9565217391304,4,1,1,40,0,1
87481,-86.9565217391304,4,1,1,30,0,1
88348,-86.9565217391304,4,1,1,40,0,1
88869,-100,4,1,1,65,0,0
99273,-133.333333333333,4,2,1,55,0,0
111065,-100,4,1,0,60,0,0
122163,-100,4,1,0,70,0,0
130487,-133.333333333333,4,1,0,20,0,0
130834,-133.333333333333,4,1,0,25,0,0
131181,-133.333333333333,4,1,0,30,0,0
131528,-133.333333333333,4,1,0,35,0,0
133262,-86.9565217391304,4,1,1,100,0,1
133348,-86.9565217391304,4,1,1,50,0,1
136036,-86.9565217391304,4,1,1,100,0,1
136123,-86.9565217391304,4,1,1,50,0,1
138811,-86.9565217391304,4,1,1,100,0,1
138898,-86.9565217391304,4,1,1,50,0,1
141585,-86.9565217391304,4,1,1,100,0,1
141672,-86.9565217391304,4,1,1,50,0,1
142279,-86.9565217391304,4,1,1,100,0,1
142366,-86.9565217391304,4,1,1,50,0,1
142973,-86.9565217391304,4,1,1,100,0,1
143059,-86.9565217391304,4,1,1,50,0,1
144360,-86.9565217391304,4,1,1,100,0,1
144447,-86.9565217391304,4,1,1,50,0,1
147135,-86.9565217391304,4,1,1,100,0,1
147221,-86.9565217391304,4,1,1,50,0,1
149909,-86.9565217391304,4,1,1,100,0,1
149996,-86.9565217391304,4,1,1,50,0,1
150603,-86.9565217391304,4,1,1,100,0,1
150689,-86.9565217391304,4,1,1,50,0,1
151296,-86.9565217391304,4,1,1,100,0,1
151383,-86.9565217391304,4,1,1,50,0,1
151990,-86.9565217391304,4,1,1,100,0,1
152077,-86.9565217391304,4,1,1,50,0,1
152684,-86.9565217391304,4,1,1,100,0,1
152770,-86.9565217391304,4,1,1,50,0,1
154071,-86.9565217391304,4,1,1,40,0,1
154418,-86.9565217391304,4,1,1,45,0,1
154765,-86.9565217391304,4,1,1,50,0,1
155111,-86.9565217391304,4,1,1,55,0,1
155458,-86.9565217391304,4,1,0,70,0,0
173493,-133.333333333333,4,1,0,20,0,0
174187,-133.333333333333,4,1,0,25,0,0
174880,-133.333333333333,4,1,0,30,0,0
175574,-133.333333333333,4,1,0,35,0,0

[Colours]
Combo1 : 85,235,20
Combo2 : 80,241,225
Combo3 : 255,255,0
Combo4 : 139,87,249
Combo5 : 216,61,154
Combo6 : 255,96,72

[HitObjects]
400,64,21239,5,2,0:0:0:0:
448,256,21585,1,0,0:0:0:0:
256,288,21932,1,2,0:0:0:0:
160,216,22106,1,0,0:0:0:0:
192,96,22279,6,0,P|128:72|48:96,2,150.000005722046,4|2|0,0:0|0:0|0:0,0:0:0:0:
252,172,23146,1,0,0:0:0:0:
308,252,23319,2,0,P|372:276|452:252,1,150.000005722046,2|0,0:0|0:0,0:0:0:0:
380,72,24013,2,0,P|336:64|288:72,1,75.0000028610231,2|0,0:0|0:0,0:0:0:0:
132,72,24360,2,0,P|176:64|224:72,1,75.0000028610231,2|0,0:0|0:0,0:0:0:0:
380,72,24707,6,0,P|424:128|420:224,2,150.000005722046,2|0|2,0:0|0:0|0:0,0:0:0:0:
256,224,25747,1,0,0:0:0:0:
132,72,26094,2,0,P|88:128|92:224,1,150.000005722046,2|0,0:0|0:0,0:0:0:0:
256,300,26788,1,0,0:0:0:0:
420,192,27135,1,2,0:0:0:0:
396,96,27308,1,0,0:0:0:0:
300,120,27481,6,0,P|224:112|180:24,2,150.000005722046,2|0|2,0:0|0:0|0:0,0:0:0:0:
324,216,28348,1,0,0:0:0:0:
244,272,28522,2,0,P|184:223|91:255,2,150.000005722046,0|2|0,0:0|0:0|0:0,0:0:0:0:
64,344,29562,5,2,0:0:0:0:
132,60,29909,1,0,0:0:0:0:
256,324,30256,1,2,0:0:0:0:
380,60,30603,1,0,0:0:0:0:
448,344,30950,1,2,0:0:0:0:
356,300,31123,1,0,0:0:0:0:
255,323,31296,6,0,P|225:258|260:188,2,150.000005722046,0|2|0,0:0|0:0|0:0,0:0:0:0:
164,360,32163,1,0,0:0:0:0:
76,324,32337,2,0,P|106:258|76:192,1,150.000005722046,2|0,0:0|0:0,0:0:0:0:
216,56,33030,1,2,0:0:0:0:
296,108,33204,1,0,0:0:0:0:
384,64,33377,6,0,L|468:112,1,75.0000028610231,4|0,0:0|0:0,0:0:0:0:
360,144,33724,2,0,L|444:192,1,75.0000028610231,0|0,3:0|0:0,0:0:0:0:
336,224,34071,2,0,L|428:280,1,75.0000028610231,0|0,3:0|0:0,0:0:0:0:
316,312,34418,2,0,L|400:360,1,75.0000028610231,0|0,3:0|0:0,0:0:0:0:
130,349,34765,6,0,L|196:312,1,75.0000028610231,0|0,3:0|0:0,0:0:0:0:
111,262,35111,2,0,L|176:224,1,75.0000028610231,0|0,3:0|0:0,0:0:0:0:
86,181,35458,2,0,L|152:144,1,75.0000028610231,0|0,3:0|0:0,0:0:0:0:
62,101,35805,2,0,L|128:64,1,75.0000028610231,0|0,3:0|0:0,0:0:0:0:
256,40,36152,5,0,3:0:0:0:
256,140,36325,1,0,0:0:0:0:
408,124,36499,1,0,3:0:0:0:
328,180,36672,1,0,0:0:0:0:
408,280,36846,1,0,3:0:0:0:
312,264,37019,1,0,0:0:0:0:
104,280,37192,1,0,3:0:0:0:
200,264,37366,1,0,0:0:0:0:
104,124,37539,5,0,3:0:0:0:
184,180,37713,1,0,0:0:0:0:
256,52,37886,2,0,L|256:128,1,75.0000028610231,0|0,3:0|0:0,0:0:0:0:
256,332,38233,2,0,L|256:256,1,75.0000028610231,0|0,3:0|0:0,0:0:0:0:
396,192,38580,2,0,L|320:192,1,75.0000028610231,0|0,3:0|0:0,0:0:0:0:
152,288,38926,6,0,L|120:288,15,18.7500007152558
124,240,39620,6,0,L|156:240,15,18.7500007152558
152,192,40314,6,0,L|120:192,15,18.7500007152558
124,144,41007,6,0,L|156:144,15,18.7500007152558
152,96,41701,6,0,L|120:96,15,18.7500007152558
124,48,42395,6,0,L|156:48,16,18.7500007152558,0|0|0|0|0|0|0|0|0|0|0|0|0|0|0|0|4,0:0|0:0|0:0|0:0|0:0|0:0|0:0|0:0|0:0|0:0|0:0|0:0|0:0|0:0|0:0|0:0|0:1,0:0:0:0:
256,192,43175,12,0,44129,2:0:0:0:
324,92,44476,6,0,P|404:108|420:252,1,230.000004386902,4|8,0:0|0:0,0:0:0:0:
304,360,44996,1,0,2:0:0:0:
340,192,45169,1,0,0:0:0:0:
216,312,45343,1,0,2:0:0:0:
256,144,45516,2,0,P|236:88|260:36,1,115.000002193451,8|0,0:0|2:0,0:0:0:0:
140,32,45863,5,0,0:0:0:0:
372,32,46036,1,0,2:0:0:0:
160,124,46210,1,8,0:0:0:0:
352,124,46383,1,0,2:0:0:0:
256,144,46556,2,0,P|236:88|260:36,1,115.000002193451,0|2,0:0|0:0,0:0:0:0:
432,256,46903,2,0,P|453:308|432:361,1,115.000002193451,8|2,0:0|0:0,0:0:0:0:
217,233,47250,6,0,P|320:232|348:116,1,230.000004386902,0|8,0:0|0:0,0:0:0:0:
224,44,47770,1,0,2:0:0:0:
88,108,47944,1,0,0:0:0:0:
96,256,48117,1,0,2:0:0:0:
96,256,48291,2,0,P|164:272|180:320,1,115.000002193451,8|0,0:0|2:0,0:0:0:0:
416,256,48637,6,0,P|348:272|332:320,2,115.000002193451,0|0|8,0:0|2:0|0:0,0:0:0:0:
440,108,49158,1,0,2:0:0:0:
304,48,49331,1,0,0:0:0:0:
268,192,49504,1,2,0:0:0:0:
132,132,49678,1,8,0:0:0:0:
120,280,49851,1,2,0:0:0:0:
120,280,50025,6,0,P|180:328|340:296,1,230.000004386902,0|8,0:0|0:0,0:0:0:0:
420,192,50545,1,0,2:0:0:0:
136,96,50718,1,0,0:0:0:0:
376,96,50892,1,0,2:0:0:0:
92,192,51065,1,8,0:0:0:0:
255,35,51239,1,0,2:0:0:0:
255,35,51412,6,0,P|276:88|255:140,1,115.000002193451,0|0,0:0|2:0,0:0:0:0:
256,348,51759,2,0,P|235:295|256:243,1,115.000002193451,8|0,0:0|2:0,0:0:0:0:
425,272,52106,2,0,P|376:300|320:296,1,115.000002193451,0|2,0:0|0:0,0:0:0:0:
86,111,52452,2,0,P|135:83|192:88,1,115.000002193451,8|2,0:0|0:0,0:0:0:0:
340,76,52799,5,0,0:0:0:0:
476,140,52973,1,0,2:0:0:0:
328,156,53146,1,8,0:0:0:0:
464,220,53319,1,0,2:0:0:0:
172,308,53493,5,0,0:0:0:0:
36,244,53666,1,0,2:0:0:0:
184,228,53840,1,8,0:0:0:0:
48,164,54013,1,0,2:0:0:0:
160,68,54187,6,2,P|236:120|304:0,1,230.000004386902,0|8,0:0|0:0,0:0:0:0:
352,316,54707,2,2,P|276:264|208:384,1,230.000004386902,0|0,2:0|2:0,0:0:0:0:
276,344,55227,1,8,0:0:0:0:
236,40,55400,1,0,2:0:0:0:
336,148,55574,6,0,P|392:128|428:72,1,115.000002193451,4|0,0:0|2:0,0:0:0:0:
176,236,55921,2,0,P|120:256|84:312,2,115.000002193451,8|0|0,0:0|2:0|0:0,0:0:0:0:
348,264,56441,1,0,2:0:0:0:
164,120,56614,1,8,0:0:0:0:
412,192,56788,1,0,2:0:0:0:
100,192,56961,6,0,P|88:248|124:308,1,115.000002193451,0|0,0:0|2:0,0:0:0:0:
256,260,57308,2,0,L|256:145,2,115.000002193451,8|0|0,0:0|2:0|0:0,0:0:0:0:
399,298,57828,2,0,P|424:247|412:192,1,115.000002193451,2|8,0:0|0:0,0:0:0:0:
256,32,58175,1,2,0:0:0:0:
60,140,58348,6,0,L|72:264,1,115.000002193451,0|0,0:0|2:0,0:0:0:0:
452,244,58695,2,0,L|440:120,1,115.000002193451,8|0,0:0|2:0,0:0:0:0:
76,108,59042,6,0,L|88:232,1,115.000002193451,0|0,0:0|2:0,0:0:0:0:
468,212,59389,2,0,L|456:88,1,115.000002193451,8|0,0:0|2:0,0:0:0:0:
320,32,59736,5,0,0:0:0:0:
184,92,59909,1,0,2:0:0:0:
324,148,60083,1,8,0:0:0:0:
184,200,60256,1,0,2:0:0:0:
324,256,60429,1,0,0:0:0:0:
184,308,60603,2,0,P|128:328|64:292,2,115.000002193451,2|8|2,0:0|0:0|0:0,0:0:0:0:
324,256,61123,6,0,P|380:236|444:272,1,115.000002193451,0|0,0:0|2:0,0:0:0:0:
184,200,61470,2,0,P|128:220|64:184,1,115.000002193451,8|0,0:0|2:0,0:0:0:0:
324,148,61817,2,0,P|376:127|429:147,1,115.000002193451,0|0,0:0|2:0,0:0:0:0:
184,92,62163,2,0,P|131:112|78:92,1,115.000002193451,8|0,0:0|2:0,0:0:0:0:
324,148,62510,5,0,0:0:0:0:
432,296,62684,1,0,2:0:0:0:
432,111,62857,1,8,0:0:0:0:
323,262,63030,1,0,2:0:0:0:
499,204,63204,1,0,0:0:0:0:
323,262,63377,1,2,0:0:0:0:
256,128,63551,1,8,0:0:0:0:
189,262,63724,1,2,0:0:0:0:
128,124,63898,6,0,P|96:56|116:20,2,115.000002193451,0|0|8,0:0|2:0|0:0,0:0:0:0:
72,264,64418,2,0,P|104:332|84:368,2,115.000002193451,0|0|0,2:0|0:0|2:0,0:0:0:0:
200,184,64938,1,8,0:0:0:0:
200,184,65025,1,0,0:0:0:0:
200,184,65111,1,0,0:0:0:0:
292,312,65285,5,8,3:0:0:0:
308,148,65458,1,0,0:0:0:0:
216,336,65632,1,8,3:0:0:0:
384,124,65805,1,0,0:0:0:0:
139,327,65978,2,0,P|126:272|148:220,1,115.000002193451,8|0,3:0|0:0,0:0:0:0:
460,132,66325,2,0,P|473:187|451:239,1,115.000002193451,8|0,3:0|0:0,0:0:0:0:
140,328,66672,6,0,P|40:296|63:194,1,230.000004386902,4|8,2:0|0:0,0:0:0:0:
152,72,67192,1,0,0:0:0:0:
256,180,67366,1,0,0:0:0:0:
360,72,67539,1,0,0:0:0:0:
448,194,67713,2,0,P|468:248|440:312,1,115.000002193451,8|0,0:0|0:0,0:0:0:0:
224,316,68059,5,0,0:0:0:0:
224,316,68233,2,0,L|104:296,1,115.000002193451,0|8,0:0|0:0,0:0:0:0:
110,86,68580,2,0,L|224:68,1,115.000002193451
104,288,68926,1,0,0:0:0:0:
232,76,69100,1,8,0:0:0:0:
224,316,69273,1,0,0:0:0:0:
110,86,69447,6,0,P|60:128|56:176,1,115.000002193451,4|0,2:0|0:0,0:0:0:0:
204,148,69793,2,0,P|197:212|228:249,1,115.000002193451,8|0,0:0|0:0,0:0:0:0:
316,128,70140,2,0,P|357:178|405:182,1,115.000002193451
380,36,70487,2,0,P|444:42|481:11,2,115.000002193451,8|0|0,0:0|0:0|0:0,0:0:0:0:
228,36,71007,5,0,0:0:0:0:
96,76,71181,1,8,0:0:0:0:
240,48,71354,1,0,0:0:0:0:
136,168,71528,1,0,0:0:0:0:
256,56,71701,1,0,0:0:0:0:
220,236,71874,1,8,0:0:0:0:
272,60,72048,1,0,0:0:0:0:
328,260,72221,6,0,P|396:248|432:200,1,115.000002193451,4|0,2:0|0:0,0:0:0:0:
184,308,72568,2,0,P|116:320|80:368,2,115.000002193451,8|0|0,0:0|0:0|0:0,0:0:0:0:
256,192,73088,1,0,0:0:0:0:
168,84,73262,1,8,0:0:0:0:
344,84,73435,1,0,0:0:0:0:
156,176,73609,6,0,P|160:236|208:280,1,115.000002193451
356,176,73955,2,0,P|352:236|304:280,1,115.000002193451,8|0,0:0|0:0,0:0:0:0:
200,352,74302,1,0,0:0:0:0:
312,32,74476,1,0,0:0:0:0:
288,324,74649,1,8,0:0:0:0:
224,60,74822,1,0,0:0:0:0:
356,264,74996,6,0,P|420:244|440:172,1,115.000002193451,4|0,2:0|0:0,0:0:0:0:
156,120,75343,2,0,P|92:140|72:212,1,115.000002193451,8|0,0:0|0:0,0:0:0:0:
356,176,75689,2,0,P|344:124|392:72,1,115.000002193451,4|0,2:0|0:0,0:0:0:0:
156,208,76036,2,0,P|168:260|120:312,1,115.000002193451,8|0,0:0|0:0,0:0:0:0:
48,116,76383,6,0,P|88:40|232:56,1,230.000004386902,4|8,2:0|0:0,0:0:0:0:
464,116,76903,2,0,P|424:40|280:56,1,230.000004386902,0|0,0:0|0:0,0:0:0:0:
180,128,77424,1,8,0:0:0:0:
332,256,77597,1,0,0:0:0:0:
216,328,77770,6,0,P|160:332|100:280,1,115.000002193451,4|0,2:0|0:0,0:0:0:0:
88,96,78117,2,0,P|160:96|180:128,1,115.000002193451,8|0,0:0|0:0,0:0:0:0:
296,328,78464,2,0,P|352:332|412:280,1,115.000002193451
424,96,78811,2,0,P|352:96|332:128,1,115.000002193451,8|0,0:0|0:0,0:0:0:0:
212,192,79158,5,0,0:0:0:0:
300,192,79331,1,0,0:0:0:0:
152,244,79504,1,8,0:0:0:0:
360,140,79678,1,0,0:0:0:0:
88,288,79851,1,0,0:0:0:0:
424,96,80025,1,0,0:0:0:0:
468,228,80198,1,8,0:0:0:0:
152,140,80372,1,0,0:0:0:0:
408,272,80545,6,0,P|344:296|324:352,1,115.000002193451,4|0,2:0|0:0,0:0:0:0:
104,112,80892,2,0,P|168:88|188:32,1,115.000002193451,8|0,0:0|0:0,0:0:0:0:
104,272,81239,2,0,P|168:296|188:352,1,115.000002193451
408,112,81585,2,0,P|344:88|324:32,1,115.000002193451,8|0,0:0|0:0,0:0:0:0:
240,224,81932,5,0,0:0:0:0:
178,100,82106,1,0,0:0:0:0:
160,224,82279,1,8,0:0:0:0:
104,111,82452,1,0,0:0:0:0:
83,247,82626,2,0,P|172:304|240:224,1,230.000004386902,0|8,0:0|0:0,0:0:0:0:
256,84,83146,1,0,0:0:0:0:
388,124,83319,5,4,2:0:0:0:
446,301,83493,1,0,0:0:0:0:
295,191,83666,1,8,0:0:0:0:
482,191,83840,1,0,0:0:0:0:
331,301,84013,1,4,2:0:0:0:
392,216,84187,1,0,0:0:0:0:
256,364,84360,1,8,0:0:0:0:
120,216,84533,1,0,0:0:0:0:
121,315,84707,5,4,2:0:0:0:
179,138,84880,1,0,0:0:0:0:
28,248,85054,1,8,0:0:0:0:
215,248,85227,1,0,0:0:0:0:
64,138,85400,1,4,2:0:0:0:
172,52,85574,2,0,P|232:72|256:128,1,115.000002193451,0|8,0:0|0:0,0:0:0:0:
215,248,85921,1,0,0:0:0:0:
348,288,86094,5,4,2:0:0:0:
364,256,86181,1,0,0:0:0:0:
370,222,86267,1,0,0:0:0:0:
364,188,86354,1,0,0:0:0:0:
345,158,86441,1,0,0:0:0:0:
318,138,86528,1,0,0:0:0:0:
285,128,86614,1,0,0:0:0:0:
250,131,86701,1,0,0:0:0:0:
219,147,86788,1,0,0:0:0:0:
196,172,86874,1,0,0:0:0:0:
165,188,86961,1,0,0:0:0:0:
130,191,87048,1,0,0:0:0:0:
97,181,87135,1,0,0:0:0:0:
70,161,87221,1,0,0:0:0:0:
51,131,87308,1,0,0:0:0:0:
45,97,87395,1,0,0:0:0:0:
56,64,87481,6,0,L|76:24,16,28.7500005483627,0|0|0|0|0|0|0|0|0|0|0|0|0|0|0|0|0,0:0|0:0|0:0|0:0|0:0|0:0|0:0|0:0|0:0|0:0|0:0|0:0|0:0|0:0|0:0|0:0|0:0,0:0:0:0:
48,272,88348,1,0,0:3:0:0:
244,336,88522,1,0,0:3:0:0:
220,128,88695,1,0,0:3:0:0:
176,240,88869,5,4,1:0:0:0:
256,32,99273,6,0,L|256:128,1,75.0000028610231,2|2,0:0|0:0,0:0:0:0:
256,376,99793,1,2,0:0:0:0:
188,160,100140,2,0,B|256:192|256:192|323:159,2,150.000005722046,0|2|2,0:0|0:0|0:0,0:0:0:0:
184,64,103435,5,2,0:0:0:0:
256,116,103609,1,0,0:0:0:0:
328,64,103782,1,0,0:0:0:0:
360,148,103955,2,0,P|323:213|224:208,1,150.000005722046,2|0,0:0|0:0,0:0:0:0:
184,64,104649,2,0,P|96:80|56:216,1,225.000008583069,0|2,0:0|0:0,0:0:0:0:
120,252,105343,1,0,0:0:0:0:
208,252,105516,1,2,0:0:0:0:
256,192,109678,12,0,111065,0:0:0:0:
256,44,111585,5,0,0:0:0:0:
256,44,111759,1,2,2:0:0:0:
68,192,112106,1,0,0:0:0:0:
256,340,112452,1,2,2:0:0:0:
256,340,112973,2,0,P|312:348|352:312,1,100,0|2,0:0|2:0,0:0:0:0:
364,84,113493,1,0,0:0:0:0:
148,192,113840,5,2,2:0:0:0:
364,192,114360,1,0,0:0:0:0:
364,192,114533,1,2,2:0:0:0:
148,84,114880,1,0,0:0:0:0:
132,324,115227,1,2,2:0:0:0:
256,120,115747,1,0,0:0:0:0:
256,120,115921,1,2,2:0:0:0:
380,324,116267,1,0,0:0:0:0:
112,192,116614,5,2,2:0:0:0:
400,192,117135,1,0,0:0:0:0:
400,192,117308,1,2,2:0:0:0:
132,60,117655,1,0,0:0:0:0:
380,324,118002,1,2,2:0:0:0:
132,324,118522,1,0,0:0:0:0:
132,324,118695,1,2,2:0:0:0:
380,60,119042,1,0,0:0:0:0:
256,264,119389,5,2,2:0:0:0:
132,60,119909,1,0,0:0:0:0:
132,60,120083,1,2,2:0:0:0:
76,292,120429,1,0,0:0:0:0:
256,136,120776,1,2,2:0:0:0:
436,292,121296,2,0,P|396:344|336:344,1,100,0|2,0:0|2:0,0:0:0:0:
184,192,121817,1,2,2:0:0:0:
112,120,121990,1,0,0:0:0:0:
44,192,122163,5,2,2:0:0:0:
240,332,122684,1,0,0:0:0:0:
272,52,123204,1,0,0:0:0:0:
272,52,123551,1,2,2:0:0:0:
240,332,124071,1,0,0:0:0:0:
60,172,124591,1,0,0:0:0:0:
452,212,124938,5,2,2:0:0:0:
256,192,125458,1,0,0:0:0:0:
68,40,125978,1,0,0:0:0:0:
444,40,126325,1,2,2:0:0:0:
256,348,126846,1,0,0:0:0:0:
256,36,127366,1,0,2:0:0:0:
380,76,127539,1,0,0:0:0:0:
440,192,127713,6,0,P|452:240|420:292,1,100,0|0,3:0|0:0,0:0:0:0:
275,285,128059,2,0,P|322:269|348:228,1,100,0|0,3:0|0:3,0:0:0:0:
256,192,128406,2,0,P|208:203|156:172,1,100,0|0,3:0|0:3,0:0:0:0:
157,24,128753,2,0,P|173:71|216:96,1,100,0|0,3:0|0:3,0:0:0:0:
354,24,129100,6,0,P|338:70|296:96,1,100,0|0,3:0|0:3,0:0:0:0:
256,192,129447,2,0,P|304:204|348:183,1,100,0|0,3:0|0:0,0:0:0:0:
235,286,129793,2,0,P|189:270|164:228,1,100,0|0,3:0|0:0,0:0:0:0:
71,192,130140,2,0,P|59:239|81:283,1,100,0|0,3:0|0:0,0:0:0:0:
80,72,130487,6,0,L|76:40,15,18.7500007152558
122,37,131181,6,0,L|125:68,15,18.7500007152558
174,59,131874,6,0,L|170:27,15,18.7500007152558
218,25,132568,6,0,L|221:56,12,18.7500007152558,0|0|0|0|0|0|0|0|0|0|0|0|0,0:0|0:0|0:0|0:0|0:0|0:0|0:0|0:0|0:0|0:0|0:0|0:0|0:0,0:0:0:0:
352,36,133262,6,0,P|440:52|448:184,1,230.000004386902,4|8,2:0|0:0,0:0:0:0:
340,268,133782,1,0,0:0:0:0:
376,124,133955,1,0,0:0:0:0:
256,212,134129,1,0,0:0:0:0:
136,124,134302,1,8,0:0:0:0:
172,268,134476,1,0,0:0:0:0:
300,344,134649,6,0,P|368:356|416:284,1,115.000002193451
212,344,134996,2,0,P|144:356|96:284,1,115.000002193451,8|0,0:0|0:0,0:0:0:0:
256,212,135343,1,0,0:0:0:0:
198,35,135516,1,0,0:0:0:0:
347,143,135689,1,8,0:0:0:0:
162,144,135863,1,0,0:0:0:0:
313,35,136036,6,0,P|372:28|424:64,1,115.000002193451,4|0,2:0|0:0,0:0:0:0:
406,233,136383,2,0,P|392:178|348:144,1,115.000002193451,8|0,0:0|0:0,0:0:0:0:
292,236,136730,2,0,P|299:295|263:347,1,115.000002193451
93,329,137077,2,0,P|148:315|183:271,1,115.000002193451,8|0,0:0|0:0,0:0:0:0:
64,184,137424,5,0,0:0:0:0:
92,36,137597,1,0,0:0:0:0:
196,144,137770,1,8,0:0:0:0:
448,184,137944,1,0,0:0:0:0:
420,36,138117,1,0,0:0:0:0:
316,144,138291,1,0,0:0:0:0:
204,244,138464,2,0,P|254:267|312:240,1,115.000002193451,8|0,0:0|0:0,0:0:0:0:
308,48,138811,6,0,P|256:24|205:48,1,115.000002193451,4|0,2:0|0:0,0:0:0:0:
108,160,139158,1,8,0:0:0:0:
100,308,139331,1,0,0:0:0:0:
188,188,139504,1,0,0:0:0:0:
180,336,139678,1,0,0:0:0:0:
268,216,139851,1,8,0:0:0:0:
256,364,140025,1,0,0:0:0:0:
256,364,140198,6,0,P|320:364|356:324,1,115.000002193451
420,116,140545,2,0,P|356:116|320:156,1,115.000002193451,8|0,0:0|0:0,0:0:0:0:
92,116,140892,2,0,P|156:116|192:156,1,115.000002193451
256,364,141239,2,0,P|192:364|156:324,1,115.000002193451,8|0,0:0|0:0,0:0:0:0:
256,216,141585,5,4,2:0:0:0:
296,152,141759,1,0,0:0:0:0:
216,152,141932,1,8,0:0:0:0:
348,224,142106,1,0,0:0:0:0:
164,224,142279,1,4,2:0:0:0:
256,76,142452,1,0,0:0:0:0:
256,296,142626,1,8,0:0:0:0:
368,116,142799,1,0,0:0:0:0:
144,116,142973,6,0,P|80:152|88:304,1,230.000004386902,4|8,2:0|0:0,0:0:0:0:
433,294,143493,2,0,P|452:186|368:116,1,230.000004386902
164,224,144013,1,8,0:0:0:0:
348,224,144187,1,0,0:0:0:0:
256,104,144360,5,4,2:0:0:0:
108,88,144533,1,0,0:0:0:0:
164,224,144707,1,8,0:0:0:0:
16,196,144880,1,0,0:0:0:0:
72,336,145054,2,0,B|140:336|140:336|180:312,1,115.000002193451
440,288,145400,2,0,B|372:288|372:288|332:312,1,115.000002193451,8|0,0:0|0:0,0:0:0:0:
240,192,145747,5,0,0:0:0:0:
328,72,145921,1,0,0:0:0:0:
476,96,146094,1,8,0:0:0:0:
384,212,146267,2,0,P|344:256|348:316,1,115.000002193451
128,172,146614,2,0,P|168:128|164:68,2,115.000002193451,0|8|0,0:0|0:0|0:0,0:0:0:0:
128,324,147135,6,0,P|176:264|212:264,1,115.000002193451,4|0,2:0|0:0,0:0:0:0:
388,320,147481,2,0,P|328:272|328:236,1,115.000002193451,8|0,0:0|0:0,0:0:0:0:
384,60,147828,2,0,P|336:120|300:120,1,115.000002193451
124,64,148175,2,0,P|184:112|184:148,1,115.000002193451,8|0,0:0|0:0,0:0:0:0:
260,300,148522,5,0,0:0:0:0:
240,200,148695,1,0,0:0:0:0:
388,212,148869,5,8,0:0:0:0:
303,155,149042,1,0,0:0:0:0:
424,68,149215,5,0,0:0:0:0:
323,87,149389,1,0,0:0:0:0:
88,268,149562,1,8,0:0:0:0:
388,212,149736,1,0,0:0:0:0:
152,308,149909,5,4,2:0:0:0:
60,192,150083,2,0,L|180:192,1,115.000002193451,0|8,0:0|0:0,0:0:0:0:
340,304,150429,2,0,L|224:304,1,115.000002193451,0|4,0:0|2:0,0:0:0:0:
172,80,150776,2,0,L|288:80,1,115.000002193451,0|8,0:0|0:0,0:0:0:0:
436,76,151123,1,0,0:0:0:0:
464,224,151296,5,4,2:0:0:0:
340,304,151470,1,0,0:0:0:0:
408,168,151643,1,8,0:0:0:0:
284,252,151817,1,0,0:0:0:0:
48,224,151990,5,4,2:0:0:0:
172,304,152163,1,0,0:0:0:0:
104,168,152337,1,8,0:0:0:0:
228,252,152510,1,0,0:0:0:0:
255,35,152684,6,0,P|276:88|255:140,1,115.000002193451,4|0,2:0|0:0,0:0:0:0:
256,348,153030,2,0,P|235:295|256:243,1,115.000002193451,8|0,0:0|0:0,0:0:0:0:
425,272,153377,2,0,P|376:300|320:296,1,115.000002193451,0|0,0:0|0:0,0:0:0:0:
86,111,153724,2,0,P|135:83|192:88,1,115.000002193451,8|0,0:0|0:0,0:0:0:0:
416,72,154071,5,4,2:3:0:0:
432,104,154158,1,0,0:3:0:0:
438,138,154244,1,0,0:3:0:0:
432,172,154331,1,0,0:3:0:0:
413,202,154418,1,0,0:3:0:0:
386,222,154504,1,0,0:3:0:0:
353,232,154591,1,0,0:3:0:0:
318,229,154678,1,0,0:3:0:0:
287,213,154765,1,0,0:3:0:0:
264,188,154851,1,0,0:3:0:0:
233,172,154938,1,0,0:3:0:0:
198,169,155025,1,0,0:3:0:0:
165,179,155111,1,0,0:3:0:0:
138,199,155198,1,0,0:3:0:0:
119,229,155285,1,0,0:3:0:0:
113,263,155372,1,0,0:3:0:0:
116,296,155458,6,0,P|160:344|312:304,1,230.000004386902,4|8,0:0|0:0,0:0:0:0:
396,192,155978,1,0,2:0:0:0:
184,60,156152,1,0,0:0:0:0:
328,60,156325,1,0,2:0:0:0:
116,192,156499,2,0,P|68:224|68:284,1,115.000002193451,8|0,0:0|2:0,0:0:0:0:
212,252,156846,6,0,P|200:308|243:350,1,115.000002193451,0|0,0:0|2:0,0:0:0:0:
332,232,157192,2,0,P|364:280|424:280,1,115.000002193451,8|0,0:0|2:0,0:0:0:0:
400,132,157539,2,0,P|456:143|498:100,2,115.000002193451,0|2|8,0:0|0:0|0:0,0:0:0:0:
256,88,158059,1,2,0:0:0:0:
112,132,158233,6,0,P|55:120|88:232,1,230.000004386902,0|8,0:0|0:0,0:0:0:0:
197,336,158753,1,0,2:0:0:0:
256,160,158926,1,0,0:0:0:0:
315,336,159100,1,0,2:0:0:0:
163,227,159273,1,8,0:0:0:0:
349,227,159447,1,0,0:0:0:0:
408,88,159620,6,0,B|344:72|344:72|296:32,1,115.000002193451,0|0,0:0|2:0,0:0:0:0:
104,88,159967,2,0,B|168:72|168:72|216:32,2,115.000002193451,8|0|0,0:0|2:0|0:0,0:0:0:0:
56,232,160487,1,2,0:0:0:0:
256,336,160661,1,8,0:0:0:0:
456,232,160834,1,2,0:0:0:0:
324,300,161007,6,0,P|272:260|184:360,1,230.000004386902,0|8,0:0|0:0,0:0:0:0:
164,212,161528,2,0,P|216:184|272:184,1,115.000002193451,0|0,2:0|0:0,0:0:0:0:
372,76,161874,1,0,2:0:0:0:
228,40,162048,1,8,0:0:0:0:
272,184,162221,1,0,2:0:0:0:
128,140,162395,6,0,P|88:184|92:244,1,115.000002193451,0|0,0:0|2:0,0:0:0:0:
384,244,162741,2,0,P|424:200|420:140,1,115.000002193451,8|0,0:0|2:0,0:0:0:0:
300,64,163088,1,0,0:0:0:0:
300,64,163262,1,2,0:0:0:0:
212,320,163435,1,8,0:0:0:0:
212,320,163609,1,2,0:0:0:0:
140,192,163782,6,0,L|68:88,1,115.000002193451,0|0,0:0|2:0,0:0:0:0:
372,192,164129,2,0,L|444:296,1,115.000002193451,8|0,0:0|2:0,0:0:0:0:
156,176,164476,6,0,L|84:72,1,115.000002193451,0|0,0:0|2:0,0:0:0:0:
388,176,164822,2,0,L|460:280,1,115.000002193451,8|0,0:0|2:0,0:0:0:0:
316,328,165169,5,0,0:0:0:0:
196,328,165343,1,0,2:0:0:0:
392,252,165516,1,8,0:0:0:0:
120,252,165689,1,2,0:0:0:0:
392,132,165863,1,0,0:0:0:0:
120,132,166036,1,2,0:0:0:0:
316,56,166210,1,8,0:0:0:0:
196,56,166383,1,2,0:0:0:0:
256,192,166556,6,0,L|256:312,1,115.000002193451,4|0,0:0|2:0,0:0:0:0:
400,340,166903,2,0,P|464:308|480:256,1,115.000002193451,8|0,0:0|2:0,0:0:0:0:
256,192,167250,2,0,L|256:312,1,115.000002193451,0|0,0:0|2:0,0:0:0:0:
112,340,167597,2,0,P|48:308|32:256,1,115.000002193451,8|0,0:0|2:0,0:0:0:0:
48,124,167944,5,0,0:0:0:0:
128,252,168117,1,0,2:0:0:0:
136,104,168291,1,8,0:0:0:0:
216,232,168464,1,0,2:0:0:0:
220,84,168637,2,0,P|272:48|328:60,1,115.000002193451,0|2,0:0|0:0,0:0:0:0:
400,184,168984,2,0,P|348:220|292:208,1,115.000002193451,8|2,0:0|0:0,0:0:0:0:
192,316,169331,5,0,0:0:0:0:
128,252,169504,1,0,2:0:0:0:
216,232,169678,1,8,0:0:0:0:
108,336,169851,1,0,2:0:0:0:
156,168,170025,1,0,0:0:0:0:
272,292,170198,2,0,P|328:328|400:308,1,115.000002193451,0|8,2:0|0:0,0:0:0:0:
444,192,170545,1,0,2:0:0:0:
373,60,170718,6,0,P|317:58|272:92,1,115.000002193451,0|0,0:0|2:0,0:0:0:0:
216,232,171065,2,0,P|272:233|320:200,1,115.000002193451,8|0,0:0|2:0,0:0:0:0:
464,312,171412,2,0,P|407:310|362:343,1,115.000002193451,0|2,0:0|0:0,0:0:0:0:
212,348,171759,1,8,0:0:0:0:
124,228,171932,1,2,0:0:0:0:
208,104,172106,6,0,P|260:56|320:56,1,115.000002193451,0|0,0:0|2:0,0:0:0:0:
248,191,172452,2,0,P|304:188|351:220,1,115.000002193451,8|0,0:0|2:0,0:0:0:0:
216,280,172799,2,0,P|264:332|264:392,2,115.000002193451,0|0|8,0:0|2:0|0:0,0:0:0:0:
104,84,173319,1,0,2:0:0:0:
372,60,173493,6,0,L|403:60,15,18.7500007152558
399,107,174187,6,0,L|367:107,15,18.7500007152558
372,154,174880,6,0,L|403:154,15,18.7500007152558
399,203,175574,6,0,L|367:202,16,18.7500007152558,0|0|0|0|0|0|0|0|0|0|0|0|0|0|0|0|4,0:0|0:0|0:0|0:0|0:0|0:0|0:0|0:0|0:0|0:0|0:0|0:0|0:0|0:0|0:0|0:0|0:0,0:0:0:0:
256,192,176354,12,4,177655,0:0:0:0:
