osu file format v13

[General]
AudioFilename: Mind Vortex - Alive.mp3
AudioLeadIn: 0
PreviewTime: 155458
Countdown: 0
SampleSet: Normal
StackLeniency: 0.7
Mode: 0
LetterboxInBreaks: 0
WidescreenStoryboard: 0

[Editor]
DistanceSpacing: 1.3
BeatDivisor: 4
GridSize: 4
TimelineZoom: 1

[Metadata]
Title:Alive
TitleUnicode:Alive
Artist:Mind Vortex
ArtistUnicode:Mind Vortex
Creator:Katty Pie
Version:Easy
Source:
Tags:kazuya arc alive wafu dnb drum and bass kazuya-sama nozhomi
BeatmapID:488004
BeatmapSetID:205309

[Difficulty]
HPDrainRate:2
CircleSize:2
OverallDifficulty:2
ApproachRate:3
SliderMultiplier:0.799999999999999
SliderTickRate:2

[Events]
//Background and Video events
0,0,"www.jpg",0,0
//Break Periods
2,89069,97833
2,105715,109625
//Storyboard Layer 0 (Background)
//Storyboard Layer 1 (Fail)
//Storyboard Layer 2 (Pass)
//Storyboard Layer 3 (Foreground)
//Storyboard Sound Samples

[TimingPoints]
83,346.820809248555,4,2,0,90,1,0
22279,-100,4,2,0,90,0,0
38926,-100,4,1,0,30,0,0
39620,-100,4,1,0,35,0,0
40314,-100,4,1,0,40,0,0
41007,-100,4,1,0,45,0,0
41701,-100,4,1,0,50,0,0
42395,-100,4,1,0,55,0,0
43088,-100,4,1,0,60,0,0
44476,-100,4,1,0,70,0,0
66672,-100,4,1,1,100,0,1
66759,-100,4,1,1,50,0,1
69447,-100,4,1,1,100,0,1
69533,-100,4,1,1,50,0,1
72221,-100,4,1,1,100,0,1
72308,-100,4,1,1,50,0,1
74996,-100,4,1,1,100,0,1
75082,-100,4,1,1,50,0,1
75689,-100,4,1,1,100,0,1
75776,-100,4,1,1,50,0,1
76383,-100,4,1,1,100,0,1
76470,-100,4,1,1,50,0,1
77770,-100,4,1,1,100,0,1
77857,-100,4,1,1,50,0,1
80545,-100,4,1,1,100,0,1
80631,-100,4,1,1,50,0,1
83319,-100,4,1,1,100,0,1
83406,-100,4,1,1,50,0,1
84013,-100,4,1,1,100,0,1
84100,-100,4,1,1,50,0,1
84706,-100,4,1,1,100,0,1
84793,-100,4,1,1,50,0,1
85400,-100,4,1,1,100,0,1
85487,-100,4,1,1,50,0,1
86094,-100,4,1,1,40,0,1
86441,-100,4,1,1,45,0,1
86788,-100,4,1,1,50,0,1
87135,-100,4,1,1,55,0,1
88869,-100,4,1,1,50,0,0
99273,-100,4,2,1,55,0,0
111065,-100,4,1,0,50,0,0
111152,-100,4,1,0,60,0,0
122163,-100,4,1,0,70,0,0
130487,-100,4,1,0,40,0,0
133262,-100,4,1,1,100,0,1
133348,-100,4,1,1,50,0,1
136036,-100,4,1,1,100,0,1
136123,-100,4,1,1,50,0,1
138811,-100,4,1,1,100,0,1
138898,-100,4,1,1,50,0,1
141585,-100,4,1,1,100,0,1
141672,-100,4,1,1,50,0,1
142279,-100,4,1,1,100,0,1
142366,-100,4,1,1,50,0,1
142973,-100,4,1,1,100,0,1
143059,-100,4,1,1,50,0,1
144360,-100,4,1,1,100,0,1
144447,-100,4,1,1,50,0,1
147135,-100,4,1,1,100,0,1
147221,-100,4,1,1,50,0,1
149909,-100,4,1,1,100,0,1
149996,-100,4,1,1,50,0,1
150603,-100,4,1,1,100,0,1
150689,-100,4,1,1,50,0,1
151296,-100,4,1,1,100,0,1
151383,-100,4,1,1,50,0,1
151990,-100,4,1,1,100,0,1
152077,-100,4,1,1,50,0,1
152684,-100,4,1,1,100,0,1
152770,-100,4,1,1,50,0,1
154071,-100,4,1,1,40,0,1
154418,-100,4,1,1,45,0,1
154765,-100,4,1,1,50,0,1
155111,-100,4,1,1,55,0,1
155458,-100,4,1,0,70,0,0
173493,-100,4,1,0,50,0,0
173840,-100,4,1,0,55,0,0
174187,-100,4,1,0,60,0,0

[Colours]
Combo1 : 85,235,20
Combo2 : 80,241,225
Combo3 : 255,255,0
Combo4 : 139,87,249
Combo5 : 216,61,154
Combo6 : 255,96,72

[HitObjects]
352,312,21239,6,0,P|396:281|424:172,1,160,2|2,0:0|0:0,0:0:0:0:
376,92,22279,6,0,P|324:56|184:144,1,240,4|2,2:0|0:0,0:0:0:0:
104,196,23666,2,0,P|211:234|292:152,1,240,2|2,0:0|0:0,0:0:0:0:
376,92,25054,6,0,B|444:152|444:152|492:224|440:300,1,240,2|2,0:0|0:0,0:0:0:0:
348,324,26441,2,0,B|296:312|256:252|256:252|216:312|164:324,1,240,2|2,0:0|0:0,0:0:0:0:
66,292,27828,6,0,B|20:224|68:152|68:152|136:92,1,240,2|2,0:0|0:0,0:0:0:0:
236,60,29215,2,0,P|256:100|256:140,1,79.9999999999999,2|2,0:0|0:0,0:0:0:0:
208,228,29909,1,0,0:0:0:0:
272,312,30256,1,2,0:0:0:0:
376,296,30603,6,0,P|464:224|432:108,1,240,2|2,0:0|0:0,0:0:0:0:
358,188,31990,2,0,B|296:192|260:132|260:132|228:72|160:82,1,240,2|2,0:0|0:0,0:0:0:0:
76,140,33377,6,0,L|68:220,1,79.9999999999999,4|0,0:0|3:0,0:0:0:0:
164,264,34071,2,0,L|172:184,1,79.9999999999999,0|0,3:0|3:0,0:0:0:0:
268,228,34765,2,0,L|260:308,1,79.9999999999999,0|0,3:0|3:0,0:0:0:0:
356,352,35458,2,0,L|364:272,1,79.9999999999999,0|0,3:0|3:0,0:0:0:0:
376,168,36152,5,0,3:0:0:0:
324,80,36499,2,0,B|256:36|256:36|188:80,1,160,0|0,3:0|3:0,0:0:0:0:
104,140,37539,1,0,3:0:0:0:
68,236,37886,1,0,3:0:0:0:
141,312,38233,2,0,P|163:278|172:240,1,79.9999999999999,0|0,3:0|3:0,0:0:0:0:
256,192,38926,12,4,43088,0:0:0:0:
356,160,44476,6,0,L|372:248,2,79.9999999999999,4|8|0,0:0|0:0|0:0,0:0:0:0:
256,128,45516,1,8,0:0:0:0:
156,156,45863,1,0,0:0:0:0:
64,108,46210,2,0,P|52:172|108:252,1,160,8|8,0:0|0:0,0:0:0:0:
188,304,47250,6,0,L|272:320,1,79.9999999999999,0|8,0:0|0:0,0:0:0:0:
324,232,47944,2,0,L|240:216,1,79.9999999999999,0|8,0:0|0:0,0:0:0:0:
304,132,48637,2,0,L|388:148,2,79.9999999999999,0|8|0,0:0|0:0|0:0,0:0:0:0:
220,68,49678,1,8,0:0:0:0:
124,112,50025,5,0,0:0:0:0:
60,192,50372,2,0,P|52:272|128:312,1,160,8|8,0:0|0:0,0:0:0:0:
216,324,51412,2,0,L|300:316,1,79.9999999999999,0|8,0:0|0:0,0:0:0:0:
324,216,52106,2,0,L|240:224,1,79.9999999999999,0|8,0:0|0:0,0:0:0:0:
156,168,52799,5,0,0:0:0:0:
56,148,53146,2,0,P|76:100|180:68,1,160,8|8,0:0|0:0,0:0:0:0:
256,128,54187,1,0,0:0:0:0:
348,76,54533,1,8,0:0:0:0:
436,128,54880,2,0,L|436:216,1,79.9999999999999,0|8,0:0|0:0,0:0:0:0:
348,260,55574,6,0,L|348:180,1,79.9999999999999,4|8,0:0|0:0,0:0:0:0:
348,76,56267,1,0,0:0:0:0:
256,128,56614,1,8,0:0:0:0:
256,232,56961,1,0,0:0:0:0:
204,320,57308,2,0,P|157:257|166:179,1,160,8|8,0:0|0:0,0:0:0:0:
204,84,58348,6,0,P|240:100|288:100,1,79.9999999999999,0|8,0:0|0:0,0:0:0:0:
372,56,59042,2,0,P|411:57|448:73,1,79.9999999999999,0|8,0:0|0:0,0:0:0:0:
464,176,59736,2,0,P|424:174|387:158,1,79.9999999999999,0|8,0:0|0:0,0:0:0:0:
292,120,60429,2,0,P|255:103|215:102,1,79.9999999999999,0|8,0:0|0:0,0:0:0:0:
156,184,61123,6,0,B|164:232|156:264|156:264|188:304,2,120,0|0|8,0:0|0:0|0:0,0:0:0:0:
256,192,62510,12,4,65284,0:0:0:0:
296,172,66672,6,0,L|392:148,1,79.9999999999999,4|8,0:0|0:0,0:0:0:0:
404,52,67366,2,0,L|327:72,1,79.9999999999999,0|8,0:0|0:0,0:0:0:0:
228,96,68059,2,0,L|132:120,1,79.9999999999999,0|8,0:0|0:0,0:0:0:0:
120,216,68753,2,0,L|197:196,1,79.9999999999999,0|8,0:0|0:0,0:0:0:0:
296,168,69447,5,4,2:0:0:0:
396,140,69793,2,0,P|400:192|376:228,1,79.9999999999999,8|0,0:0|0:0,0:0:0:0:
308,284,70487,1,8,0:0:0:0:
204,284,70834,1,0,0:0:0:0:
256,192,71181,2,0,L|256:112,2,79.9999999999999,8|0|8,0:0|0:0|0:0,0:0:0:0:
204,284,72221,6,0,B|172:264|160:236|160:236|103:246|61:203,1,160,4|0,2:0|0:0,0:0:0:0:
140,132,73262,1,8,0:0:0:0:
220,68,73609,1,0,0:0:0:0:
324,56,73955,2,0,P|376:72|400:96,1,79.9999999999999,8|0,0:0|0:0,0:0:0:0:
323,161,74649,1,8,0:0:0:0:
286,257,74996,6,0,P|323:268|361:257,1,79.9999999999999,4|8,2:0|0:0,0:0:0:0:
322,161,75689,2,0,P|333:123|322:85,1,79.9999999999999,4|8,2:0|0:0,0:0:0:0:
226,125,76383,2,0,P|188:113|150:124,1,79.9999999999999,4|8,2:0|0:0,0:0:0:0:
190,221,77077,2,0,P|178:258|189:296,1,79.9999999999999,0|8,0:0|0:0,0:0:0:0:
288,256,77770,5,4,2:0:0:0:
352,172,78117,2,0,P|380:204|392:248,2,79.9999999999999,8|0|8,0:0|0:0|0:0,0:0:0:0:
256,128,79158,1,0,0:0:0:0:
160,172,79504,2,0,P|132:204|120:248,1,79.9999999999999,8|0,0:0|0:0,0:0:0:0:
224,256,80198,1,8,0:0:0:0:
235,360,80545,6,0,P|196:359|161:339,1,79.9999999999999,4|8,2:0|0:0,0:0:0:0:
100,256,81239,1,0,0:0:0:0:
160,172,81585,1,8,0:0:0:0:
100,88,81932,1,0,0:0:0:0:
204,76,82279,2,0,P|235:61|263:10,2,79.9999999999999,8|0|8,0:0|0:0|0:0,0:0:0:0:
160,172,83319,6,0,P|192:184|248:168,1,79.9999999999999,4|8,2:0|0:0,0:0:0:0:
332,136,84013,2,0,P|368:160|388:208,1,79.9999999999999,4|8,2:0|0:0,0:0:0:0:
344,288,84707,1,4,2:0:0:0:
256,344,85054,1,8,0:0:0:0:
154,307,85400,2,0,P|174:273|208:252,1,79.9999999999999,4|8,2:0|0:0,0:0:0:0:
256,192,86094,12,4,88869,1:0:0:0:
388,52,99273,6,0,P|448:104|284:176,1,360,2|2,0:0|0:0,0:0:0:0:
100,144,103435,6,0,P|40:196|128:296,2,240,2|2|2,0:0|0:0|0:0,0:0:0:0:
292,324,111065,6,0,P|360:308|404:232,1,160,4|8,0:0|0:0,0:0:0:0:
392,132,112106,1,0,0:0:0:0:
292,108,112452,2,0,P|224:124|180:200,1,160,0|8,0:0|0:0,0:0:0:0:
100,264,113493,1,0,0:0:0:0:
80,160,113840,6,0,P|104:100|176:32,1,160,0|8,0:0|0:0,0:0:0:0:
256,96,114880,1,0,0:0:0:0:
340,34,115227,2,0,P|399:87|432:160,1,160,0|8,0:0|0:0,0:0:0:0:
436,264,116267,1,0,0:0:0:0:
336,288,116614,6,0,L|172:296,1,160,0|8,0:0|0:0,0:0:0:0:
92,236,117655,1,0,0:0:0:0:
124,136,118002,2,0,L|288:128,1,160,0|8,0:0|0:0,0:0:0:0:
376,176,119042,1,0,0:0:0:0:
440,96,119389,6,0,B|396:44|396:44|340:60|292:24,1,160,0|8,0:0|0:0,0:0:0:0:
204,44,120429,1,0,0:0:0:0:
120,108,120776,2,0,B|114:175|114:175|165:204|173:263,1,160,0|8,0:0|0:0,0:0:0:0:
256,304,121817,1,0,0:0:0:0:
360,308,122163,6,0,P|440:280|464:208,1,160,4|8,0:0|0:0,0:0:0:0:
360,204,123204,1,0,0:0:0:0:
360,100,123551,2,0,P|280:128|256:200,1,160,0|8,0:0|0:0,0:0:0:0:
236,296,124591,1,0,0:0:0:0:
140,336,124938,6,0,B|108:304|128:264|128:264|92:252|80:200,1,160,0|8,0:0|0:0,0:0:0:0:
96,108,125978,1,0,0:0:0:0:
192,64,126325,2,0,P|224:104|332:84,1,160,0|8,0:0|0:0,0:0:0:0:
424,68,127366,1,0,0:0:0:0:
444,168,127713,6,0,L|452:260,1,79.9999999999999,0|0,0:0|3:0,0:0:0:0:
360,300,128406,2,0,L|352:208,1,79.9999999999999,0|0,0:0|3:0,0:0:0:0:
252,200,129100,2,0,L|260:292,1,79.9999999999999,0|0,0:0|3:0,0:0:0:0:
168,332,129793,2,0,L|160:240,1,79.9999999999999,0|0,0:0|3:0,0:0:0:0:
144,148,130487,6,0,B|175:120|184:88|168:56|168:56|208:60|208:60|240:56|256:8|272:56|304:60|304:60|344:56|344:56|328:88|336:120|379:148,1,399.999999999999,0|0,0:0|0:0,0:0:0:0:
396,252,132568,1,0,0:0:0:0:
320,324,132915,1,0,2:0:0:0:
224,364,133262,6,0,P|216:326|224:286,1,79.9999999999999,4|8,2:0|0:0,0:0:0:0:
256,188,133955,1,0,0:0:0:0:
216,92,134302,1,8,0:0:0:0:
120,56,134649,2,0,P|112:94|124:144,1,79.9999999999999,4|8,2:0|0:0,0:0:0:0:
132,236,135343,2,0,P|92:236|55:256,1,79.9999999999999,0|8,0:0|0:0,0:0:0:0:
116,332,136036,5,4,2:0:0:0:
220,332,136383,2,0,P|259:332|294:313,1,79.9999999999999,0|8,0:0|0:0,0:0:0:0:
392,272,137077,1,8,0:0:0:0:
324,192,137424,1,0,0:0:0:0:
220,192,137770,2,0,L|140:192,2,79.9999999999999,8|0|8,0:0|0:0|0:0,0:0:0:0:
324,192,138811,6,0,P|272:100|208:88,1,160,4|0,2:0|0:0,0:0:0:0:
132,136,139851,1,8,0:0:0:0:
220,192,140198,1,0,0:0:0:0:
276,280,140545,2,0,L|364:276,1,79.9999999999999,8|0,0:0|0:0,0:0:0:0:
432,204,141239,1,8,0:0:0:0:
368,120,141585,6,0,P|331:109|293:120,1,79.9999999999999,4|8,2:0|0:0,0:0:0:0:
220,192,142279,2,0,P|183:203|145:192,1,79.9999999999999,4|8,2:0|0:0,0:0:0:0:
104,96,142973,2,0,P|142:84|180:95,1,79.9999999999999,4|8,2:0|0:0,0:0:0:0:
220,192,143666,2,0,P|257:203|295:191,1,79.9999999999999,0|8,0:0|0:0,0:0:0:0:
360,108,144360,5,4,2:0:0:0:
256,88,144707,2,0,P|240:52|260:16,2,79.9999999999999,8|0|8,0:0|0:0|0:0,0:0:0:0:
256,192,145747,1,0,0:0:0:0:
256,296,146094,2,0,P|272:328|256:368,2,79.9999999999999,8|0|8,0:0|0:0|0:0,0:0:0:0:
180,224,147135,6,0,P|141:223|106:203,1,79.9999999999999,4|8,2:0|0:0,0:0:0:0:
172,120,147828,1,0,0:0:0:0:
256,180,148175,1,8,0:0:0:0:
340,120,148522,1,0,0:0:0:0:
405,203,148869,2,0,P|371:222|332:224,2,79.9999999999999,8|8|8,0:0|0:0|0:0,0:0:0:0:
416,99,149909,6,0,L|336:120,1,79.9999999999999,4|8,2:0|0:0,0:0:0:0:
248,72,150603,2,0,L|171:92,1,79.9999999999999,4|8,2:0|0:0,0:0:0:0:
72,128,151296,1,4,2:0:0:0:
16,216,151643,1,8,0:0:0:0:
95,284,151990,6,0,L|172:264,1,79.9999999999999,4|8,2:0|0:0,0:0:0:0:
264,312,152684,2,0,L|352:288,1,79.9999999999999,4|8,2:0|0:0,0:0:0:0:
436,244,153377,1,8,0:0:0:0:
380,156,153724,1,8,2:0:0:0:
312,80,154071,2,0,P|352:56|400:60,1,79.9999999999999,0|8,0:0|0:0,0:0:0:0:
472,108,154765,1,0,0:0:0:0:
380,156,155111,1,8,0:0:0:0:
340,252,155458,6,0,P|332:290|308:324,1,79.9999999999999,4|8,0:0|0:0,0:0:0:0:
202,323,156152,2,0,P|179:290|172:252,1,79.9999999999999,0|8,0:0|0:0,0:0:0:0:
180,148,156846,1,0,0:0:0:0:
256,220,157192,1,8,0:0:0:0:
332,148,157539,2,0,P|324:109|301:76,1,79.9999999999999,0|8,0:0|0:0,0:0:0:0:
200,104,158233,6,0,L|168:28,2,79.9999999999999,0|8|0,0:0|0:0|0:0,0:0:0:0:
256,192,159273,1,8,0:0:0:0:
312,280,159620,2,0,L|344:356,2,79.9999999999999,0|8|0,0:0|0:0|0:0,0:0:0:0:
256,192,160661,1,8,0:0:0:0:
256,88,161007,5,0,0:0:0:0:
167,140,161354,2,0,P|152:176|160:224,1,79.9999999999999,8|0,0:0|0:0,0:0:0:0:
256,192,162048,1,8,0:0:0:0:
344,140,162395,2,0,P|359:176|352:224,1,79.9999999999999,0|8,0:0|0:0,0:0:0:0:
272,280,163088,2,0,P|304:308|340:320,1,79.9999999999999,0|8,0:0|0:0,0:0:0:0:
424,256,163782,6,0,P|392:228|356:216,1,79.9999999999999,0|8,0:0|0:0,0:0:0:0:
268,160,164476,1,0,0:0:0:0:
168,132,164822,1,8,0:0:0:0:
64,128,165169,2,0,L|64:48,2,79.9999999999999,0|8|0,0:0|0:0|0:0,0:0:0:0:
24,224,166210,1,8,0:0:0:0:
128,244,166556,6,0,P|165:255|203:244,1,79.9999999999999,4|8,0:0|0:0,0:0:0:0:
307,243,167250,2,0,P|344:254|382:242,1,79.9999999999999,0|8,0:0|0:0,0:0:0:0:
380,140,167944,2,0,P|342:128|304:139,1,79.9999999999999,0|8,0:0|0:0,0:0:0:0:
201,141,168637,2,0,P|163:129|125:141,1,79.9999999999999,0|8,0:0|0:0,0:0:0:0:
164,236,169331,5,0,0:0:0:0:
256,288,169678,1,8,0:0:0:0:
348,235,170025,2,0,P|362:199|345:164,1,79.9999999999999,0|8,0:0|0:0,0:0:0:0:
256,112,170718,1,0,0:0:0:0:
164,164,171065,1,8,0:0:0:0:
124,260,171412,2,0,P|172:272|208:256,1,79.9999999999999,0|8,0:0|0:0,0:0:0:0:
304,268,172106,6,0,L|304:348,2,79.9999999999999,0|8|0,0:0|0:0|0:0,0:0:0:0:
392,208,173146,1,8,0:0:0:0:
452,124,173493,2,0,L|452:44,2,79.9999999999999,0|8|0,0:0|0:0|0:0,0:0:0:0:
392,208,174533,1,8,0:0:0:0:
256,192,174880,12,4,177655,0:0:0:0:
