osu file format v5

[General]
AudioFilename: 07 Stalkers.mp3
AudioLeadIn: 0
PreviewTime: -1
Countdown: 1
SampleSet: Soft
StackLeniency: 0.7
Mode: 0
LetterboxInBreaks: 1
EditorDistanceSpacing: 0.800000011920929

[Metadata]
Title:Stalkers
Artist:Mind In A Box
Creator:John12346
Version:Normal
Source:
Tags:EBM Electronic Beat Music Stalkers

[Difficulty]
HPDrainRate:4
CircleSize:5
OverallDifficulty:5
SliderMultiplier:1.4
SliderTickRate:1

[Events]
//Background and Video events
//Break Periods
2,182815,210470
2,282449,294810
//Storyboard Layer 0 (Background)
//Storyboard Layer 1 (Failing)
//Storyboard Layer 2 (Passing)
//Storyboard Layer 3 (Foreground)
//Storyboard Sound Samples
//Background Colour Transformations
3,100,179,179,255

[TimingPoints]
964.953833619943,550.45871559633,4,2,0,71,1,0

[HitObjects]
256,64,44175,1,0
384,96,44451,2,0,B,1,350
480,352,46377,1,0
160,32,46653,2,0,B|352:352,1,350
256,160,49130,1,0
320,96,49405,1,0
256,32,50231,1,0
192,96,50506,1,0
192,128,51056,2,0,B|384:288,1,210
384,288,52432,1,0
64,288,53533,5,0
96,288,53808,2,0,B|416:96,1,350
320,64,55735,1,0
256,64,56010,1,0
192,64,56286,1,0
128,64,56836,1,0
64,64,57111,1,0
32,96,57662,2,0,B|32:448|480:416|480:64,1,770
96,192,62341,5,0
128,192,62616,1,0
160,192,62891,2,0,B|384:192,1,210
192,64,63992,1,0
192,128,64542,1,0
224,128,64818,1,0
320,288,65368,2,0,B|320:64,1,210
256,192,66744,1,0
384,256,67019,1,0
320,320,67295,1,0
192,320,67845,1,0
128,256,68120,1,0
192,256,68671,2,0,B|352:96,1,210
256,32,70047,1,0
64,128,71148,6,0,B|160:320|416:288,1,350
416,288,72799,1,0
416,160,73350,1,0
416,64,73625,2,0,B|64:320,1,420
256,192,79955,12,0,81607
64,64,82157,5,0
128,64,82432,1,0
192,128,82708,2,0,B|416:352,1,280
256,192,84359,12,0,86010
192,160,86561,5,0
256,96,86836,1,0
320,160,87111,1,0
320,224,87662,1,0
256,288,87937,1,0
192,224,88212,1,0
256,192,88763,12,0,90414
32,64,90964,5,0
128,64,91240,1,0
224,64,91515,2,0,B|352:320,1,280
256,192,93166,12,0,94818
192,256,95368,5,0
192,192,95643,1,0
192,128,95919,1,0
320,128,96469,1,0
320,192,96744,1,0
320,256,97019,1,0
256,192,97570,12,0,99221
64,96,99772,5,0
64,160,100047,2,0,B|288:384|384:160,1,350
256,192,101974,12,0,103625
256,32,104175,5,0
256,96,104451,1,0
256,160,104726,1,0
256,224,105276,1,0
256,288,105552,1,0
256,352,105827,1,0
256,192,106377,12,0,108029
128,64,108579,5,0
128,192,108854,1,0
128,320,109130,2,0,B|416:320,1,280
256,192,110781,12,0,112432
192,288,112983,5,0
320,64,113258,1,0
192,64,113533,2,0,B|320:320,1,280
32,32,115185,6,0,B|256:192,1,210
288,224,117386,2,0,B|512:384,1,210
32,32,119588,6,0,B|256:384|256:0|416:32|512:384,1,700
32,352,124542,2,0,B|512:192|0:192|480:32|512:32,1,560
192,32,128671,2,0,B|352:32,1,140
384,192,130873,2,0,B|160:192,1,210
96,64,132799,2,0,B,1,350
160,128,133075,1,0
224,192,133350,1,0
288,256,133625,1,0
352,192,133900,1,0
416,128,134175,1,0
480,64,134451,1,0
448,32,135001,2,0,B|0:384,1,560
96,192,141882,6,0,B|384:192,1,280
64,64,144084,2,0,B|448:64,1,350
32,32,146286,2,0,B|160:384|352:0|448:32|480:384,1,700
32,320,150689,6,0,B|160:0|352:0|480:320,1,630
256,192,155643,12,0,158671
256,192,161698,6,0,B|448:32|512:192|448:352|256:384|64:352|0:192|64:32|192:32,1,840
384,288,168304,2,0,B|32:32|32:32|480:32|480:32|480:352|480:352|32:352|32:352|416:96,1,2100
32,32,179313,2,0,B|64:448|128:320|160:64|224:128|224:288|256:320|288:96|352:160|352:448|416:448|480:128,1,840
256,192,211790,5,0
256,192,212341,12,0,213992
192,128,214542,5,0
288,224,215368,1,0
320,256,215919,1,0
256,192,216469,12,0,218396
160,128,218946,5,0
288,256,219772,1,0
320,256,220047,1,0
352,256,220322,1,0
256,192,220873,12,0,222524
256,192,223075,5,0
352,160,223625,2,0,B|288:352|224:352|128:128,1,350
256,192,225552,12,0,226928
320,224,227478,5,0
256,256,227753,1,0
192,224,228029,1,0
192,160,228579,1,0
256,128,228854,1,0
320,160,229130,1,0
256,192,229680,12,0,231331
32,192,231882,6,0,B|480:192,1,420
256,192,234084,12,0,236010
224,160,236286,5,0
256,160,236561,1,0
288,160,236836,1,0
224,224,237386,1,0
256,224,237662,1,0
288,224,237937,1,0
256,192,238487,12,0,240139
128,256,240689,5,0
128,160,240964,1,0
128,64,241240,2,0,B|416:160,1,280
256,192,242891,12,0,244542
192,320,245093,5,0
192,256,245368,1,0
192,192,245643,1,0
192,96,246194,1,0
256,96,246469,1,0
320,96,246744,1,0
448,96,247295,1,0
384,128,247570,2,0,B|64:352,1,350
288,256,249497,1,0
288,256,249772,1,0
256,128,250873,5,0
256,160,251148,1,0
256,224,251698,1,0
256,288,252249,2,0,B|0:160|256:32|512:160|448:128,1,420
192,160,255276,1,0
256,224,255552,2,0,B|64:256|64:256|128:32|128:32|448:256|448:256|192:320,2,1050
352,96,264084,1,0
448,96,264359,1,0
256,192,265185,12,0,267386
32,352,268487,5,0
64,352,268763,1,0
96,352,269038,1,0
160,288,269588,1,0
224,224,270139,1,0
256,224,270414,1,0
288,224,270689,1,0
320,224,270964,1,0
352,160,271515,1,0
384,160,271790,1,0
416,160,272065,1,0
416,96,272616,1,0
384,96,272891,1,0
352,96,273166,2,0,B|32:32|0:256|160:384|384:288,1,630
224,160,275919,1,0
224,192,276056,1,0
288,160,276331,1,0
288,192,276469,1,0
352,256,276744,1,0
288,256,277295,1,0
224,256,277570,1,0
160,256,277845,1,0
256,128,278396,2,0,B|32:128|32:128|32:352|32:352|512:64,1,980
128,128,296010,6,0,B|384:320,1,280
416,64,297937,2,0,B|64:320,1,420
32,32,302065,6,0,B|480:32,1,420
480,96,304267,2,0,B|32:96,1,420
32,160,306469,2,0,B|480:160,1,420
480,224,308671,2,0,B|32:224,1,420
32,288,310873,2,0,B|480:288,1,420
480,352,313075,2,0,B|32:352,1,420
64,288,315276,2,0,B|288:32|288:32|448:224,1,560
480,352,318029,2,0,B|0:352,1,420
32,320,320231,2,0,B|256:32|256:32|512:320|512:320|320:320,1,910
128,96,325185,1,0
160,96,325460,1,0
160,192,326010,1,0
192,192,326286,1,0
224,192,326561,1,0
256,192,326836,1,0
288,192,327111,1,0
256,192,328212,12,0,330414
224,128,331240,5,0
256,128,331515,1,0
288,128,331790,1,0
352,128,332341,2,0,B|576:384|64:384|96:32,1,630
64,192,338396,5,0
160,192,339221,1,0
288,192,340047,1,0
352,192,340597,1,0
448,192,341423,1,0
256,192,342799,12,0,344726
224,128,345827,5,0
256,128,346102,1,0
320,128,346653,2,0,B|320:224|320:224|160:224|160:224|160:128,1,350
64,96,348854,1,0
128,96,349130,1,0
192,96,349405,1,0
256,192,350231,1,0
320,288,351056,1,0
384,288,351331,1,0
256,192,356010,12,0,362341
