osu file format v8

[General]
AudioFilename: 009-1 OP.mp3
AudioLeadIn: 0
PreviewTime: 46815
Countdown: 0
SampleSet: Normal
StackLeniency: 0.7
Mode: 0
LetterboxInBreaks: 1

[Editor]
Bookmarks: 30897
DistanceSpacing: 0.8
BeatDivisor: 4
GridSize: 16

[Metadata]
Title:Destiny Girl (TV Size)
Artist:Minato
Creator:Louis Cyphre
Version:Normal
Source:009-1
Tags:Zero Zero Nine-One

[Difficulty]
HPDrainRate:3
CircleSize:3
OverallDifficulty:3
ApproachRate:3
SliderMultiplier:1.2
SliderTickRate:2

[Events]
//Background and Video events
0,0,"BG minato.jpg"
//Break Periods
//Storyboard Layer 0 (Background)
//Storyboard Layer 1 (Fail)
//Storyboard Layer 2 (Pass)
//Storyboard Layer 3 (Foreground)
//Storyboard Sound Samples
//Background Colour Transformations
3,100,163,162,255

[TimingPoints]
7935,392.156862745098,4,1,1,40,1,0
9797,-100,4,1,2,40,0,0
9993,-100,4,1,1,40,0,0
11366,-100,4,1,2,40,0,0
11562,-100,4,1,1,40,0,0
13719,-100,4,1,2,40,0,0
13915,-100,4,1,1,40,0,0
15179,-100,4,1,1,40,0,0
16072,-100,4,1,2,40,0,0
16268,-100,4,1,1,40,0,0
16748,-100,4,1,1,40,0,0
17640,-100,4,1,2,40,0,0
17836,-100,4,1,1,40,0,0
18317,-100,4,1,1,40,0,0
19209,-100,4,1,2,40,0,0
19405,-100,4,1,1,40,0,0
19885,-100,4,1,1,40,0,0
26268,-100,4,1,2,40,0,0
26464,-100,4,1,1,40,0,0
28621,-100,4,1,2,40,0,0
28817,-100,4,1,1,40,0,0
31758,-100,4,1,2,40,0,0
31954,-100,4,1,1,40,0,0
35680,-100,4,1,2,40,0,0
35876,-100,4,1,1,40,0,0
38817,-100,4,1,2,40,0,0
39013,-100,4,1,1,40,0,0
41170,-100,4,1,2,40,0,0
41366,-100,4,1,1,40,0,0
47150,-100,4,1,1,40,0,1
47444,-100,4,1,2,40,0,1
47640,-100,4,1,1,40,0,1
48229,-100,4,1,2,40,0,1
48425,-100,4,1,1,40,0,1
49013,-100,4,1,2,40,0,1
49209,-100,4,1,1,40,0,1
50582,-100,4,1,2,40,0,1
50778,-100,4,1,1,40,0,1
51366,-100,4,1,2,40,0,1
51562,-100,4,1,1,40,0,1
52150,-100,4,1,2,40,0,1
52346,-100,4,1,1,40,0,1
53719,-100,4,1,2,40,0,1
53915,-100,4,1,1,40,0,1
55287,-100,4,1,2,40,0,1
55484,-100,4,1,1,40,0,1
56856,-100,4,1,2,40,0,1
57052,-100,4,1,1,40,0,1
57640,-100,4,1,2,40,0,1
57836,-100,4,1,1,40,0,1
64699,-100,4,1,2,40,0,1
64895,-100,4,1,1,40,0,1
66268,-100,4,1,2,40,0,1
66464,-100,4,1,1,40,0,1
67836,-100,4,1,2,40,0,1
68033,-100,4,1,1,40,0,1
70189,-100,4,1,2,40,0,1
70385,-100,4,1,1,40,0,1
72640,-100,4,1,1,40,0,0
73817,-100,4,1,1,40,0,1
74895,-100,4,1,2,40,0,1
75091,-100,4,1,1,40,0,1
76464,-100,4,1,2,40,0,1
76660,-100,4,1,1,40,0,1
78033,-100,4,1,2,40,0,1
78229,-100,4,1,1,40,0,1
82738,-100,4,1,2,40,0,1
82934,-100,4,1,1,40,0,1
86758,-100,4,1,1,40,0,0

[Colours]
Combo1 : 151,0,0
Combo2 : 255,128,64
Combo3 : 192,192,192
Combo4 : 221,221,0

[HitObjects]
64,192,7935,1,4
176,288,8523,1,4
288,192,9111,1,4
368,240,9503,6,0,B|496:176|464:16,1,240,4|0
368,48,10680,1,8
272,48,11072,2,0,B|144:112|176:272,1,240
352,320,12640,5,0
352,224,13033,1,8
352,128,13425,2,0,B|352:64|320:32|240:32|208:64|208:128,1,240
208,272,14797,2,0,B|208:336,1,60
112,336,15385,1,8
112,240,15778,6,0,B|112:128|144:96|272:96,1,240
352,96,16954,1,8
432,144,17346,2,0,B|432:256|400:288|272:288,1,240,4|0
272,192,18523,1,8
176,192,18915,6,0,B|176:112|272:16|336:16,1,240,4|4
416,16,20091,1,4
416,160,20680,2,8,B|416:224,1,60
416,320,21268,1,4
320,320,21660,6,4,B|192:320,1,120
64,320,22640,2,0,B|64:192|192:192,1,180,0|8
176,288,23621,1,0
272,272,24013,2,0,B|272:192|368:160,2,120,8|0|8
368,272,25189,1,0
464,272,25582,6,0,B|480:48|224:80,1,360,8|0
144,80,27150,1,8
144,176,27542,1,0
240,176,27934,1,8
352,272,28523,6,0,B|480:272|480:80|336:80,1,300,0|8
256,80,29895,2,0,B|128:80,2,120,0|8|0
336,32,31072,1,8
416,80,31464,6,0,B|416:240|272:240,1,240,0|0
176,240,32640,1,8
176,144,33033,5,0
176,48,33425,1,8
272,48,33817,1,0
368,48,34209,2,0,B|496:48,1,120,8|4
480,144,34993,5,8
480,240,35385,2,0,B|368:336|256:240,1,240
336,192,36562,1,8
336,192,36758,2,0,B|288:112|160:144,1,180,0|8
64,48,37935,5,0
64,48,38131,2,0,B|144:0|352:112|432:48,1,360,8|0
416,160,39699,2,0,B|416:288,2,120,8|0|8
272,160,41072,6,0,B|96:240|80:32|208:32,1,300,0|8
288,32,42444,2,0,B|432:32,3,120,0|8|0|8
400,128,44013,2,0,B|400:256,1,120,0|8
400,336,44797,6,0,B|320:336,4,60,0|0|8|0|0
400,240,45974,1,12
304,240,46366,1,4
144,336,47150,6,0,B|96:304|208:160|144:96,3,240,4|0|0|0
256,96,49895,1,8
352,112,50287,6,0,B|407:165|295:309|343:341,3,240
240,336,53033,1,8
144,336,53425,6,0,B|64:336|64:144|176:144,1,240,4|0
192,240,54601,1,4
288,240,54993,6,0,B|368:240|368:48|256:48,1,240,4|0
192,64,56170,1,12
96,64,56562,6,0,B|96:320|320:320|320:48,1,480,0|4
256,192,58327,12,4,59699
112,128,60484,6,0,B|144:96|144:96|192:96|192:96|224:64,1,120,0|8
288,128,61268,6,0,B|320:96|320:96|368:96|368:96|400:64,1,120,0|8
400,176,62052,1,0
400,272,62444,2,0,B|352:304|192:224|144:272,1,240,8|8
112,176,63621,1,0
160,96,64013,1,8
256,80,64405,6,0,B|416:80|416:224,1,240
416,320,65582,1,8
416,320,65778,2,0,B|160:320,1,240
128,320,66758,6,0,B|128:192,1,120,0|8
80,112,67542,2,0,B|336:112,1,240
416,112,68719,6,0,B|416:240,1,120,8|0
416,320,69503,1,8
320,320,69895,2,0,B|64:320,1,240,0|4
80,224,71072,5,8
80,128,71464,1,4
176,128,71856,1,8
176,224,72248,1,0
272,224,72640,2,0,B|416:224,1,120,8|4
400,128,73425,1,4
304,128,73817,5,4
304,32,74209,1,12
208,32,74601,2,0,B|64:32|64:192,1,240
144,240,75778,1,8
208,320,76170,2,0,B|352:320|352:160,1,240
256,160,77346,5,8
160,160,77738,2,0,B|208:32|368:80,1,240
352,176,78915,1,8
352,272,79307,6,0,B|288:304|224:256,2,120,0|8|4
448,272,80484,1,8
448,176,80876,2,0,B|448:48,1,120,0|8
352,48,81660,2,0,B|224:48,1,120,4|0
144,64,82444,2,0,B|16:112|32:256,1,240,0|4
128,272,83621,5,4
224,272,84013,1,4
320,272,84405,1,4
416,272,84797,1,4
416,176,85189,1,0
320,176,85582,6,0,B|176:176,1,120
112,176,86366,2,4,B|112:96,2,60
