osu file format v8

[General]
AudioFilename: 009-1 OP.mp3
AudioLeadIn: 0
PreviewTime: 46815
Countdown: 0
SampleSet: Normal
StackLeniency: 0.7
Mode: 0
LetterboxInBreaks: 1

[Editor]
Bookmarks: 30897
DistanceSpacing: 0.8
BeatDivisor: 4
GridSize: 16

[Metadata]
Title:Destiny Girl (TV Size)
Artist:Minato
Creator:Louis Cyphre
Version:Insane
Source:009-1
Tags:Zero Zero Nine-One

[Difficulty]
HPDrainRate:6
CircleSize:5
OverallDifficulty:8
ApproachRate:8
SliderMultiplier:1.6
SliderTickRate:2

[Events]
//Background and Video events
0,0,"BG minato.jpg"
//Break Periods
//Storyboard Layer 0 (Background)
//Storyboard Layer 1 (Fail)
//Storyboard Layer 2 (Pass)
//Storyboard Layer 3 (Foreground)
//Storyboard Sound Samples
//Background Colour Transformations
3,100,163,162,255

[TimingPoints]
7935,392.156862745098,4,1,1,40,1,0
14493,-100,4,1,2,40,0,0
14689,-100,4,1,1,40,0,0
47150,-100,4,1,1,40,0,1
63513,-200,4,1,1,40,0,1
64003,-100,4,1,1,40,0,1
66258,-100,4,1,2,40,0,1
66454,-100,4,1,1,40,0,1
69787,-200,4,1,1,40,0,1
70277,-100,4,1,1,40,0,1
72640,-100,4,1,1,40,0,0
73817,-100,4,1,1,40,0,1
76062,-200,4,1,1,40,0,1
76552,-100,4,1,1,40,0,1
84689,-200,4,1,1,40,0,1
85081,-200,4,1,2,40,0,1
85277,-200,4,1,1,40,0,1
85572,-100,4,1,1,40,0,1
86758,-100,4,1,1,40,0,0

[Colours]
Combo1 : 151,0,0
Combo2 : 255,128,64
Combo3 : 192,192,192
Combo4 : 221,221,0

[HitObjects]
480,192,7935,1,4
368,352,8523,1,4
256,192,9111,1,4
256,192,9503,5,4
256,192,9895,2,0,B|224:288,1,80,8|0
160,256,10287,1,0
128,192,10484,1,0
144,128,10680,2,0,B|160:80|128:32,1,80,8|0
208,32,11072,2,0,B|256:48|304:32,1,80
304,96,11464,1,8
368,64,11660,1,0
368,128,11856,2,0,B|464:128,1,80
448,192,12248,2,0,B|384:192|384:304|448:304,1,160,8|0
400,352,12836,5,0
352,304,13033,1,8
288,336,13229,1,0
224,304,13425,1,0
160,336,13621,1,0
128,336,13719,1,0
96,336,13817,1,8
32,304,14013,2,0,B|32:208|272:208|272:96,1,320
336,112,14993,2,0,B|336:208|456:208,1,160,0|8
320,272,15778,5,4
256,304,15974,1,0
192,272,16170,2,0,B|96:272|96:144,2,160,8|0|8
256,240,17150,2,0,B|304:224|320:176,1,80,0|4
256,160,17542,1,0
192,128,17738,2,0,B|202:93|250:77,1,80,8|0
320,64,18131,2,0,B|416:64|368:160|448:160,2,160,0|8|4
256,96,19111,5,0
320,128,19307,1,8
304,144,19405,1,0
288,160,19503,1,0
240,208,19699,1,4
272,272,19895,5,0
336,272,20091,1,8
384,224,20287,1,0
448,208,20484,1,4
400,160,20680,1,8
336,144,20876,2,0,B|352:48|464:64,1,160
336,144,21660,5,12
320,208,21856,2,0,B|320:264|256:264,1,80,4|4
208,272,22248,2,0,B|168:312,2,40,0|0|8
224,208,22640,1,0
208,144,22836,1,0
144,144,23033,2,0,B|96:144|96:80,1,80,0|8
144,48,23425,1,0
208,48,23621,6,0,B|310:47|310:143,1,160,0|8
368,176,24209,1,0
304,208,24405,1,0
368,240,24601,1,0
304,272,24797,1,8
240,272,24993,2,0,L|192:320,2,40
240,208,25385,1,0
176,176,25582,6,0,B|144:144|176:96,1,80,8|0
243,23,25974,2,0,B|271:64|240:96,1,80
240,95,26268,1,0
240,95,26366,1,8
288,144,26562,1,0
352,144,26758,2,0,B|384:176|288:272|336:320,3,160,0|8|0|8
256,288,28131,2,0,B|256:240,2,40
192,256,28523,5,0
144,208,28719,2,0,B|96:208|96:144,2,80,8|0|0
176,144,29307,1,0
240,160,29503,1,8
256,224,29699,1,0
320,224,29895,2,0,B|400:224|400:96,2,160,0|8|0
256,224,30876,1,0
224,224,30974,1,0
192,224,31072,1,8
144,112,31464,5,0
272,128,31856,1,8
320,176,32052,1,0
384,144,32248,1,0
400,112,32346,1,0
416,80,32444,1,0
368,32,32640,1,8
304,64,32836,1,0
256,16,33033,5,0
272,224,33425,1,8
480,320,33817,1,0
416,304,34013,1,8
432,272,34111,1,0
448,240,34209,1,8
384,224,34405,1,0
336,176,34601,1,4
352,48,34993,5,8
288,32,35189,1,0
224,64,35385,1,0
192,128,35582,1,0
160,64,35778,1,8
96,32,35974,2,0,L|0:32,1,80
16,96,36366,2,0,L|96:96,1,80,0|8
128,160,36758,1,0
176,208,36954,1,0
112,224,37150,5,0
160,272,37346,1,8
224,256,37542,1,0
240,224,37640,1,0
256,192,37738,1,0
288,128,37935,5,0
288,64,38131,2,0,L|400:64,1,80,8|0
368,128,38523,2,0,L|448:128,1,80
480,192,38915,2,0,L|400:192,1,80,8|0
384,256,39307,2,0,B|352:240|240:272|208:256,3,160,0|8|0|8
160,288,40680,1,0
128,288,40778,1,0
96,272,40876,1,4
128,208,41072,5,0
192,176,41268,1,8
256,144,41464,1,0
224,80,41660,1,0
288,80,41856,1,0
256,16,42052,5,8
336,112,42444,1,0
256,208,42836,1,8
176,112,43229,1,0
256,16,43621,2,0,B|272:64|240:128|256:176,1,160,8|0
256,240,44209,1,0
256,272,44307,1,0
256,304,44405,1,8
128,304,44797,5,0
96,240,44993,1,0
160,208,45189,1,8
128,144,45385,1,0
192,112,45582,2,0,B|192:16|304:16,2,160,0|12|4
320,112,46758,1,12
256,224,47150,5,4
224,288,47346,1,0
288,288,47542,1,8
256,352,47738,1,0
320,160,47935,5,0
384,128,48131,1,0
384,192,48327,1,8
448,160,48523,1,0
192,160,48719,5,0
128,128,48915,1,0
128,192,49111,1,8
64,160,49307,1,0
256,192,49503,5,0
256,192,49699,1,0
256,192,49797,1,0
256,192,49895,1,8
256,256,50091,1,0
256,320,50287,6,0,B|304:304|336:320,1,80
256,320,50680,2,0,B|192:336|176:320,1,80,8|0
176,256,51072,2,0,B|192:240|336:272|352:256,2,160,0|8|0
176,192,52052,5,0
160,160,52150,1,0
176,128,52248,1,8
240,128,52444,1,0
256,160,52542,1,0
240,192,52640,1,0
240,128,52836,1,0
304,144,53033,2,0,B|368:96|400:176|480:112,1,160,8|4
464,192,53621,5,0
448,256,53817,1,8
384,272,54013,1,0
320,240,54209,2,0,B|319:134|415:134,1,160,0|12
288,80,54993,5,4
224,48,55189,1,0
160,80,55385,1,8
160,144,55582,1,0
224,176,55778,2,0,B|320:176|368:80,1,160,0|12
480,128,56562,5,4
464,192,56758,1,0
400,192,56954,1,12
384,256,57150,1,0
336,208,57346,2,0,B|336:112|240:80,1,160,4|12
208,144,57934,1,0
256,192,58131,2,0,B|192:288|80:240|96:144,2,240,4|4|12
256,64,59699,2,0,B|352:64|352:176,1,160,4|0
480,160,60484,5,0
416,48,60876,1,8
480,160,61268,5,0
416,176,61464,1,0
464,224,61660,1,8
400,240,61856,1,0
336,256,62052,5,0
288,304,62248,1,0
272,240,62444,1,8
224,288,62640,1,0
208,224,62836,5,0
145,210,63033,1,0
192,160,63229,2,0,B|240:144|240:96,1,80,8|0
304,96,63621,2,0,B|304:138|352:154,1,80,0|8
416,272,64405,5,0
352,304,64601,1,0
304,256,64797,1,8
256,304,64993,1,0
208,256,65189,1,0
176,256,65287,1,0
144,256,65385,1,0
144,192,65582,1,8
208,192,65778,2,0,L|320:192|320:96|176:96,1,320
144,96,66758,5,0
80,96,66954,1,0
80,160,67150,2,0,L|80:320,1,160,8|0
144,320,67738,5,0
208,288,67934,1,8
272,320,68131,1,0
336,288,68327,1,0
400,320,68523,1,0
432,256,68719,5,8
480,208,68915,1,0
432,160,69111,1,0
496,128,69307,1,0
464,64,69503,2,0,L|352:64,1,80,8|0
320,64,69895,2,0,L|224:64,1,80,0|8
112,64,70680,5,4
48,64,70876,1,0
48,128,71072,1,8
48,160,71170,1,0
48,192,71268,1,0
112,192,71464,5,4
112,256,71660,1,0
48,256,71856,1,8
48,288,71954,1,0
48,320,72052,1,0
112,320,72248,1,4
176,320,72444,2,8,L|288:320,1,80
384,320,73033,5,4
384,192,73425,1,4
256,192,73817,5,4
256,128,74013,1,0
256,192,74209,1,12
192,224,74405,1,0
128,192,74601,5,0
80,144,74797,1,0
144,112,74993,1,8
192,64,75189,1,0
256,32,75385,6,0,B|272:80|336:64,1,80
384,64,75778,2,0,B|416:32|464:48,1,80,8|0
432,112,76170,2,0,B|417:153|449:185,1,80,0|8
416,240,76758,6,0,L|464:288,2,40
352,240,77150,1,0
304,192,77346,1,8
256,240,77542,1,0
192,208,77738,1,0
159,263,77935,1,0
95,270,78131,1,8
49,224,78327,2,0,B|145:192|129:96,1,160
192,128,78915,1,8
256,144,79111,1,0
304,192,79307,6,0,B|352:160|416:224|464:192,2,160,0|8|4
256,240,80287,1,0
208,192,80484,2,0,B|160:160|96:224|48:192,2,160,8|0|8
256,144,81464,1,0
304,192,81660,6,0,B|400:192|400:80,1,160,4|8
304,192,82444,2,0,B|406:191|406:287,1,160,0|8
288,304,83229,5,4
256,240,83425,1,0
208,192,83621,1,12
192,160,83719,1,0
208,128,83817,1,0
256,80,84013,5,4
304,128,84209,1,0
304,192,84405,1,12
256,240,84601,1,0
208,192,84797,2,0,B|128:192|112:128|208:128,1,160,4|0
336,160,85974,5,8
256,64,86366,1,4
192,64,86562,1,4
128,64,86758,1,4
