osu file format v14

[General]
AudioFilename: audio.mp3
AudioLeadIn: 0
PreviewTime: 73064
Countdown: 0
SampleSet: Soft
StackLeniency: 0.3
Mode: 0
LetterboxInBreaks: 0
WidescreenStoryboard: 0

[Editor]
DistanceSpacing: 1.2
BeatDivisor: 4
GridSize: 4
TimelineZoom: 1

[Metadata]
Title:harmony ribbon
TitleUnicode:harmony ribbon
Artist:Minase Inori
ArtistUnicode:水瀬いのり
Creator:OniJAM
Version:Ribbon
Source:
Tags:
BeatmapID:987965
BeatmapSetID:461298

[Difficulty]
HPDrainRate:6
CircleSize:3.6
OverallDifficulty:7.2
ApproachRate:8.2
SliderMultiplier:1.8
SliderTickRate:1

[Events]
//Background and Video events
0,0,"BG.jpg",0,0
//Break Periods
2,116183,118767
2,230051,243146
//Storyboard Layer 0 (Background)
//Storyboard Layer 1 (Fail)
//Storyboard Layer 2 (Pass)
//Storyboard Layer 3 (Foreground)
//Storyboard Sound Samples

[TimingPoints]
3867,437.956204379562,4,2,1,60,1,0
3867,-133.333333333333,4,2,1,60,0,0
9122,-111.111111111111,4,2,1,70,0,0
10874,-111.111111111111,4,2,1,80,0,0
17881,-100,4,2,1,80,0,0
23137,-200,4,2,1,80,0,0
23575,-200,4,2,1,50,0,0
24888,-111.111111111111,4,2,1,60,0,0
38903,-100,4,2,1,80,0,0
52918,-111.111111111111,4,2,1,70,0,0
63429,-100,4,2,1,80,0,0
73939,-90.9090909090909,4,2,1,90,0,1
86202,-100,4,2,1,90,0,0
87954,-90.9090909090909,4,2,1,90,0,1
101969,-100,4,2,1,80,0,0
108976,-100,4,2,1,90,0,0
119487,-100,4,2,1,60,0,0
124742,-133.333333333333,4,2,1,60,0,0
129998,-133.333333333333,4,2,1,70,0,0
131750,-100,4,2,1,80,0,0
138757,-111.111111111111,4,2,1,70,0,0
149268,-100,4,2,1,80,0,0
159779,-90.9090909090909,4,2,1,90,0,1
172042,-100,4,2,1,90,0,0
173794,-90.9090909090909,4,2,1,90,0,1
187808,-100,4,2,1,80,0,0
194815,-100,4,2,1,90,0,0
201823,-100,4,2,1,80,0,0
243866,-111.111111111111,4,2,1,70,0,0
252626,-166.666666666667,4,2,1,60,0,0
257881,-111.111111111111,4,2,1,80,0,0
259633,-133.333333333333,4,2,1,70,0,0
263137,-111.111111111111,4,2,1,70,0,0
264888,-100,4,2,1,80,0,0
266640,-90.9090909090909,4,2,1,90,0,1
280655,-100,4,2,1,80,0,0
287662,-100,4,2,1,90,0,0
336713,-133.333333333333,4,2,1,80,0,0
350728,-166.666666666667,4,2,13,70,0,0
351385,-166.666666666667,4,2,14,70,0,0
351604,-166.666666666667,4,2,13,70,0,0
352042,-166.666666666667,4,2,13,20,0,0
352480,-166.666666666667,4,2,12,70,0,0
352918,-166.666666666667,4,2,14,70,0,0
353356,-166.666666666667,4,2,13,70,0,0
353794,-166.666666666667,4,2,12,70,0,0
354231,-166.666666666667,4,2,11,70,0,0
354888,-166.666666666667,4,2,21,70,0,0
355107,-166.666666666667,4,2,21,70,0,0
355545,-166.666666666667,4,2,21,20,0,0
355983,-166.666666666667,4,2,17,70,0,0
356421,-166.666666666667,4,2,21,70,0,0
356859,-166.666666666667,4,2,17,70,0,0
357297,-166.666666666667,4,2,15,70,0,0
357735,-111.111111111111,4,2,1,80,0,0
359706,-166.666666666667,4,2,1,80,0,0
363648,-166.666666666667,4,2,1,50,0,0
364742,-166.666666666667,4,2,1,40,0,0
365618,-166.666666666667,4,2,1,30,0,0
366494,-166.666666666667,4,2,1,20,0,0
367370,-166.666666666667,4,2,1,16,0,0
368246,-166.666666666667,4,2,1,12,0,0
369122,-166.666666666667,4,2,1,9,0,0
369998,-166.666666666667,4,2,1,6,0,0
370436,-166.666666666667,4,2,1,5,0,0

[Colours]
Combo1 : 128,255,192
Combo2 : 255,128,192
Combo3 : 255,255,160
Combo4 : 128,192,255

[HitObjects]
162,94,3867,6,0,P|119:92|87:69,2,67.5000025749208,2|0|0,0:0|0:0|0:0,0:0:0:0:
256,55,4523,2,0,L|393:69,1,135.000005149842,2|0,0:0|0:0,0:0:0:0:
446,154,5180,1,0,0:0:0:0:
339,204,5399,1,2,0:0:0:0:
416,293,5618,6,0,P|436:325|441:361,1,67.5000025749208,2|0,0:0|0:0,0:0:0:0:
306,285,6056,2,0,L|316:210,1,67.5000025749208,2|0,0:0|0:0,0:0:0:0:
197,218,6494,2,0,L|206:285,1,67.5000025749208,2|0,0:0|0:0,0:0:0:0:
70,353,6932,2,0,P|77:321|96:293,1,67.5000025749208,2|0,0:0|0:0,0:0:0:0:
242,293,7370,6,0,P|151:296|116:260,1,135.000005149842,2|0,0:0|0:0,0:0:0:0:
105,175,8027,1,2,0:0:0:0:
70,353,8465,1,2,0:0:0:0:
242,293,8903,1,2,0:0:0:0:
310,353,9122,5,0,0:0:0:0:
155,322,9341,2,0,L|169:242,1,80.9999975280763,0|2,1:0|0:3,0:0:0:0:
118,66,9779,1,0,0:0:0:0:
64,139,9998,2,0,L|143:153,1,80.9999975280763,0|2,1:0|0:3,0:0:0:0:
238,77,10436,2,0,P|254:36|286:8,1,80.9999975280763,2|0,0:3|0:0,0:0:0:0:
487,111,10874,6,0,P|410:130|340:93,1,161.999995056153,4|0,0:0|0:0,0:0:0:0:
340,93,11531,1,4,0:0:0:0:
136,61,11969,1,0,0:0:0:0:
112,57,12078,1,0,0:0:0:0:
88,53,12188,2,0,B|97:108|97:108|77:156|77:156|88:209,1,161.999995056153,4|0,0:0|0:0,0:0:0:0:
88,209,12845,1,4,0:0:0:0:
292,241,13283,5,0,0:0:0:0:
316,245,13392,1,0,0:0:0:0:
340,249,13502,1,2,0:0:0:0:
411,183,13721,1,2,0:3:0:0:
221,307,13939,1,2,0:0:0:0:
431,169,14158,1,2,0:3:0:0:
201,321,14377,6,0,P|130:284|53:302,1,161.999995056153,4|0,0:0|0:0,0:0:0:0:
53,302,15034,1,4,0:0:0:0:
309,333,15472,1,0,0:0:0:0:
303,309,15582,1,0,0:0:0:0:
297,285,15691,6,0,L|313:197,2,80.9999975280763,4|0|0,0:0|0:0|0:0,0:0:0:0:
393,261,16348,2,0,B|402:206|402:206|382:158|382:158|393:105,1,161.999995056153,4|2,0:0|0:3,0:0:0:0:
393,105,17005,2,0,P|358:69|345:30,1,80.9999975280763,2|2,0:0|0:3,0:0:0:0:
242,19,17443,2,0,L|160:33,1,80.9999975280763,2|2,0:0|0:3,0:0:0:0:
24,116,17881,6,0,P|103:108|163:25,1,180,4|8,0:0|0:0,0:0:0:0:
162,33,18538,1,0,0:0:0:0:
109,144,18757,2,0,P|97:190|102:262,1,90,8|0,0:0|0:0,0:0:0:0:
239,341,19195,2,0,P|205:307|140:275,1,90,8|0,0:0|0:0,0:0:0:0:
3,355,19633,6,0,P|48:342|108:302,1,90,8|2,0:0|0:0,0:0:0:0:
256,377,20071,1,8,0:0:0:0:
396,265,20290,1,2,0:0:0:0:
422,269,20399,1,2,0:0:0:0:
448,273,20509,1,8,0:0:0:0:
326,321,20728,1,2,0:0:0:0:
505,373,20947,1,8,0:0:0:0:
437,183,21166,1,2,0:0:0:0:
306,338,21385,1,4,0:0:0:0:
306,338,21823,5,8,0:0:0:0:
455,362,22042,2,0,L|446:259,1,90,0|8,0:0|0:0,0:0:0:0:
345,134,22480,2,0,L|350:186,1,45
315,246,22699,1,0,0:0:0:0:
286,268,22808,1,0,0:0:0:0:
252,280,22918,1,8,0:0:0:0:
215,279,23027,1,8,0:0:0:0:
181,265,23137,6,0,L|45:256,1,135,4|0,0:0|0:0,0:0:0:0:
28,235,24012,2,0,P|17:192|39:140,1,90
159,50,24888,5,4,0:0:0:0:
159,50,25326,2,0,L|239:54,1,80.9999975280763,0|2,0:0|0:0,0:0:0:0:
306,123,25764,2,0,L|472:114,1,161.999995056153,2|0,0:0|0:0,0:0:0:0:
433,22,26421,1,0,0:0:0:0:
389,151,26640,6,0,P|382:190|391:229,1,80.9999975280763,2|0,0:0|0:0,0:0:0:0:
433,318,27078,1,0,0:0:0:0:
344,359,27297,2,0,P|268:316|181:342,1,161.999995056153,2|0,0:0|0:0,0:0:0:0:
110,372,27954,2,0,P|101:334|123:266,1,80.9999975280763,2|0,0:0|0:0,0:0:0:0:
148,204,28392,5,2,0:0:0:0:
148,204,28830,2,0,L|229:213,1,80.9999975280763,0|2,0:0|0:0,0:0:0:0:
374,170,29268,2,0,L|293:161,1,80.9999975280763,0|2,0:0|0:0,0:0:0:0:
130,217,29706,2,0,L|211:226,1,80.9999975280763,0|2,0:0|0:0,0:0:0:0:
392,157,30144,5,0,0:0:0:0:
392,157,30582,2,0,P|409:200|408:247,1,80.9999975280763,2|0,0:0|0:0,0:0:0:0:
303,151,31020,2,0,P|406:124|444:60,2,161.999995056153,2|2|2,0:0|0:0|0:0,0:0:0:0:
221,98,32115,5,0,0:0:0:0:
139,45,32334,1,0,0:0:0:0:
135,143,32553,1,2,0:0:0:0:
135,143,32991,1,0,0:0:0:0:
251,85,33210,2,0,P|296:84|344:112,1,80.9999975280763,2|0,0:0|0:0,0:0:0:0:
105,156,33648,6,0,P|60:157|12:129,1,80.9999975280763,2|0,0:0|0:0,0:0:0:0:
82,62,34085,1,0,0:0:0:0:
175,90,34304,1,0,0:0:0:0:
198,184,34523,2,0,L|190:345,1,161.999995056153,2|0,0:0|0:0,0:0:0:0:
286,333,35180,1,2,0:0:0:0:
382,321,35399,6,0,L|386:231,1,80.9999975280763
482,227,35837,1,2,0:0:0:0:
386,214,36056,1,0,0:0:0:0:
386,214,36494,2,0,L|483:200,2,80.9999975280763,2|0|0,0:0|0:0|0:0,0:0:0:0:
312,150,37151,6,0,P|325:107|325:67,1,80.9999975280763,2|0,0:0|0:0,0:0:0:0:
186,71,37589,2,0,P|187:111|200:150,1,80.9999975280763
126,214,38027,2,0,L|29:200,2,80.9999975280763,2|0|0,0:0|0:0|0:0,0:0:0:0:
126,214,38903,6,0,P|199:149|301:177,1,180,4|0,0:0|0:0,0:0:0:0:
399,231,39560,1,2,0:0:0:0:
474,108,39779,1,0,0:0:0:0:
474,108,40217,2,0,L|379:117,1,90,10|0,0:0|0:0,0:0:0:0:
284,75,40655,5,2,0:0:0:0:
468,124,40874,1,0,0:0:0:0:
352,192,41093,1,0,0:0:0:0:
401,7,41312,1,2,0:0:0:0:
401,7,41750,2,0,L|414:102,1,90,2|8,0:0|0:0,0:0:0:0:
464,191,42188,1,2,0:0:0:0:
398,318,42407,6,0,P|301:300|236:361,1,180
71,265,43064,2,0,L|162:276,1,90,2|0,0:0|0:0,0:0:0:0:
298,247,43502,1,2,0:0:0:0:
131,178,43721,1,8,0:0:0:0:
242,347,43939,1,2,0:0:0:0:
467,284,44158,6,0,L|287:265,1,180
288,265,44815,1,2,0:0:0:0:
215,185,45034,2,0,P|199:132|199:93,1,90,0|2,0:0|0:0,0:0:0:0:
182,288,45472,2,0,P|144:328|110:347,1,90,8|2,0:0|0:0,0:0:0:0:
288,265,45910,6,0,L|468:284,1,180,4|0,0:0|0:0,0:0:0:0:
430,181,46567,1,2,0:0:0:0:
430,181,47005,2,0,L|440:296,2,90,2|8|2,0:0|0:0|0:0,0:0:0:0:
487,88,47662,6,0,L|307:69,1,180
308,69,48319,1,2,0:0:0:0:
211,118,48538,2,0,P|166:122|119:100,1,90,0|2,0:0|0:0,0:0:0:0:
44,33,48976,1,8,0:0:0:0:
160,171,49195,1,2,0:0:0:0:
308,69,49414,6,0,L|488:88,1,180
430,181,50071,1,2,0:0:0:0:
430,181,50509,2,0,L|440:296,2,90,2|8|0,0:0|0:0|0:0,0:0:0:0:
311,114,51166,6,0,L|301:-1,1,90,2|0,0:0|0:0,0:0:0:0:
203,198,51604,1,2,0:0:0:0:
84,131,51823,1,0,0:0:0:0:
82,104,51932,1,0,0:0:0:0:
80,77,52042,1,10,0:0:0:0:
209,279,52261,1,0,0:0:0:0:
44,242,52480,1,2,0:3:0:0:
245,114,52699,1,0,0:0:0:0:
47,265,52918,6,0,L|209:279,1,161.999995056153,4|0,0:0|0:0,0:0:0:0:
209,279,53575,2,0,L|203:193,1,80.9999975280763,2|10,0:0|0:0,0:0:0:0:
294,232,54012,2,0,L|300:318,2,80.9999975280763,0|2|2,0:0|0:0|0:0,0:0:0:0:
294,232,54888,5,2,0:0:0:0:
294,232,55107,1,2,0:0:0:0:
294,232,55545,2,0,L|383:240,1,80.9999975280763,8|0,0:0|0:0,0:0:0:0:
422,154,55983,2,0,L|333:146,1,80.9999975280763
260,91,56421,6,0,P|236:49|233:9,2,80.9999975280763,2|0|0,0:0|0:0|0:0,0:0:0:0:
341,146,57078,2,0,P|372:208|349:315,1,161.999995056153,2|0,0:0|0:0,0:0:0:0:
289,365,57735,1,2,0:0:0:0:
208,310,57954,2,0,P|177:248|200:141,1,161.999995056153,2|2,0:0|0:0,0:0:0:0:
260,91,58611,1,2,0:0:0:0:
189,159,58830,6,0,L|100:151,2,80.9999975280763,0|8|0,0:0|0:0|0:0,0:0:0:0:
241,241,59487,2,0,L|330:233,1,80.9999975280763
170,309,59925,5,6,0:0:0:0:
143,215,60144,1,0,0:0:0:0:
206,140,60363,1,2,0:0:0:0:
179,46,60582,1,2,0:0:0:0:
273,69,60801,1,8,0:0:0:0:
112,117,61020,1,2,0:0:0:0:
237,238,61239,1,0,0:0:0:0:
76,286,61458,1,2,0:0:0:0:
76,286,61896,6,0,L|156:293,1,80.9999975280763,2|2,0:0|0:0,0:0:0:0:
230,358,62334,1,0,0:0:0:0:
173,281,62553,2,0,P|162:247|172:197,1,80.9999975280763,8|0,0:0|0:0,0:0:0:0:
291,182,62991,2,0,P|299:143|288:105,1,80.9999975280763,2|0,0:3|0:0,0:0:0:0:
231,28,63429,5,4,0:0:0:0:
231,28,63866,2,0,L|131:19,1,90,8|0,0:0|0:0,0:0:0:0:
203,175,64304,2,0,L|303:184,1,90,8|0,0:0|0:0,0:0:0:0:
120,45,64742,1,8,0:0:0:0:
314,158,64961,1,0,0:0:0:0:
228,342,65180,5,8,0:0:0:0:
92,192,65399,1,0,0:0:0:0:
231,28,65618,1,8,0:0:0:0:
70,166,65837,1,0,0:0:0:0:
70,166,65947,1,0,0:0:0:0:
70,166,66056,2,0,L|170:175,1,90,8|0,0:0|0:0,0:0:0:0:
321,244,66494,1,8,0:0:0:0:
425,74,66713,1,0,0:0:0:0:
485,286,66932,6,0,L|385:277,1,90,8|0,0:0|0:0,0:0:0:0:
322,68,67370,1,8,0:0:0:0:
321,244,67589,1,0,0:0:0:0:
219,62,67808,1,8,0:0:0:0:
241,257,68027,1,0,0:0:0:0:
116,56,68246,1,8,0:0:0:0:
180,310,68465,1,0,0:0:0:0:
13,50,68684,6,0,L|23:142,1,90,8|0,0:0|0:0,0:0:0:0:
241,257,69122,1,8,0:0:0:0:
425,74,69341,1,0,0:0:0:0:
425,74,69450,1,0,0:0:0:0:
425,74,69560,2,0,L|435:166,1,90,8|0,0:0|0:0,0:0:0:0:
447,269,69998,1,8,0:0:0:0:
219,62,70217,1,4,0:0:0:0:
256,192,70436,12,4,72188,0:0:0:0:
256,278,73064,6,0,B|246:218|246:218|266:166|266:166|256:106,1,180,2|0,0:0|1:0,0:0:0:0:
255,103,73939,6,0,L|384:128,1,99.0000030212403,4|0,0:0|0:0,0:0:0:0:
445,47,74377,1,0,1:0:0:0:
512,190,74596,2,0,L|500:258,1,49.5000015106202,2|0,0:0|0:0,0:0:0:0:
446,313,74815,2,0,P|378:312|346:290,1,99.0000030212403,0|2,0:0|0:0,0:0:0:0:
282,200,75253,2,0,P|237:179|189:183,1,99.0000030212403,0|2,1:0|0:0,0:0:0:0:
413,232,75691,5,0,0:0:0:0:
289,83,75910,1,2,0:0:0:0:
223,265,76129,1,0,1:0:0:0:
284,55,76348,1,2,0:0:0:0:
318,248,76567,2,0,L|311:352,1,99.0000030212403,0|2,0:0|0:0,0:0:0:0:
182,170,77005,2,0,L|189:66,1,99.0000030212403,0|2,1:0|0:0,0:0:0:0:
379,38,77443,6,0,L|372:142,1,99.0000030212403,0|2,0:0|0:0,0:0:0:0:
359,312,77881,1,0,1:0:0:0:
512,350,78100,2,0,L|505:292,1,49.5000015106202,2|0,0:0|0:0,0:0:0:0:
474,212,78319,2,0,P|425:203|380:222,1,99.0000030212403,0|2,0:0|0:0,0:0:0:0:
279,361,78757,2,0,P|235:380|185:371,1,99.0000030212403,0|2,1:0|0:0,0:0:0:0:
63,252,79195,5,0,0:0:0:0:
205,20,79414,1,2,0:0:0:0:
227,290,79633,1,0,1:0:0:0:
49,85,79852,1,2,0:0:0:0:
313,145,80071,1,0,0:0:0:0:
342,137,80180,2,0,P|366:91|345:38,1,99.0000030212403,0|0,1:0|0:0,0:0:0:0:
327,34,80509,2,0,L|226:23,1,99.0000030212403,0|2,1:0|0:0,0:0:0:0:
20,92,80947,6,0,B|84:100|84:100|132:148|132:148|200:156,1,198.000006042481,4|0,0:0|1:0,0:0:0:0:
327,34,81604,1,2,0:0:0:0:
104,166,81823,2,0,L|205:177,1,99.0000030212403,0|2,0:0|0:0,0:0:0:0:
333,56,82261,2,0,L|232:45,1,99.0000030212403,0|2,1:0|0:0,0:0:0:0:
110,188,82699,6,0,P|227:194|280:134,1,198.000006042481,0|0,0:0|1:0,0:0:0:0:
392,172,83356,1,2,0:0:0:0:
293,238,83575,2,0,L|277:140,1,99.0000030212403,0|2,0:0|0:0,0:0:0:0:
490,105,84012,2,0,L|505:202,1,99.0000030212403,0|2,1:0|0:0,0:0:0:0:
417,371,84450,6,0,B|353:363|353:363|305:315|305:315|237:307,1,198.000006042481,0|0,0:0|1:0,0:0:0:0:
127,347,85107,1,2,0:0:0:0:
346,245,85326,2,0,P|229:251|176:191,1,198.000006042481,0|0,0:0|1:0,0:0:0:0:
154,80,85983,1,2,0:0:0:0:
239,307,86202,5,4,0:0:0:0:
75,233,86421,1,2,0:0:0:0:
149,69,86640,1,0,1:0:0:0:
313,143,86859,1,2,0:0:0:0:
244,318,87078,2,0,L|236:224,1,90,0|2,0:0|0:0,0:0:0:0:
310,64,87516,1,0,1:0:0:0:
474,138,87735,2,0,L|478:187,1,45,2|0,0:0|0:0,0:0:0:0:
481,216,87954,6,0,L|381:204,1,99.0000030212403,4|2,0:0|0:0,0:0:0:0:
285,135,88392,1,0,1:0:0:0:
297,283,88611,2,0,L|303:341,1,49.5000015106202,2|0,0:0|0:0,0:0:0:0:
423,309,88830,2,0,L|433:208,1,99.0000030212403,0|2,0:0|0:0,0:0:0:0:
277,279,89268,2,0,L|267:380,1,99.0000030212403,0|2,1:0|0:0,0:0:0:0:
443,314,89706,5,0,0:0:0:0:
281,207,89925,1,2,0:0:0:0:
451,185,90144,1,0,1:0:0:0:
273,336,90363,1,2,0:0:0:0:
466,204,90582,2,0,P|476:261|452:308,1,99.0000030212403,0|2,0:0|0:0,0:0:0:0:
258,317,91020,2,0,P|248:260|272:213,1,99.0000030212403,0|2,1:0|0:0,0:0:0:0:
359,153,91458,6,0,L|349:54,1,99.0000030212403,0|2,0:0|0:0,0:0:0:0:
406,235,91896,1,0,1:0:0:0:
281,207,92115,2,0,L|277:265,1,49.5000015106202,2|0,0:0|0:0,0:0:0:0:
272,356,92334,2,0,L|163:369,1,99.0000030212403,0|2,0:0|0:0,0:0:0:0:
95,197,92772,2,0,L|204:184,1,99.0000030212403,0|2,1:0|0:0,0:0:0:0:
371,252,93210,5,0,0:0:0:0:
139,132,93429,1,2,0:0:0:0:
368,213,93648,1,0,1:0:0:0:
142,171,93866,1,2,0:0:0:0:
234,305,94085,1,0,1:0:0:0:
276,79,94304,1,2,0:0:0:0:
195,308,94523,1,0,1:0:0:0:
315,76,94742,1,2,0:0:0:0:
371,252,94961,6,0,P|289:247|195:309,1,198.000006042481,4|0,0:0|1:0,0:0:0:0:
142,171,95618,1,2,0:0:0:0:
276,79,95837,2,0,L|374:94,1,99.0000030212403,0|2,0:0|0:0,0:0:0:0:
466,234,96275,2,0,L|368:219,1,99.0000030212403,0|2,1:0|0:0,0:0:0:0:
195,308,96713,6,0,P|273:251|371:252,1,198.000006042481,0|0,0:0|1:0,0:0:0:0:
474,311,97370,1,2,0:0:0:0:
274,251,97589,2,0,P|248:208|237:148,1,99.0000030212403,0|2,0:0|0:0,0:0:0:0:
440,192,98027,2,0,P|466:235|477:295,1,99.0000030212403,0|2,1:0|0:0,0:0:0:0:
225,331,98465,6,0,L|422:354,1,198.000006042481,4|0,0:0|1:0,0:0:0:0:
367,247,99122,1,2,0:0:0:0:
212,345,99341,2,0,L|409:368,1,198.000006042481,0|0,0:0|1:0,0:0:0:0:
354,261,99998,1,2,0:0:0:0:
299,154,100217,5,4,0:0:0:0:
461,206,100436,1,0,1:0:0:0:
406,99,100655,1,0,1:0:0:0:
354,261,100874,1,0,0:0:0:0:
244,47,101093,1,0,1:0:0:0:
406,99,101312,1,8,0:0:0:0:
192,209,101531,2,0,P|271:202|342:246,1,148.50000453186,2|0,0:3|0:0,0:0:0:0:
354,261,101969,6,0,L|365:380,2,90,4|0|0,0:0|0:0|0:0,0:0:0:0:
461,206,102626,2,0,B|401:196|401:196|349:216|349:216|289:206,1,180,2|0,0:0|0:0,0:0:0:0:
204,134,103283,1,2,0:0:0:0:
29,133,103502,2,0,B|89:143|89:143|141:123|141:123|201:133,1,180,2|0,0:0|0:0,0:0:0:0:
286,205,104158,6,0,P|297:262|288:302,1,90,2|0,0:0|0:0,0:0:0:0:
306,97,104596,2,0,P|349:59|388:47,1,90,10|0,0:0|0:0,0:0:0:0:
204,134,105034,2,0,P|149:114|119:87,1,90,2|0,0:0|0:0,0:0:0:0:
97,8,105472,5,2,0:0:0:0:
119,113,105691,1,0,0:0:0:0:
71,209,105910,1,2,0:0:0:0:
93,314,106129,2,0,P|185:308|271:362,1,180,2|0,0:0|0:0,0:0:0:0:
344,282,106786,1,8,0:0:0:0:
510,317,107005,2,0,P|418:323|332:269,1,180,4|0,0:0|0:0,0:0:0:0:
324,174,107662,6,0,L|306:85,1,90,2|0,0:3|0:0,0:0:0:0:
154,216,108100,2,0,L|240:244,1,90,8|0,0:0|0:0,0:0:0:0:
202,47,108538,2,0,L|133:107,1,90,0|0,1:0|0:0,0:0:0:0:
32,89,108976,6,0,L|50:178,1,90,4|0,0:0|0:0,0:0:0:0:
235,320,109414,1,0,1:0:0:0:
68,284,109633,2,0,P|146:326|235:320,1,180,2|2,0:0|0:0,0:0:0:0:
334,276,110290,1,0,1:0:0:0:
322,383,110509,1,2,0:0:0:0:
246,213,110728,5,0,0:0:0:0:
421,339,110947,1,2,0:0:0:0:
346,169,111166,2,0,L|254:181,1,90,0|2,1:0|0:0,0:0:0:0:
147,327,111604,2,0,L|55:315,1,90,0|2,0:0|0:0,0:0:0:0:
21,115,112042,1,0,1:0:0:0:
157,294,112261,1,2,0:0:0:0:
32,83,112480,6,0,P|121:94|213:43,1,180,4|2,0:0|0:3,0:0:0:0:
480,83,113137,2,0,P|391:72|299:123,1,180,4|2,0:0|0:3,0:0:0:0:
299,277,113794,6,0,L|309:375,2,90,4|0|0,1:2|0:0|0:0,0:0:0:0:
211,107,114450,2,0,L|201:9,2,90,0|0|0,1:0|0:0|0:0,0:0:0:0:
170,236,115107,2,0,L|72:246,1,90,0|0,1:0|0:0,0:0:0:0:
340,148,115545,2,0,L|438:138,1,90,0|0,1:0|0:0,0:0:0:0:
255,192,115983,1,2,0:3:0:0:
256,192,119487,12,0,122991,0:0:0:0:
386,343,123866,6,0,B|324:337|324:337|276:305|276:305|216:299,1,180,8|2,0:0|0:3,0:0:0:0:
42,195,124742,6,0,P|96:203|181:154,1,135.000005149842,4|0,0:0|0:0,0:0:0:0:
196,72,125399,1,2,0:0:0:0:
196,72,125618,1,2,0:0:0:0:
196,72,126056,2,0,L|191:157,1,67.5000025749208,2|0,0:0|0:0,0:0:0:0:
256,218,126494,5,2,0:0:0:0:
356,205,126713,1,0,0:0:0:0:
369,305,126932,1,0,0:0:0:0:
269,318,127151,2,0,P|215:310|130:359,1,135.000005149842,2|0,0:0|0:0,0:0:0:0:
53,295,127808,2,0,L|58:210,1,67.5000025749208,2|0,0:0|0:0,0:0:0:0:
60,125,128246,5,2,0:0:0:0:
60,125,128684,2,0,P|34:65|38:35,1,67.5000025749208,0|2,0:0|0:0,0:0:0:0:
148,179,129122,2,0,P|212:186|236:204,1,67.5000025749208,0|2,0:0|0:0,0:0:0:0:
57,228,129560,2,0,P|18:280|-10:292,1,67.5000025749208,0|2,0:0|0:0,0:0:0:0:
34,64,129998,5,6,0:0:0:0:
34,64,130436,2,0,B|103:69,1,67.5000025749208
192,113,130874,2,0,L|331:103,1,135.000005149842,8|2,0:0|0:3,0:0:0:0:
326,103,131750,6,0,P|374:156|368:262,1,180,4|0,0:0|0:0,0:0:0:0:
306,348,132407,2,0,L|207:359,1,90,2|0,0:0|0:0,0:0:0:0:
42,287,132845,2,0,L|141:298,1,90,2|8,0:0|0:0,0:0:0:0:
235,370,133283,2,0,L|324:360,1,90,2|0,0:0|0:0,0:0:0:0:
113,284,133721,2,0,L|14:273,1,90,2|0,0:0|0:0,0:0:0:0:
215,192,134158,5,2,0:0:0:0:
93,106,134377,2,0,L|-6:95,1,90,2|0,0:0|0:0,0:0:0:0:
234,180,134815,1,10,0:0:0:0:
94,271,135034,1,0,0:0:0:0:
253,168,135253,6,0,B|313:174|313:174|357:215|357:215|416:220,1,180,2|0,0:0|0:0,0:0:0:0:
500,152,135910,1,2,0:0:0:0:
500,152,136348,2,0,P|511:108|504:64,2,90,0|8|0,0:0|0:0|0:0,0:0:0:0:
380,216,137005,6,0,P|368:259|375:303,1,90,2|0,0:0|0:0,0:0:0:0:
493,369,137443,1,2,0:0:0:0:
380,216,137662,1,0,0:0:0:0:
353,220,137772,1,0,0:0:0:0:
326,224,137881,1,10,0:0:0:0:
216,343,138100,1,0,0:0:0:0:
69,274,138319,1,2,0:3:0:0:
88,113,138538,1,0,0:0:0:0:
247,82,138757,6,0,L|328:91,1,80.9999975280763,4|0,0:0|0:0,0:0:0:0:
424,103,139195,1,2,0:0:0:0:
424,103,139414,2,0,P|466:172|456:252,1,161.999995056153,2|0,0:0|0:0,0:0:0:0:
417,340,140071,2,0,L|336:331,1,80.9999975280763,2|2,0:0|0:0,0:0:0:0:
336,331,140728,5,2,0:0:0:0:
336,331,140947,1,2,0:0:0:0:
336,331,141385,2,0,L|327:250,1,80.9999975280763,8|0,0:0|0:0,0:0:0:0:
314,154,141823,2,0,L|305:73,1,80.9999975280763
210,49,142261,5,2,0:0:0:0:
313,65,142480,1,0,0:0:0:0:
202,41,142699,1,0,0:0:0:0:
321,57,142918,2,0,L|339:227,1,161.999995056153,2|0,0:0|0:0,0:0:0:0:
219,202,143575,1,2,0:0:0:0:
99,185,143794,2,0,L|81:15,1,161.999995056153,2|2,0:0|0:0,0:0:0:0:
82,24,144450,5,2,0:0:0:0:
145,99,144669,2,0,L|226:90,2,80.9999975280763,0|8|0,0:0|0:0|0:0,0:0:0:0:
99,185,145326,2,0,L|18:176,1,80.9999975280763
162,260,145764,5,6,0:0:0:0:
208,174,145983,1,0,0:0:0:0:
271,249,146202,1,2,0:0:0:0:
317,163,146421,1,2,0:0:0:0:
380,238,146640,1,8,0:0:0:0:
162,260,146859,1,2,0:0:0:0:
140,42,147078,1,0,0:0:0:0:
358,20,147297,1,2,0:0:0:0:
358,20,147735,6,0,P|394:35|434:31,1,80.9999975280763,2|2,0:0|0:0,0:0:0:0:
469,122,148173,1,0,0:0:0:0:
504,213,148392,2,0,L|420:208,1,80.9999975280763,8|0,0:0|0:0,0:0:0:0:
317,163,148830,2,0,L|236:158,1,80.9999975280763,2|0,0:3|0:0,0:0:0:0:
271,249,149268,1,4,0:0:0:0:
271,249,149706,6,0,L|360:253,1,90,8|0,0:0|0:0,0:0:0:0:
290,71,150144,2,0,L|201:67,1,90,8|0,0:0|0:0,0:0:0:0:
151,217,150582,1,8,0:0:0:0:
81,33,150801,1,0,0:0:0:0:
59,252,151020,5,8,0:0:0:0:
243,182,151239,1,0,0:0:0:0:
70,142,151458,1,8,0:0:0:0:
232,292,151677,1,0,0:0:0:0:
232,292,151786,1,0,0:0:0:0:
232,292,151896,2,0,L|321:295,1,90,8|0,0:0|0:0,0:0:0:0:
492,216,152334,1,8,0:0:0:0:
309,124,152553,1,0,0:0:0:0:
461,231,152772,6,0,L|372:227,1,90,8|0,0:0|0:0,0:0:0:0:
207,221,153210,1,8,0:0:0:0:
411,27,153429,1,0,0:0:0:0:
168,150,153648,1,8,0:0:0:0:
450,98,153867,1,0,0:0:0:0:
184,71,154085,1,8,0:0:0:0:
434,177,154304,1,0,0:0:0:0:
247,21,154523,6,0,P|264:67|248:120,1,90,8|0,0:0|0:0,0:0:0:0:
191,300,154961,1,8,0:0:0:0:
434,177,155180,1,0,0:0:0:0:
434,177,155290,1,0,0:0:0:0:
434,177,155399,2,8,P|390:169|348:186,1,90,8|0,0:0|0:0,0:0:0:0:
230,371,155837,1,8,0:0:0:0:
256,106,156056,1,4,0:0:0:0:
256,192,156275,12,4,158027,0:0:0:0:
256,106,158903,6,0,B|246:166|246:166|266:218|266:218|256:278,1,180,2|0,0:0|1:0,0:0:0:0:
255,280,159779,6,0,L|384:255,1,99.0000030212403,4|0,0:0|0:0,0:0:0:0:
439,180,160217,1,0,1:0:0:0:
489,327,160436,2,0,L|441:319,1,49.5000015106202,2|0,0:0|0:0,0:0:0:0:
347,230,160655,2,0,P|334:171|357:115,1,99.0000030212403,0|2,0:0|0:0,0:0:0:0:
499,10,161093,2,0,P|512:57|501:105,1,99.0000030212403,0|2,1:0|0:0,0:0:0:0:
362,253,161531,5,0,0:0:0:0:
407,60,161750,1,2,0:0:0:0:
274,268,161969,1,0,1:0:0:0:
290,42,162188,1,2,0:0:0:0:
186,283,162407,2,0,L|83:267,1,99.0000030212403,0|2,0:0|0:0,0:0:0:0:
173,24,162845,2,0,L|75:8,1,99.0000030212403,0|2,1:0|0:0,0:0:0:0:
0,131,163283,6,0,L|98:147,1,99.0000030212403,0|2,0:0|0:0,0:0:0:0:
214,170,163721,1,0,1:0:0:0:
173,24,163939,2,0,L|166:86,1,49.5000015106202,2|0,0:0|0:0,0:0:0:0:
226,187,164158,2,0,P|273:215|345:190,1,99.0000030212403,0|2,0:0|0:0,0:0:0:0:
395,84,164596,2,0,P|348:56|276:81,1,99.0000030212403,0|2,1:0|0:0,0:0:0:0:
127,117,165034,5,0,0:0:0:0:
269,349,165253,1,2,0:0:0:0:
291,79,165472,1,0,1:0:0:0:
113,284,165691,1,2,0:0:0:0:
377,224,165910,1,0,0:0:0:0:
360,249,166020,2,0,L|262:233,1,99.0000030212403,0|0,1:0|0:0,0:0:0:0:
251,205,166348,2,0,P|248:156|274:115,1,99.0000030212403,0|2,1:0|0:0,0:0:0:0:
481,41,166786,6,0,P|364:59|297:8,1,198.000006042481,4|0,0:0|1:0,0:0:0:0:
197,71,167443,1,2,0:0:0:0:
81,41,167662,2,0,L|95:150,1,99.0000030212403,0|2,0:0|0:0,0:0:0:0:
35,243,168100,2,0,L|49:352,1,99.0000030212403,0|2,1:0|0:0,0:0:0:0:
212,267,168538,6,0,P|128:219|34:242,1,198.000006042481,0|0,0:0|1:0,0:0:0:0:
93,139,169195,1,2,0:0:0:0:
212,267,169414,2,0,L|226:376,1,99.0000030212403,0|2,0:0|0:0,0:0:0:0:
270,163,169852,2,0,L|258:65,1,99.0000030212403,0|2,1:0|0:0,0:0:0:0:
389,291,170290,6,0,P|295:314|212:267,1,198.000006042481,0|0,0:0|1:0,0:0:0:0:
181,150,170947,1,2,0:0:0:0:
93,367,171166,2,0,L|290:356,1,198.000006042481,0|0,0:0|1:0,0:0:0:0:
389,291,171823,1,2,0:0:0:0:
256,76,172042,5,4,0:0:0:0:
212,267,172261,1,2,0:0:0:0:
403,311,172480,1,0,1:0:0:0:
447,120,172699,1,2,0:0:0:0:
242,56,172918,2,0,L|257:151,1,90,0|2,0:0|0:0,0:0:0:0:
290,356,173356,1,0,1:0:0:0:
85,292,173575,2,0,L|77:248,1,45,2|0,0:0|0:0,0:0:0:0:
72,215,173794,6,0,L|170:231,1,99.0000030212403,4|2,0:0|0:0,0:0:0:0:
208,349,174231,1,0,1:0:0:0:
8,321,174450,2,0,L|-1:261,1,49.5000015106202,2|0,0:0|0:0,0:0:0:0:
66,181,174669,2,0,L|50:83,1,99.0000030212403,0|2,0:0|0:0,0:0:0:0:
180,136,175107,2,0,L|196:234,1,99.0000030212403,0|2,1:0|0:0,0:0:0:0:
326,287,175545,5,0,0:0:0:0:
290,68,175764,1,2,0:0:0:0:
202,268,175983,1,0,1:0:0:0:
166,49,176202,1,2,0:0:0:0:
340,255,176421,2,0,P|345:206|325:161,1,99.0000030212403,0|2,0:0|0:0,0:0:0:0:
152,81,176859,2,0,P|146:129|166:174,1,99.0000030212403,0|2,1:0|0:0,0:0:0:0:
326,287,177297,6,0,L|439:274,1,99.0000030212403,0|2,0:0|0:0,0:0:0:0:
482,171,177735,1,0,1:0:0:0:
382,106,177954,2,0,L|328:113,1,49.5000015106202,2|0,0:0|0:0,0:0:0:0:
253,171,178173,2,0,P|233:122|244:66,1,99.0000030212403,0|2,0:0|0:0,0:0:0:0:
404,229,178611,2,0,P|424:278|413:334,1,99.0000030212403,0|2,1:0|0:0,0:0:0:0:
243,209,179049,5,0,0:0:0:0:
414,191,179268,1,2,0:0:0:0:
261,244,179487,1,0,1:0:0:0:
396,156,179706,1,2,0:0:0:0:
263,283,179925,1,0,1:0:0:0:
394,117,180144,1,2,0:0:0:0:
250,320,180363,1,0,1:0:0:0:
407,80,180582,1,2,0:0:0:0:
222,348,180801,6,0,L|24:333,1,198.000006042481,4|0,0:0|1:0,0:0:0:0:
96,237,181458,1,2,0:0:0:0:
246,366,181677,2,0,L|359:353,1,99.0000030212403,0|2,0:0|0:0,0:0:0:0:
432,274,182115,1,0,1:0:0:0:
268,162,182334,1,2,0:0:0:0:
447,77,182553,6,0,L|432:275,1,198.000006042481,0|0,0:0|1:0,0:0:0:0:
491,377,183210,1,2,0:0:0:0:
344,354,183429,2,0,L|246:366,1,99.0000030212403,0|2,0:0|0:0,0:0:0:0:
413,198,183866,2,0,L|511:186,1,99.0000030212403,0|2,1:0|0:0,0:0:0:0:
266,175,184304,6,0,P|169:173|97:239,1,198.000006042481,4|0,0:0|1:0,0:0:0:0:
140,65,184961,1,2,0:0:0:0:
288,196,185180,2,0,L|486:211,1,198.000006042481,0|0,0:0|1:0,0:0:0:0:
395,56,185837,1,2,0:0:0:0:
271,218,186056,5,4,0:0:0:0:
192,29,186275,1,0,1:0:0:0:
400,71,186494,1,0,1:0:0:0:
254,214,186713,1,0,0:0:0:0:
202,16,186932,1,0,1:0:0:0:
403,87,187151,1,8,0:0:0:0:
239,209,187370,1,2,0:3:0:0:
215,5,187589,1,0,0:0:0:0:
404,104,187808,6,0,L|500:93,2,90,4|0|0,0:0|0:0|0:0,0:0:0:0:
312,162,188465,2,0,P|235:128|143:153,1,180,2|0,0:0|0:0,0:0:0:0:
170,256,189122,1,2,0:0:0:0:
3,245,189341,2,0,P|84:279|170:256,1,180,2|0,0:0|0:0,0:0:0:0:
256,192,189998,6,0,L|266:95,1,90,2|0,0:0|0:0,0:0:0:0:
269,299,190436,2,0,L|347:356,1,90,10|0,0:0|0:0,0:0:0:0:
170,256,190874,2,0,L|81:295,1,90,2|0,0:0|0:0,0:0:0:0:
157,149,191312,5,2,0:0:0:0:
256,192,191531,1,0,0:0:0:0:
269,299,191750,1,2,0:0:0:0:
183,363,191969,2,0,B|243:353|243:353|295:373|295:373|355:363,1,180,2|0,0:0|0:0,0:0:0:0:
315,262,192626,1,8,0:0:0:0:
489,262,192845,2,0,B|426:272|426:272|374:252|374:252|314:262,1,180,4|0,0:0|0:0,0:0:0:0:
210,225,193502,6,0,P|189:186|190:142,1,90,2|0,3:0|0:0,0:0:0:0:
377,202,193939,2,0,P|353:240|315:262,1,90,8|0,0:0|0:0,0:0:0:0:
273,70,194377,2,0,P|317:71|355:93,1,90,0|0,1:0|0:0,0:0:0:0:
489,262,194815,6,0,P|444:260|406:238,1,90,4|0,0:0|0:0,0:0:0:0:
377,133,195253,1,0,1:0:0:0:
237,220,195472,2,0,P|324:203|406:238,1,180,2|2,0:0|0:0,0:0:0:0:
451,336,196129,1,0,1:0:0:0:
469,175,196348,1,2,0:0:0:0:
406,324,196567,5,0,0:0:0:0:
377,133,196786,1,2,0:0:0:0:
361,312,197005,2,0,L|263:324,1,90,0|2,1:0|0:0,0:0:0:0:
195,101,197443,2,0,L|293:89,1,90,0|2,0:0|0:0,0:0:0:0:
369,222,197881,1,0,1:0:0:0:
477,24,198100,1,2,0:0:0:0:
453,272,198319,6,0,P|373:252|268:265,1,180,4|2,0:0|0:3,0:0:0:0:
59,112,198976,2,0,P|139:132|244:119,1,180,4|2,0:0|0:3,0:0:0:0:
369,222,199633,6,0,L|360:325,2,90,4|0|0,1:2|0:0|0:0,0:0:0:0:
143,162,200290,2,0,L|152:59,2,90,0|0|0,1:0|0:0|0:0,0:0:0:0:
226,305,200947,1,0,1:0:0:0:
286,79,201166,1,8,0:0:0:0:
317,95,201275,1,8,0:0:0:0:
351,104,201385,1,0,1:0:0:0:
386,104,201494,1,8,0:0:0:0:
421,95,201604,2,0,P|406:144|413:188,1,90,8|4,0:0|0:0,0:0:0:0:
483,307,202261,6,0,P|440:329|398:325,1,90,2|0,0:0|0:0,0:0:0:0:
307,267,202699,2,0,L|161:277,2,135,2|2|2,0:0|0:0|0:0,0:0:0:0:
372,180,203575,1,2,0:0:0:0:
372,180,204012,6,0,P|415:158|457:162,1,90,2|0,0:0|0:0,0:0:0:0:
307,267,204450,2,0,P|274:224|275:129,2,135,2|2|2,0:0|0:0|0:0,0:0:0:0:
512,300,205326,6,0,L|314:287,1,180,2|0,0:0|0:0,0:0:0:0:
256,210,205983,1,2,0:0:0:0:
0,300,206202,2,0,L|198:287,1,180,2|8,0:0|0:0,0:0:0:0:
256,365,206859,1,2,0:0:0:0:
346,263,207078,6,0,P|363:218|354:173,1,90,2|0,0:0|0:0,0:0:0:0:
166,263,207516,2,0,P|149:218|158:173,1,90,2|0,0:0|0:0,0:0:0:0:
256,19,207954,1,4,0:0:0:0:
256,19,208392,2,0,L|351:30,1,90,10|0,0:0|0:0,0:0:0:0:
372,208,208830,6,0,L|282:196,1,90,4|0,0:0|0:0,0:0:0:0:
194,132,209268,2,0,P|120:126|57:215,1,180,2|0,0:0|0:0,0:0:0:0:
85,307,209925,1,0,0:0:0:0:
154,224,210144,1,8,0:0:0:0:
154,224,210582,6,0,L|138:128,1,90
34,11,211020,2,0,B|44:71|44:71|24:123|24:123|34:183,1,180,2|0,0:0|0:0,0:0:0:0:
177,236,211677,1,0,0:0:0:0:
85,307,211896,2,0,P|125:342|187:348,1,90,8|0,0:0|0:0,0:0:0:0:
267,305,212334,6,0,L|455:294,1,180,0|2,0:0|0:0,0:0:0:0:
445,294,213210,2,0,P|413:264|371:251,1,90
354,365,213648,1,8,0:0:0:0:
388,137,213866,1,0,0:0:0:0:
267,305,214085,6,0,B|176:311,1,90
90,250,214523,1,2,0:0:0:0:
287,319,214742,1,0,0:0:0:0:
70,236,214961,2,0,L|64:179,2,45,2|8|8,0:0|0:0|0:0,0:0:0:0:
90,250,215290,2,0,P|110:293|101:341,1,90,10|8,0:0|0:0,0:0:0:0:
92,355,215618,2,0,L|48:359,1,45,10|8,0:0|0:0,0:0:0:0:
200,382,215837,1,4,0:0:0:0:
200,382,216494,5,4,0:0:0:0:
104,333,216713,2,0,P|87:273|115:200,1,135,2|2,0:0|0:0,0:0:0:0:
127,189,217151,1,0,0:0:0:0:
236,105,217370,2,0,L|280:109,1,45,2|0,0:0|0:0,0:0:0:0:
128,78,217589,1,2,0:0:0:0:
305,150,217808,6,0,B|365:156|365:156|413:188|413:188|477:194,1,180,4|2,0:0|0:0,0:0:0:0:
475,194,218465,1,2,0:0:0:0:
396,267,218684,2,0,L|496:275,2,90,0|10|2,0:0|0:0|0:0,0:0:0:0:
314,339,219341,6,0,P|229:325|175:334,1,135,10|2,0:0|0:0,0:0:0:0:
160,320,219779,2,0,L|96:256,1,90,8|2,0:0|0:0,0:0:0:0:
304,307,220217,2,0,P|237:252|186:233,1,135,10|2,0:0|0:0,0:0:0:0:
180,213,220655,2,0,L|156:125,1,90,8|2,0:0|0:0,0:0:0:0:
311,274,221093,6,0,P|280:193|245:151,1,135,10|2,0:0|0:0,0:0:0:0:
250,130,221531,2,0,L|273:42,1,90,8|2,0:0|0:0,0:0:0:0:
333,248,221969,2,0,P|347:163|338:108,1,135,10|2,0:0|0:0,0:0:0:0:
352,93,222407,1,8,0:0:0:0:
228,141,222626,1,2,0:0:0:0:
131,50,222845,5,14,0:0:0:0:
131,50,223283,2,0,L|36:65,1,90,8|2,0:0|0:0,0:0:0:0:
23,198,223721,2,0,L|206:170,1,180,10|8,0:0|0:0,0:0:0:0:
321,233,224377,1,0,0:0:0:0:
222,271,224596,6,0,P|216:224|229:180,1,90,10|0,0:0|0:0,0:0:0:0:
321,233,225034,2,0,P|349:195|390:173,1,90,8|0,0:0|0:0,0:0:0:0:
400,299,225472,2,0,L|222:271,1,180,10|8,0:0|0:0,0:0:0:0:
93,186,226129,1,2,0:0:0:0:
35,328,226348,5,14,0:0:0:0:
35,328,226786,2,0,L|131:322,1,90,8|0,0:0|0:0,0:0:0:0:
321,202,227224,2,0,L|225:196,1,90,10|0,0:0|0:0,0:0:0:0:
35,76,227662,2,0,L|131:70,1,90,8|0,0:0|0:0,0:0:0:0:
394,205,228100,5,0,0:0:0:0:
175,305,228319,1,8,0:0:0:0:
198,65,228538,1,8,0:0:0:0:
313,318,228757,1,0,0:0:0:0:
336,78,228976,1,0,0:0:0:0:
118,179,229195,1,8,0:0:0:0:
153,169,229304,1,0,0:0:0:0:
189,167,229413,1,8,0:0:0:0:
224,175,229523,1,8,0:0:0:0:
256,192,229633,2,0,P|290:227|309:279,1,90,0|4,0:0|0:0,0:0:0:0:
488,174,243866,6,0,P|416:137|337:148,1,161.999995056153,4|0,0:0|0:0,0:0:0:0:
266,214,244523,1,2,0:0:0:0:
194,279,244742,2,0,L|103:272,1,80.9999975280763,8|2,0:0|0:0,0:0:0:0:
35,213,245180,2,0,P|18:169|30:121,1,80.9999975280763,0|2,0:0|0:0,0:0:0:0:
86,62,245618,5,2,0:3:0:0:
166,117,245837,2,0,L|163:158,1,40.4999987640381,2|0,0:0|0:0,0:0:0:0:
253,75,246056,1,0,0:0:0:0:
333,130,246275,1,2,0:0:0:0:
420,88,246494,2,0,B|409:251,1,161.999995056153,8|0,0:0|0:0,0:0:0:0:
322,291,247151,1,2,0:0:0:0:
235,333,247370,6,0,B|246:170,1,161.999995056153,4|0,0:0|0:0,0:0:0:0:
166,117,248027,2,0,P|156:79|160:34,2,80.9999975280763,2|8|2,0:0|0:0|0:0,0:0:0:0:
166,117,248903,2,0,L|163:158,1,40.4999987640381,10|8,0:0|0:0,0:0:0:0:
256,192,249122,12,2,252626,0:0:0:0:
95,67,253283,5,0,0:0:0:0:
95,67,253502,1,2,0:0:0:0:
104,86,254158,1,0,0:0:0:0:
104,86,254377,2,0,L|213:91,1,107.999996704102,2|0,0:0|0:0,0:0:0:0:
235,173,255253,2,0,L|127:168,1,107.999996704102,2|0,0:0|0:0,0:0:0:0:
117,187,256129,5,2,0:0:0:0:
108,206,256786,1,2,0:0:0:0:
108,206,257005,2,0,L|217:211,1,107.999996704102,2|0,0:0|0:0,0:0:0:0:
245,179,257662,2,0,P|260:148|265:110,1,53.9999983520508,2|2,0:0|3:0,0:0:0:0:
232,23,258100,6,0,P|220:102|245:179,1,161.999995056153,4|0,0:0|0:0,0:0:0:0:
319,241,258757,1,8,0:0:0:0:
202,169,258976,1,0,0:0:0:0:
362,231,259195,1,2,0:3:0:0:
362,231,259633,6,0,P|264:219|216:316,1,202.500007724762,4|0,0:0|0:0,0:0:0:0:
315,367,260509,2,0,L|305:300,1,67.5000025749208,2|0,0:0|0:0,0:0:0:0:
122,341,260947,2,0,L|131:274,1,67.5000025749208,2|0,0:0|0:0,0:0:0:0:
241,186,261385,6,0,L|233:42,1,135.000005149842,4|0,0:0|0:0,0:0:0:0:
232,32,262042,1,0,0:0:0:0:
319,136,262261,1,8,0:0:0:0:
193,248,262480,1,0,0:0:0:0:
280,352,262699,1,2,0:3:0:0:
280,352,263137,6,0,P|255:236|319:136,1,242.999992584229,4|2,0:0|0:3,0:0:0:0:
232,32,264012,2,0,P|257:148|193:248,1,242.999992584229,4|2,0:0|0:3,0:0:0:0:
173,262,264888,5,0,0:0:0:0:
339,122,265107,1,2,0:0:0:0:
140,92,265326,1,2,0:3:0:0:
372,292,265545,1,0,0:0:0:0:
153,276,265764,2,0,L|144:175,1,90,10|0,0:0|0:0,0:0:0:0:
359,108,266202,1,0,1:0:0:0:
392,306,266421,2,0,L|339:299,1,45
257,343,266640,6,0,L|248:244,1,99.0000030212403,4|0,0:0|0:0,0:0:0:0:
124,89,267078,1,0,1:0:0:0:
73,229,267297,2,0,L|126:222,1,49.5000015106202,2|0,0:0|0:0,0:0:0:0:
248,244,267516,2,0,P|200:254|147:228,1,99.0000030212403,0|2,0:0|0:0,0:0:0:0:
83,22,267954,2,0,P|131:12|183:37,1,99.0000030212403,0|2,1:0|0:0,0:0:0:0:
209,159,268392,5,0,0:0:0:0:
72,230,268611,1,2,0:0:0:0:
266,259,268830,1,0,1:0:0:0:
82,245,269049,1,2,0:0:0:0:
323,359,269268,2,0,P|275:375|211:362,1,99.0000030212403,0|2,0:0|0:0,0:0:0:0:
92,260,269706,2,0,P|139:240|204:255,1,99.0000030212403,0|2,1:0|0:0,0:0:0:0:
337,334,270144,6,0,L|435:344,1,99.0000030212403,0|2,0:0|0:0,0:0:0:0:
321,240,270582,1,0,1:0:0:0:
256,141,270801,2,0,L|305:145,1,49.5000015106202,2|0,0:0|0:0,0:0:0:0:
179,87,271020,2,0,L|80:97,1,99.0000030212403,0|2,0:0|0:0,0:0:0:0:
52,278,271458,2,0,L|151:268,1,99.0000030212403,0|2,1:0|0:0,0:0:0:0:
332,296,271896,5,0,0:0:0:0:
179,87,272115,1,2,0:0:0:0:
235,319,272334,1,0,1:0:0:0:
276,64,272553,1,2,0:0:0:0:
151,268,272772,1,0,1:0:0:0:
360,115,272991,1,2,0:0:0:0:
128,171,273210,1,0,1:0:0:0:
383,212,273429,1,2,0:0:0:0:
151,268,273648,6,0,B|213:260|213:260|264:304|264:304|332:296,1,198.000006042481,4|0,0:0|1:0,0:0:0:0:
442,339,274304,1,2,0:0:0:0:
383,212,274523,2,0,P|393:156|422:104,1,99.0000030212403,0|2,0:0|0:0,0:0:0:0:
493,255,274961,2,0,P|482:310|454:363,1,99.0000030212403,0|2,1:0|0:0,0:0:0:0:
332,296,275399,6,0,B|264:304|264:304|213:260|213:260|151:268,1,198.000006042481,0|0,0:0|1:0,0:0:0:0:
40,225,276055,1,2,0:0:0:0:
87,360,276275,2,0,L|197:345,1,99.0000030212403,0|2,0:0|0:0,0:0:0:0:
396,203,276713,2,0,L|286:218,1,99.0000030212403,0|2,1:0|0:0,0:0:0:0:
108,145,277151,6,0,P|187:201|283:193,1,198.000006042481,4|0,0:0|1:0,0:0:0:0:
400,175,277808,1,2,0:0:0:0:
505,332,278027,2,0,P|426:276|330:284,1,198.000006042481,0|0,0:0|1:0,0:0:0:0:
213,302,278684,1,2,0:0:0:0:
373,173,278903,5,4,0:0:0:0:
181,99,279122,1,0,1:0:0:0:
330,284,279341,1,0,1:0:0:0:
298,81,279560,1,0,0:0:0:0:
138,210,279779,1,0,1:0:0:0:
373,173,279998,1,8,0:0:0:0:
213,302,280217,2,0,L|65:296,1,148.50000453186,2|0,0:3|0:0,0:0:0:0:
42,268,280655,6,0,P|26:215|30:182,2,90,4|0|0,0:0|0:0|0:0,0:0:0:0:
108,354,281312,2,0,B|168:344|168:344|220:364|220:364|280:354,1,180,2|0,0:0|0:0,0:0:0:0:
312,249,281969,1,2,0:0:0:0:
479,269,282188,2,0,P|398:232|311:249,1,180,2|0,0:0|0:0,0:0:0:0:
282,353,282845,6,0,L|383:338,1,90,2|0,0:0|0:0,0:0:0:0:
235,171,283283,2,0,P|208:207|204:251,1,90,10|0,0:0|0:0,0:0:0:0:
416,221,283721,2,0,P|398:180|362:154,1,90,2|0,0:0|0:0,0:0:0:0:
235,171,284158,5,2,0:0:0:0:
111,136,284377,1,0,0:0:0:0:
13,53,284596,1,2,0:0:0:0:
68,151,284815,2,0,P|154:134|235:171,1,180,2|0,0:0|0:0,0:0:0:0:
337,136,285472,1,8,0:0:0:0:
512,137,285691,2,0,B|452:127|452:127|400:147|400:147|337:136,1,180,4|0,0:0|0:0,0:0:0:0:
280,44,286348,6,0,P|320:25|365:31,1,90,2|0,0:3|0:0,0:0:0:0:
286,233,286786,2,0,L|231:163,1,90,8|0,0:0|0:0,0:0:0:0:
445,130,287224,2,0,L|412:214,1,90,0|0,1:0|0:0,0:0:0:0:
470,305,287662,6,0,L|380:318,1,90,4|0,0:0|0:0,0:0:0:0:
286,233,288100,1,0,1:0:0:0:
201,371,288319,2,0,P|123:331|32:358,1,180,2|2,0:0|0:0,0:0:0:0:
135,248,288976,1,0,1:0:0:0:
27,332,289195,1,2,0:0:0:0:
69,125,289414,5,0,0:0:0:0:
16,310,289633,1,2,0:0:0:0:
201,371,289852,2,0,L|293:362,1,90,0|2,1:0|0:0,0:0:0:0:
135,248,290290,2,0,L|43:257,1,90,0|2,0:0|0:0,0:0:0:0:
258,182,290728,1,0,1:0:0:0:
324,305,290947,1,2,0:0:0:0:
435,212,291166,6,0,L|258:182,1,180,4|2,0:0|0:3,0:0:0:0:
90,195,291823,2,0,P|172:161|258:182,1,180,4|2,0:0|0:3,0:0:0:0:
258,356,292480,2,0,B|248:296|248:296|268:244|268:244|258:182,1,180,4|0,1:2|0:0,0:0:0:0:
236,38,293137,5,0,1:0:0:0:
122,158,293356,1,0,1:0:0:0:
140,189,293465,2,0,L|228:204,1,90,0|0,1:0|1:0,0:0:0:0:
258,182,293794,1,0,1:0:0:0:
396,220,294012,1,0,1:0:0:0:
431,216,294121,1,0,1:0:0:0:
465,225,294231,1,0,1:0:0:0:
494,246,294340,1,0,1:0:0:0:
512,276,294450,2,0,L|505:366,1,90,0|4,1:0|0:0,0:0:0:0:
505,366,295107,6,0,L|512:276,1,90,0|0,1:0|0:0,0:0:0:0:
422,344,295545,2,0,L|429:254,1,90
256,300,295983,1,0,1:0:0:0:
339,322,296202,2,0,L|346:232,1,90
7,366,296859,6,0,L|0:276,1,90,0|0,1:0|0:0,0:0:0:0:
90,344,297297,2,0,L|83:254,1,90
256,300,297735,1,0,1:0:0:0:
173,322,297954,2,0,L|166:232,1,90
505,18,298611,6,0,L|512:108,1,90,0|0,1:0|0:0,0:0:0:0:
422,40,299049,2,0,L|429:130,1,90
256,84,299487,1,0,1:0:0:0:
339,62,299706,2,0,L|346:152,1,90
7,18,300363,6,0,L|0:108,1,90,0|0,1:0|0:0,0:0:0:0:
90,40,300801,2,0,L|83:130,1,90,0|0,1:0|0:0,0:0:0:0:
256,84,301239,1,0,1:0:0:0:
173,62,301458,2,0,L|166:152,1,90,0|4,0:0|0:0,0:0:0:0:
256,300,302115,6,0,P|353:319|423:256,1,180,0|0,1:0|0:0,0:0:0:0:
465,178,302772,1,0,0:0:0:0:
472,324,302991,2,0,P|449:325|427:322,1,45,0|0,1:0|0:0,0:0:0:0:
355,376,303210,2,0,P|332:372|310:373,1,45
256,300,303429,6,0,P|353:319|423:256,1,180,0|0,0:0|1:0,0:0:0:0:
465,178,304085,1,0,0:0:0:0:
472,325,304304,2,0,P|427:322|387:302,1,90
322,214,304742,2,0,P|283:194|238:192,1,90,0|0,1:0|0:0,0:0:0:0:
244,339,305180,1,4,0:0:0:0:
244,339,305618,6,0,L|154:331,1,90,0|0,1:0|0:0,0:0:0:0:
124,153,306056,2,0,L|213:160,1,90
338,302,306494,2,0,L|428:310,1,90,0|0,1:0|0:0,0:0:0:0:
397,131,306932,2,0,L|308:124,1,90,4|0,0:0|0:0,0:0:0:0:
139,242,307370,1,0,1:0:0:0:
139,242,307808,5,2,0:3:0:0:
323,213,308027,1,8,0:0:0:0:
124,153,308246,1,0,1:0:0:0:
493,351,308684,1,4,0:0:0:0:
493,351,309122,6,0,P|511:311|512:266,1,90,0|0,1:0|0:0,0:0:0:0:
427,291,309560,2,0,P|419:237|389:196,1,90
256,300,309998,1,0,1:0:0:0:
340,273,310217,2,0,P|306:231|260:210,1,90
19,351,310874,6,0,P|1:311|0:266,1,90,0|0,1:0|0:0,0:0:0:0:
85,291,311312,2,0,P|93:237|123:196,1,90
256,300,311750,1,0,1:0:0:0:
172,273,311969,2,0,P|206:231|252:210,1,90
493,33,312626,6,0,P|511:73|512:118,1,90,0|0,1:0|0:0,0:0:0:0:
427,93,313064,2,0,P|419:147|389:188,1,90
256,84,313502,1,0,1:0:0:0:
340,111,313721,2,0,P|306:153|260:174,1,90
19,33,314377,6,0,P|1:73|0:118,1,90,0|0,1:0|0:0,0:0:0:0:
85,93,314815,2,0,P|93:147|123:188,1,90,0|0,1:0|0:0,0:0:0:0:
256,84,315253,1,0,1:0:0:0:
172,111,315472,2,0,P|206:153|252:174,1,90,0|4,0:0|0:0,0:0:0:0:
256,300,316129,6,0,L|347:291,1,90,0|0,1:0|0:0,0:0:0:0:
292,198,316567,2,0,L|383:189,1,90
471,181,317005,1,0,1:0:0:0:
435,284,317224,1,0,0:0:0:0:
328,96,317443,6,0,L|510:78,1,180,0|0,0:0|1:0,0:0:0:0:
471,181,318100,1,0,0:0:0:0:
435,284,318319,1,0,0:0:0:0:
426,305,318429,2,0,L|336:314,1,90,0|0,1:0|0:0,0:0:0:0:
322,296,318757,2,0,L|232:305,1,90,0|0,1:0|0:0,0:0:0:0:
130,267,319195,1,4,0:0:0:0:
130,267,319633,6,0,P|82:272|40:260,1,90,0|0,1:0|0:0,0:0:0:0:
215,197,320071,2,0,P|234:152|266:122,1,90
233,305,320509,2,0,P|261:344|271:386,1,90,0|0,1:0|0:0,0:0:0:0:
112,159,320947,1,4,0:0:0:0:
371,122,321385,5,0,1:0:0:0:
298,245,321604,1,0,1:0:0:0:
421,318,321823,1,8,0:0:0:0:
396,220,322042,1,0,1:0:0:0:
431,216,322151,1,0,1:0:0:0:
465,225,322261,1,8,0:0:0:0:
494,246,322370,1,0,1:0:0:0:
512,276,322480,2,0,L|505:366,1,90,0|4,1:0|0:0,0:0:0:0:
505,366,323137,6,0,L|512:276,1,90,0|0,1:0|0:0,0:0:0:0:
426,332,323575,2,0,L|418:242,1,90
256,300,324012,1,0,1:0:0:0:
342,310,324231,2,0,L|320:222,1,90
7,366,324888,6,0,L|0:276,1,90,0|0,1:0|0:0,0:0:0:0:
86,332,325326,2,0,L|94:242,1,90
256,300,325763,1,0,1:0:0:0:
170,310,325983,2,0,L|192:222,1,90
505,18,326640,6,0,L|512:108,1,90,0|0,1:0|0:0,0:0:0:0:
426,52,327078,2,0,L|418:142,1,90
256,84,327515,1,0,1:0:0:0:
342,74,327735,2,0,L|320:162,1,90
7,18,328392,6,0,L|0:108,1,90,0|0,1:0|0:0,0:0:0:0:
86,52,328830,2,0,L|94:142,1,90,0|0,1:0|0:0,0:0:0:0:
256,84,329267,1,0,1:0:0:0:
170,74,329487,2,0,L|192:162,1,90,0|4,0:0|0:0,0:0:0:0:
256,300,330144,6,0,P|300:305|340:324,1,90,0|0,1:0|0:0,0:0:0:0:
512,273,330582,2,0,P|468:268|428:249,1,90
291,261,331020,1,0,1:0:0:0:
477,312,331239,1,0,0:0:0:0:
333,180,331458,6,0,P|377:175|417:156,1,90
291,261,331896,2,0,P|309:302|340:334,1,90,0|0,1:0|0:0,0:0:0:0:
186,156,332334,2,0,P|148:133|103:125,1,90
200,246,332772,2,0,P|167:276|146:316,1,90,0|0,1:0|0:0,0:0:0:0:
268,115,333210,6,0,P|277:71|271:26,2,90,4|0|0,0:0|0:0|1:0,0:0:0:0:
200,246,333866,1,0,0:0:0:0:
333,180,334085,1,0,0:0:0:0:
186,156,334304,1,0,0:0:0:0:
291,261,334523,1,0,1:0:0:0:
291,261,334961,5,4,0:0:0:0:
333,180,335180,1,0,1:0:0:0:
398,245,335399,1,0,1:0:0:0:
356,326,335618,1,0,0:0:0:0:
200,246,335837,1,0,1:0:0:0:
186,156,336056,1,8,0:0:0:0:
104,197,336275,1,2,3:0:0:0:
118,287,336494,1,0,0:0:0:0:
268,115,336713,1,4,0:0:0:0:
268,115,337151,6,0,P|322:128|407:96,1,135.000005149842,0|8,0:0|0:0,0:0:0:0:
454,256,338027,2,0,L|446:339,1,67.5000025749208
376,364,338465,1,0,0:0:0:0:
244,269,338903,6,0,P|190:256|105:288,1,135.000005149842,0|8,0:0|0:0,0:0:0:0:
58,128,339779,2,0,L|66:45,1,67.5000025749208
136,20,340217,1,0,0:0:0:0:
268,115,340655,6,0,L|402:127,1,135.000005149842,0|8,0:0|0:0,0:0:0:0:
478,271,341531,2,0,P|436:279|411:305,1,67.5000025749208
376,364,341969,1,4,0:0:0:0:
244,269,342407,6,0,L|109:256,1,135.000005149842,0|8,0:0|0:0,0:0:0:0:
34,113,343283,2,0,L|39:58,2,45.0000017166138,8|8|8,0:0|0:0|0:0,0:0:0:0:
47,146,343721,6,0,P|121:175|238:125,1,202.500007724762,4|0,0:0|0:0,0:0:0:0:
278,67,344596,2,0,P|310:55|343:56,1,67.5000025749208,10|0,0:0|0:0,0:0:0:0:
324,135,345034,2,0,P|357:137|388:125,1,67.5000025749208,2|0,0:0|0:0,0:0:0:0:
469,140,345472,6,0,P|494:226|423:320,1,202.500007724762,2|0,0:0|0:0,0:0:0:0:
354,298,346348,2,0,P|329:212|400:118,1,202.500007724762,10|0,0:0|0:0,0:0:0:0:
342,55,347224,6,0,L|205:67,1,135.000005149842,2|0,0:0|0:0,0:0:0:0:
48,33,348100,2,0,P|60:64|59:97,1,67.5000025749208,2|0,1:2|0:0,0:0:0:0:
17,167,348538,2,0,L|19:200,1,33.7500012874604,2|2,0:3|0:3,0:0:0:0:
79,255,348757,2,0,L|77:288,1,33.7500012874604,2|2,0:3|0:3,0:0:0:0:
17,343,348976,5,0,1:0:0:0:
144,326,349195,1,0,0:0:0:0:
127,199,349414,1,0,1:0:0:0:
0,216,349633,1,0,0:0:0:0:
144,326,349852,2,0,L|245:332,2,101.250003862381,2|2|2,0:3|0:3|0:3,0:0:0:0:
72,271,350728,5,6,0:0:0:0:
59,289,351385,1,2,0:0:0:0:
59,289,351604,2,0,L|166:295,1,107.999996704102,2|0,0:0|0:0,0:0:0:0:
179,312,352480,5,2,0:0:0:0:
228,240,352918,1,2,0:0:0:0:
307,205,353356,1,2,0:0:0:0:
392,218,353794,1,2,0:0:0:0:
456,275,354231,5,2,0:0:0:0:
469,292,354888,1,2,0:0:0:0:
469,292,355107,2,0,L|362:286,1,107.999996704102,2|0,0:0|0:0,0:0:0:0:
349,303,355983,5,2,0:0:0:0:
277,254,356421,1,2,0:0:0:0:
242,175,356859,1,2,0:0:0:0:
255,90,357297,1,2,0:0:0:0:
312,26,357735,6,0,L|392:30,2,80.9999975280763,4|0|8,0:0|0:0|0:0,0:0:0:0:
255,90,358392,1,4,0:0:0:0:
141,218,358830,1,8,0:0:0:0:
84,282,359049,2,0,L|3:277,2,80.9999975280763,4|0|8,0:0|0:0|0:0,0:0:0:0:
193,289,359706,6,0,B|161:300|134:313|127:340|156:351|184:346|216:338|225:311|225:271|225:271|225:110|225:110|440:89|440:89|440:250|440:250|440:290|431:317|399:325|371:330|342:319|349:292|376:279|408:268,1,918,4|4,0:0|0:0,0:0:0:0:
256,192,363648,12,0,370436,0:0:0:0:
