osu file format v12

[General]
AudioFilename: radiant.mp3
AudioLeadIn: 1500
PreviewTime: 183
Countdown: 0
SampleSet: Soft
StackLeniency: 0.7
Mode: 0
LetterboxInBreaks: 0
WidescreenStoryboard: 1

[Editor]
DistanceSpacing: 0.8
BeatDivisor: 4
GridSize: 8
TimelineZoom: 1.7

[Metadata]
Title:RADIANT TREASURE
TitleUnicode:RADIANT TREASURE
Artist:Minamotoya feat. Yuka Saeki
ArtistUnicode:源屋 feat. 佐伯 佑佳
Creator:Rue
Version:Normal
Source:Touhou
Tags:ALiCE'S EMOTiON Shou Toramaru The Tiger-Patterned Bishamonten Intervention 東方星蓮船 ~ Undefined Fantastic Object 虎柄の毘沙門天
BeatmapID:430346
BeatmapSetID:91090

[Difficulty]
HPDrainRate:3
CircleSize:3
OverallDifficulty:3
ApproachRate:4
SliderMultiplier:1.1
SliderTickRate:1

[Events]
//Background and Video events
0,0,"bg.jpg",0,0
//Break Periods
2,99938,112640
2,171049,176640
2,199494,205085
//Storyboard Layer 0 (Background)
//Storyboard Layer 1 (Fail)
//Storyboard Layer 2 (Pass)
//Storyboard Layer 3 (Foreground)
//Storyboard Sound Samples
//Background Colour Transformations
3,100,0,0,0

[TimingPoints]
183,444.444444444444,4,2,1,20,1,0
405,-100,4,2,1,30,0,0
14405,-100,4,2,1,45,0,0
28627,-100,4,2,1,60,0,1
35627,-100,4,2,1,60,0,0
35738,-100,4,2,1,60,0,1
42849,-100,4,2,1,60,0,0
42960,-100,4,2,1,40,0,0
55071,-100,4,2,1,45,0,0
55627,-100,4,2,1,50,0,0
56182,-100,4,2,1,55,0,0
57405,-100,4,2,1,35,0,0
69516,-100,4,2,1,55,0,0
71294,-100,4,2,1,55,0,0
113849,-100,4,2,1,40,0,0
120405,-100,4,2,1,20,0,0
120738,-100,4,2,1,30,0,0
121071,-100,4,2,1,40,0,0
127294,-100,4,2,1,30,0,0
128182,-100,4,2,1,40,0,0
141294,-100,4,2,1,50,0,0
142405,-100,4,2,1,60,0,0
155516,-100,4,2,1,45,0,0
156627,-100,4,2,1,60,0,0
170849,-100,4,2,1,40,0,0
177516,-100,4,2,1,25,0,0
185071,-100,4,2,1,55,0,0
197738,-100,4,2,1,40,0,0
213516,-100,4,2,1,40,0,1
229405,-100,4,2,1,40,0,0
229516,-100,4,2,1,40,0,1
229627,-100,4,2,1,40,0,0

[Colours]
Combo1 : 255,255,255
Combo2 : 173,255,95
Combo3 : 255,88,100
Combo4 : 255,94,55
Combo5 : 17,254,176

[HitObjects]
16,256,183,6,0,P|64:328|200:336,1,220,0|4,1:0|0:0,0:0:0:0:
352,272,1960,2,0,P|304:200|176:200,1,220,0|4,1:0|0:0,0:0:0:0:
88,48,3738,6,0,P|192:104|288:80,2,220,0|4|0,1:0|0:0|1:0,0:0:0:0:
160,208,6405,1,4,0:0:0:0:
256,352,7294,2,0,P|320:336|472:296,2,220,0|4|0,1:0|0:0|1:0,0:0:0:0:
192,184,9960,1,4,0:0:0:0:
64,56,10849,6,0,P|64:112|88:288,1,220,0|0,1:0|1:0,0:0:0:0:
112,360,12182,1,2,0:0:0:0:
256,192,12627,12,4,14405,1:0:0:0:
32,88,15294,6,0,P|112:48|248:64,1,220,8|4,0:0|1:0,0:0:0:0:
280,136,16627,1,2,0:0:0:0:
200,176,17071,2,0,P|192:256|304:344,1,220,8|4,1:2|1:0,0:0:0:0:
440,256,18849,2,0,P|415:169|400:40,2,220,8|4|8,0:0|1:0|0:0,0:0:0:0:
224,128,21516,22,0,P|336:104|448:112,2,220,4|8|4,1:0|0:0|1:0,0:0:0:0:
160,64,23738,1,2,0:0:0:0:
136,152,24182,2,0,B|160:256|96:208|88:344|144:376,1,220,8|4,0:0|1:0,0:0:0:0:
200,304,25516,1,2,0:0:0:0:
288,312,25960,2,0,P|384:336|456:248,1,220,8|4,0:0|1:0,0:0:0:0:
256,192,27294,12,4,28627,1:0:0:0:
88,160,29071,6,0,P|72:104|80:24,2,110,2|0|2,1:2|1:0|1:2,0:0:0:0:
176,136,30405,1,4,1:0:0:0:
264,120,30849,2,0,P|280:176|272:256,2,110,2|0|4,1:2|1:0|1:0,0:0:0:0:
192,64,32182,22,0,P|152:64|64:88,1,110,4|2,1:0|1:2,0:0:0:0:
136,152,33071,2,0,P|144:216|144:280,1,110,0|2,1:0|1:2,0:0:0:0:
232,248,33960,2,0,P|285:234|340:232,1,110,4|2,1:0|1:2,0:0:0:0:
312,152,34849,2,0,P|304:88|304:24,1,110,0|2,1:0|1:2,0:0:0:0:
384,80,35738,22,0,P|456:96|536:88,2,110,4|2|0,1:0|1:2|1:0,0:0:0:0:
320,144,37071,1,2,1:2:0:0:
240,184,37516,2,0,P|168:168|88:176,2,110,4|2|0,1:0|1:2|1:0,0:0:0:0:
280,264,38849,1,2,1:2:0:0:
192,264,39294,6,0,P|185:318|202:370,1,110,4|2,1:0|1:2,0:0:0:0:
272,312,40182,2,0,P|278:257|261:205,1,110,0|2,1:0|1:2,0:0:0:0:
256,192,41071,12,4,42849,1:0:0:0:
96,64,43294,5,2,1:2:0:0:
120,152,43738,2,0,P|192:160|352:168,2,220,8|4|8,0:0|1:0|2:0,0:0:0:0:
96,64,45960,1,2,0:0:0:0:
184,80,46405,2,0,P|205:165|192:304,2,220,4|8|4,1:0|0:0|1:0,0:0:0:0:
96,80,48627,6,0,L|32:96,1,55,0|6,1:0|0:0,0:0:0:0:
40,136,49071,2,0,P|27:244|50:351,1,220,6|4,1:2|1:0,0:0:0:0:
136,320,50405,21,2,0:2:0:0:
200,256,50849,2,0,P|296:224|424:232,2,220,8|4|8,0:0|1:0|0:0,0:0:0:0:
136,320,53071,1,2,0:0:0:0:
120,232,53516,2,0,P|88:144|0:48,2,220,4|8|4,1:0|0:2|1:0,0:0:0:0:
200,200,55738,2,0,P|216:272|216:328,2,110,4|4|4,1:2|1:0|1:2,0:0:0:0:
288,216,57071,6,0,P|352:232|392:208,1,110,4|8,1:0|1:2,0:0:0:0:
328,136,57960,2,0,P|336:80|312:32,1,110,0|8,1:0|1:2,0:0:0:0:
248,96,58849,2,0,P|201:99|136:112,2,110,4|12|0,1:0|0:0|1:0,0:0:0:0:
256,184,60182,1,12,1:2:0:0:
328,136,60627,6,0,P|352:232|360:360,1,220,4|0,1:0|1:0,0:0:0:0:
280,320,61960,2,0,L|200:336|160:344,2,110,8|4|8,1:2|1:0|1:2,0:0:0:0:
328,248,63294,2,0,L|408:232|448:224,1,110,0|8,1:0|1:2,0:0:0:0:
400,144,64182,6,0,L|384:64|376:24,2,110,4|8|0,1:0|1:2|1:0,0:0:0:0:
336,208,65516,1,8,1:2:0:0:
272,272,65960,2,0,L|288:352|296:392,2,110,4|8|0,1:0|1:2|1:0,0:0:0:0:
200,216,67294,1,4,1:2:0:0:
128,168,67738,21,4,1:0:0:0:
256,192,68182,12,4,70849,0:0:0:0:
24,32,71294,6,0,B|88:152|208:104,1,220,4|0,1:0|1:0,0:0:0:0:
288,64,72627,1,4,1:2:0:0:
288,160,73071,2,0,B|416:96|480:232,1,220,4|0,1:0|1:0,0:0:0:0:
472,304,74405,1,4,1:2:0:0:
384,328,74849,6,0,P|312:344|256:360,1,110,4|2,1:0|1:2,0:0:0:0:
248,272,75738,2,0,P|233:218|222:165,1,110,0|2,1:0|1:2,0:0:0:0:
192,80,76627,2,0,P|120:96|64:112,2,110,4|4|0,1:0|1:2|1:0,0:0:0:0:
280,56,77960,1,4,1:2:0:0:
368,40,78405,6,0,P|416:120|408:264,1,220,4|0,1:0|1:0,0:0:0:0:
336,288,79738,2,0,P|328:248|344:176,2,110,2|4|2,1:2|1:0|1:2,0:0:0:0:
248,264,81071,2,0,P|184:280|128:296,1,110,0|2,1:0|1:2,0:0:0:0:
112,208,81960,22,0,P|104:152|96:88,1,110,4|4,1:0|1:2,0:0:0:0:
184,24,82849,6,0,P|192:80|200:144,1,110,0|4,1:0|1:2,0:0:0:0:
304,192,83738,6,0,P|297:137|289:82,1,110,4|4,1:0|1:2,0:0:0:0:
384,24,84627,6,0,P|390:78|398:133,1,110,0|4,1:0|1:2,0:0:0:0:
408,224,85516,22,0,P|304:216|232:312,1,220,4|0,1:0|1:0,0:0:0:0:
168,360,86849,1,2,1:2:0:0:
88,328,87294,2,0,P|96:208|64:104,1,220,4|0,1:0|1:0,0:0:0:0:
88,24,88627,1,4,1:2:0:0:
176,56,89071,6,0,P|280:64|416:80,2,220,4|2|4,1:0|1:2|1:0,0:0:0:0:
200,144,91294,1,2,1:2:0:0:
232,224,91738,1,0,1:2:0:0:
272,304,92182,1,6,1:2:0:0:
232,224,92627,6,0,P|128:240|32:328,2,220,4|6|4,1:0|1:2|1:0,0:0:0:0:
312,264,94849,2,0,P|368:288|424:280,2,110,2|0|2,1:2|1:0|1:2,0:0:0:0:
320,176,96182,6,0,P|304:72|192:16,2,220,4|6|4,1:0|1:2|1:0,0:0:0:0:
256,192,98182,12,4,99738,1:0:0:0:
80,64,113960,21,4,1:0:0:0:
136,136,114405,1,2,0:0:0:0:
192,208,114849,2,0,P|272:112|240:16,1,220,8|4,0:0|1:0,0:0:0:0:
160,40,116182,1,2,0:0:0:0:
80,64,116627,6,0,P|0:160|32:256,2,220,8|4|8,0:0|1:0|0:2,0:0:0:0:
264,80,119294,2,0,L|496:112,2,220,4|4|4,1:0|0:0|1:0,0:0:0:0:
176,56,121516,6,0,P|144:80|128:104,1,55,2|0,0:0|0:0,0:0:0:0:
160,128,121960,2,0,P|160:200|152:368,1,220,8|4,0:0|1:0,0:0:0:0:
240,328,123294,1,2,0:0:0:0:
320,288,123738,2,0,P|321:251|328:168,1,110,8|4,0:0|0:0,0:0:0:0:
264,120,124627,6,0,P|368:152|424:64,2,220,4|8|4,1:0|0:0|1:0,0:0:0:0:
208,192,126849,1,2,1:2:0:0:
176,112,127294,2,0,P|72:80|16:168,1,220,4|4,0:0|1:0,0:0:0:0:
72,232,128627,22,0,P|48:248|16:264,2,55,8|2|0,1:2|0:0|1:2,0:0:0:0:
200,232,129516,2,0,P|224:216|256:200,2,55,8|2|4,1:2|0:0|1:0,0:0:0:0:
360,184,130405,2,0,P|344:160|328:128,2,55,8|2|0,1:2|0:0|1:0,0:0:0:0:
464,112,131294,1,6,1:2:0:0:
360,56,131738,6,0,P|288:64|248:96,1,110,4|8,1:0|1:2,0:0:0:0:
176,56,132627,2,0,P|168:128|176:176,2,110,0|12|4,1:0|0:0|1:0,0:0:0:0:
88,88,133960,2,0,P|48:80|24:16,2,110,8|0|4,1:2|1:0|0:0,0:0:0:0:
88,176,135294,6,0,P|72:216|160:368,1,220,4|0,1:0|1:0,0:0:0:0:
192,288,136627,2,0,P|200:248|176:168,2,110,8|4|12,1:2|1:0|0:0,0:0:0:0:
248,352,137960,2,0,P|304:336|360:336,1,110,0|12,1:0|1:2,0:0:0:0:
392,256,138849,6,0,P|456:272|512:240,2,110,4|12|0,1:0|1:2|1:0,0:0:0:0:
304,256,140182,2,0,P|248:240|184:264,1,110,12|4,1:2|1:0,0:0:0:0:
256,192,140849,12,4,141960,1:2:0:0:
64,40,142405,22,0,P|24:120|48:248,1,220,4|0,1:0|1:0,0:0:0:0:
112,184,143738,1,2,1:2:0:0:
184,128,144182,2,0,P|256:144|304:272,1,220,4|0,1:0|1:0,0:0:0:0:
224,312,145516,1,2,1:2:0:0:
216,224,145960,6,0,P|320:216|440:216,2,220,4|4|4,1:0|1:2|1:0,0:0:0:0:
136,264,148182,2,0,P|128:312|80:352,2,110,2|0|2,1:2|1:0|1:2,0:0:0:0:
136,176,149516,2,0,P|80:152|40:8,2,220,4|0|4,1:0|1:2|1:0,0:0:0:0:
224,192,151738,1,2,1:2:0:0:
312,208,152182,1,0,1:2:0:0:
400,232,152627,1,2,1:2:0:0:
312,208,153071,6,0,P|304:136|432:88,1,220,4|0,1:0|1:0,0:0:0:0:
496,136,154405,2,0,P|448:176|383:157,2,110,2|4|6,1:2|1:0|1:2,0:0:0:0:
448,256,155738,2,0,P|488:296|496:360,1,110,4|4,1:0|1:2,0:0:0:0:
416,336,156627,6,0,P|312:320|192:352,1,220,4|0,1:0|1:0,0:0:0:0:
128,296,157960,1,2,1:2:0:0:
120,208,158405,2,0,P|224:224|344:192,1,220,4|0,1:0|1:0,0:0:0:0:
344,112,159738,1,2,1:2:0:0:
256,88,160182,22,0,P|256:216|272:312,2,220,4|4|4,1:0|1:2|1:0,0:0:0:0:
168,104,162405,2,0,B|112:112|112:112|40:120,2,110,2|0|2,1:2|1:0|1:2,0:0:0:0:
192,192,163738,6,0,P|312:176|424:176,2,220,4|6|4,1:0|1:2|1:0,0:0:0:0:
120,240,165960,2,0,P|96:296|120:344,1,110,2|0,1:2|1:0,0:0:0:0:
200,312,166849,1,6,1:2:0:0:
208,224,167294,22,0,P|176:168|40:192,2,220,4|6|4,1:0|1:2|1:0,0:0:0:0:
256,192,169294,12,4,170849,1:0:0:0:
88,192,177960,6,0,P|96:88|208:64,1,220,4|0,1:2|1:0,0:0:0:0:
280,88,179294,1,4,0:0:0:0:
216,152,179738,6,0,P|208:256|224:376,1,220,4|0,0:0|1:0,0:0:0:0:
304,336,181071,1,4,0:0:0:0:
296,248,181516,6,0,P|200:256|72:288,1,220,4|0,0:0|1:0,0:0:0:0:
64,200,182849,1,4,0:0:0:0:
256,192,183071,12,4,185071,1:0:0:0:
160,160,185516,6,0,P|104:120|88:72,2,110,2|0|2,1:2|1:0|1:2,0:0:0:0:
232,104,186849,1,4,1:0:0:0:
248,192,187294,2,0,P|280:248|272:304,2,110,2|0|2,1:2|1:0|1:2,0:0:0:0:
232,104,188627,6,0,P|176:96|120:96,1,110,4|2,1:0|1:2,0:0:0:0:
144,184,189516,2,0,P|152:224|152:296,1,110,0|2,1:0|1:2,0:0:0:0:
240,304,190405,2,0,P|296:312|352:312,1,110,4|2,1:0|1:2,0:0:0:0:
328,224,191294,2,0,P|320:184|320:112,1,110,0|2,1:0|1:2,0:0:0:0:
400,144,192182,22,0,P|424:264|344:328,2,220,4|4|4,1:0|1:2|1:0,0:0:0:0:
320,176,194405,1,2,1:2:0:0:
240,208,194849,1,0,1:2:0:0:
160,240,195294,1,2,1:2:0:0:
80,280,195738,6,0,P|56:160|136:96,2,220,4|4|4,1:0|1:2|1:0,0:0:0:0:
256,192,197738,12,4,199294,1:0:0:0:
40,144,206405,6,0,P|112:72|200:128,1,220,0|8,1:0|0:0,0:0:0:0:
317,256,208182,2,0,P|400:311|485:232,1,220,0|8,1:0|0:0,0:0:0:0:
448,56,209960,6,0,P|369:121|401:225,2,220,4|12|4,1:0|0:0|1:2,0:0:0:0:
256,192,212182,12,4,213516,1:0:0:0:
40,296,213960,38,0,L|72:304|104:312,1,55,4|2,1:2|0:0,0:0:0:0:
104,352,214405,2,0,P|120:208|104:128,2,220,0|4|0,1:2|1:0|1:2,0:0:0:0:
192,328,216627,1,4,1:2:0:0:
208,240,217071,6,0,P|288:224|352:336,1,220,4|0,1:0|1:0,0:0:0:0:
440,328,218405,1,2,1:2:0:0:
424,240,218849,2,0,P|416:184|432:8,1,220,4|0,1:0|1:0,0:0:0:0:
344,48,220182,1,4,1:2:0:0:
256,72,220627,6,0,P|192:96|136:120,2,110,4|2|0,1:0|1:2|1:0,0:0:0:0:
280,160,221960,1,2,1:2:0:0:
304,248,222405,2,0,P|328:312|352:368,2,110,4|2|0,1:0|1:2|1:0,0:0:0:0:
224,296,223738,1,4,1:2:0:0:
200,208,224182,6,0,P|128:176|48:280,2,220,4|4|4,1:0|1:2|1:0,0:0:0:0:
256,192,226182,12,4,229516,1:0:0:0:
