osu file format v12

[General]
AudioFilename: radiant.mp3
AudioLeadIn: 1500
PreviewTime: 183
Countdown: 0
SampleSet: Soft
StackLeniency: 0.7
Mode: 0
LetterboxInBreaks: 0
WidescreenStoryboard: 0

[Editor]
DistanceSpacing: 0.8
BeatDivisor: 4
GridSize: 8
TimelineZoom: 2.2

[Metadata]
Title:RADIANT TREASURE
TitleUnicode:RADIANT TREASURE
Artist:Minamotoya feat. Yuka Saeki
ArtistUnicode:源屋 feat. 佐伯 佑佳
Creator:Rue
Version:Insane
Source:Touhou
Tags:ALiCE'S EMOTiON Shou Toramaru The Tiger-Patterned Bishamonten Intervention 東方星蓮船 ~ Undefined Fantastic Object 虎柄の毘沙門天
BeatmapID:246734
BeatmapSetID:91090

[Difficulty]
HPDrainRate:6
CircleSize:4
OverallDifficulty:7
ApproachRate:8
SliderMultiplier:1.4
SliderTickRate:1

[Events]
//Background and Video events
0,0,"bg.jpg",0,0
//Break Periods
2,99937,113210
2,171049,176766
2,199494,205432
//Storyboard Layer 0 (Background)
//Storyboard Layer 1 (Fail)
//Storyboard Layer 2 (Pass)
//Storyboard Layer 3 (Foreground)
//Storyboard Sound Samples
//Background Colour Transformations
3,100,0,0,0

[TimingPoints]
183,444.444444444444,4,2,1,20,1,0
405,-133.333333333333,4,2,1,30,0,0
14405,-133.333333333333,4,2,1,50,0,0
28627,-100,4,2,1,60,0,1
35627,-100,4,2,1,60,0,0
35738,-100,4,2,1,60,0,1
40960,-100,4,2,1,60,0,0
41071,-76.9230769230769,4,2,1,60,0,1
41405,-76.9230769230769,4,2,1,60,0,0
41516,-76.9230769230769,4,2,1,60,0,1
41849,-76.9230769230769,4,2,1,60,0,0
41960,-76.9230769230769,4,2,1,60,0,1
42627,-76.9230769230769,4,2,1,40,0,1
42738,-76.9230769230769,4,2,1,40,0,0
42849,-100,4,2,1,60,0,1
42960,-133.333333333333,4,2,1,40,0,0
55071,-133.333333333333,4,2,1,45,0,0
55627,-133.333333333333,4,2,1,50,0,0
56182,-133.333333333333,4,2,1,55,0,0
57405,-133.333333333333,4,2,1,35,0,0
69516,-133.333333333333,4,2,1,55,0,0
71294,-100,4,2,1,55,0,0
98849,-133.333333333333,4,2,1,45,0,0
98960,-100,4,2,1,55,0,0
113849,-133.333333333333,4,2,1,40,0,0
120405,-133.333333333333,4,2,1,20,0,0
120738,-133.333333333333,4,2,1,40,0,0
120849,-133.333333333333,4,2,1,30,0,0
120960,-133.333333333333,4,2,1,40,0,0
121071,-133.333333333333,4,2,1,40,0,0
127294,-133.333333333333,4,2,1,30,0,0
128182,-100,4,2,1,40,0,0
141294,-100,4,2,1,50,0,0
142405,-100,4,2,1,60,0,0
155516,-100,4,2,1,45,0,0
156627,-100,4,2,1,60,0,0
170849,-100,4,2,1,40,0,0
177516,-133.333333333333,4,2,1,25,0,0
185071,-133.333333333333,4,2,1,55,0,0
197738,-133.333333333333,4,2,1,40,0,0
213516,-133.333333333333,4,2,1,40,0,1
213738,-100,4,2,1,40,0,1
229405,-100,4,2,1,40,0,0
229516,-100,4,2,1,40,0,1
229627,-100,4,2,1,40,0,0

[Colours]
Combo1 : 255,255,255
Combo2 : 173,255,95
Combo3 : 255,88,100
Combo4 : 255,94,55
Combo5 : 17,254,176

[HitObjects]
40,40,183,37,0,1:0:0:0:
40,40,849,1,0,0:0:0:0:
40,40,1071,2,0,P|32:128|32:160,1,105.000004005432,2|2,0:0|0:0,0:0:0:0:
136,80,1738,1,2,0:0:0:0:
136,80,1960,6,0,P|176:80|216:88,2,78.7500030040742,2|2|0,0:0|0:0|0:0,0:0:0:0:
32,128,2849,2,0,P|16:176|96:304,1,210.000008010865,4|0,0:0|1:0,0:0:0:0:
96,304,4405,21,2,0:0:0:0:
192,288,4627,1,4,0:0:0:0:
96,304,5071,1,2,0:0:0:0:
192,288,5293,1,2,0:0:0:0:
96,304,5516,6,0,P|40:312|0:320,2,78.7500030040742,0|0|0,1:0|1:0|0:0,0:0:0:0:
184,192,6405,1,2,1:2:0:0:
192,288,6627,1,2,0:0:0:0:
288,96,6849,1,4,0:2:0:0:
296,184,7071,1,2,0:2:0:0:
384,40,7294,5,0,1:0:0:0:
384,40,7960,1,2,0:0:0:0:
384,40,8182,2,0,P|312:48|256:56,1,105.000004005432,4|2,0:0|0:0,0:0:0:0:
320,168,8849,1,2,0:0:0:0:
352,288,9071,2,0,P|355:317|359:366,2,78.7500030040742,0|0|2,1:0|1:0|0:0,0:0:0:0:
312,48,9960,1,2,0:0:0:0:
232,208,10182,1,2,0:0:0:0:
328,144,10405,1,0,0:0:0:0:
352,288,10627,1,2,0:0:0:0:
312,48,10849,6,0,P|367:36|415:28,1,105.000004005432,0|0,1:0|1:0,0:0:0:0:
328,144,11516,1,2,0:0:0:0:
256,184,11738,2,0,P|208:192|168:200,1,78.7500030040742,4|0,0:0|0:0,0:0:0:0:
178,197,12182,1,2,0:0:0:0:
224,96,12405,1,2,0:0:0:0:
280,272,12627,2,0,P|272:312|264:360,2,78.7500030040742,0|0|2,1:0|1:0|0:0,0:0:0:0:
88,296,13516,1,2,0:0:0:0:
288,240,13738,1,0,0:0:0:0:
80,264,13960,1,4,0:0:0:0:
280,272,14182,1,2,0:0:0:0:
80,264,14405,22,0,P|72:184|72:168,1,78.7500030040742,4|0,1:0|1:0,0:0:0:0:
64,40,14849,1,0,0:0:0:0:
72,152,15071,1,2,0:0:0:0:
64,40,15294,2,0,L|192:32,1,105.000004005432,8|4,0:0|0:0,0:0:0:0:
424,40,15960,1,0,1:2:0:0:
424,40,16182,6,0,L|480:48,1,52.5000020027161,0|2,1:0|0:0,0:0:0:0:
472,144,16516,2,0,P|456:192|456:200,1,52.5000020027161,0|2,1:0|0:0,0:0:0:0:
472,312,16849,1,0,1:0:0:0:
248,248,17071,2,0,P|277:244|352:240,1,105.000004005432,8|0,1:2|1:0,0:0:0:0:
304,328,17738,1,4,0:0:0:0:
248,248,17960,5,4,1:0:0:0:
456,120,18294,1,0,1:0:0:0:
456,120,18627,1,2,0:0:0:0:
248,248,18849,2,0,P|200:256|128:272,1,105.000004005432,8|2,0:0|0:0,0:0:0:0:
136,344,19516,1,0,1:0:0:0:
176,176,19738,1,0,1:0:0:0:
176,176,20071,1,0,1:0:0:0:
176,176,20405,1,0,1:0:0:0:
280,304,20627,1,8,1:2:0:0:
136,344,20849,1,0,1:0:0:0:
176,176,21071,1,0,1:0:0:0:
224,384,21294,1,4,0:0:0:0:
56,304,21516,6,0,P|48:264|48:240,1,52.5000020027161,4|2,1:0|0:0,0:0:0:0:
128,80,21849,2,0,P|126:60|112:16,1,52.5000020027161,0|2,1:0|0:0,0:0:0:0:
64,160,22182,1,0,1:0:0:0:
216,64,22405,2,0,P|224:104|224:168,1,105.000004005432,8|2,1:2|0:0,0:0:0:0:
184,288,23071,1,0,1:0:0:0:
224,184,23294,22,0,L|288:200,1,52.5000020027161,0|2,1:0|0:0,0:0:0:0:
336,272,23627,2,0,L|328:328,1,52.5000020027161,0|2,1:0|0:0,0:0:0:0:
376,192,23960,1,0,1:0:0:0:
464,280,24182,2,0,P|472:224|480:160,1,105.000004005432,8|4,1:2|0:0,0:0:0:0:
488,72,24849,1,2,0:0:0:0:
304,40,25071,6,0,L|232:56,1,52.5000020027161,4|2,1:0|0:0,0:0:0:0:
144,80,25405,2,0,P|135:50|128:24,1,52.5000020027161,0|2,1:0|0:0,0:0:0:0:
32,112,25738,1,0,1:0:0:0:
160,168,25960,2,0,P|216:152|280:136,1,105.000004005432,8|4,1:2|0:0,0:0:0:0:
432,64,26627,1,0,1:0:0:0:
432,64,27071,37,0,1:0:0:0:
432,64,27294,1,0,1:0:0:0:
440,144,27516,1,0,1:0:0:0:
448,224,27738,1,0,1:0:0:0:
450,232,27849,1,0,1:0:0:0:
451,241,27960,1,2,0:0:0:0:
304,208,28182,1,0,1:0:0:0:
376,296,28405,1,0,1:0:0:0:
304,208,28627,38,0,P|272:264|272:344,1,140,4|0,1:0|1:0,0:0:0:0:
208,216,29294,2,0,P|184:224|120:232,1,70,2|0,0:0|1:0,0:0:0:0:
48,248,29738,1,2,0:0:0:0:
32,152,29960,1,4,1:0:0:0:
32,152,30405,6,0,L|16:72,1,70,4|2,1:0|0:0,0:0:0:0:
48,248,30849,1,0,1:0:0:0:
64,336,31071,1,2,0:0:0:0:
208,216,31294,1,0,1:0:0:0:
200,288,31516,1,2,0:0:0:0:
368,216,31738,1,4,1:0:0:0:
368,216,32182,22,0,P|344:280|336:352,1,140,4|0,1:0|1:0,0:0:0:0:
464,160,32849,2,0,P|472:120|472:80,1,70,2|0,0:0|1:0,0:0:0:0:
440,288,33294,1,2,0:0:0:0:
376,112,33516,2,0,P|336:96|248:136,1,140,4|4,1:0|1:0,0:0:0:0:
296,288,34182,1,2,0:0:0:0:
296,288,34294,1,0,0:0:0:0:
296,288,34405,2,0,L|288:248|280:208,1,70,0|4,1:0|0:0,0:0:0:0:
216,352,34849,2,0,L|144:312,1,70,0|4,1:0|0:0,0:0:0:0:
392,272,35294,1,4,1:0:0:0:
488,288,35516,1,4,0:0:0:0:
296,288,35738,6,0,P|280:216|280:144,1,140,4|0,1:0|1:0,0:0:0:0:
384,360,36405,2,0,P|400:328|408:288,2,70,2|0|2,0:0|1:0|0:0,0:0:0:0:
320,72,37071,2,0,P|312:120|336:224,1,140,4|4,1:0|1:0,0:0:0:0:
408,136,37738,1,2,0:0:0:0:
408,136,37849,1,0,0:0:0:0:
408,136,37960,2,0,L|488:152,1,70,0|2,1:0|0:0,0:0:0:0:
384,216,38405,1,0,1:0:0:0:
256,256,38627,1,2,0:0:0:0:
396,281,38849,2,0,P|401:318|416:370,1,70,4|2,1:2|0:0,0:0:0:0:
409,351,39294,6,0,P|411:302|374:199,1,140,4|0,1:0|1:0,0:0:0:0:
312,176,39960,1,2,0:0:0:0:
424,144,40182,1,0,1:0:0:0:
384,216,40405,1,2,0:0:0:0:
352,104,40627,2,0,P|344:75|336:32,1,70,4|2,1:2|0:0,0:0:0:0:
312,176,41071,22,0,P|304:240|264:312,1,136.499993751526,4|2,1:2|0:0,0:0:0:0:
184,192,41516,2,0,P|101:187|60:218,1,136.499993751526,4|2,1:2|0:0,0:0:0:0:
144,280,41960,1,0,1:0:0:0:
160,288,42071,1,0,1:0:0:0:
176,296,42182,1,2,1:2:0:0:
184,192,42405,1,0,1:0:0:0:
61,216,42627,1,8,1:2:0:0:
88,344,42849,37,4,1:0:0:0:
32,96,43182,1,0,1:0:0:0:
88,344,43516,1,2,0:0:0:0:
208,320,43738,2,0,P|264:312|320:312,1,105.000004005432,8|0,1:2|1:0,0:0:0:0:
448,352,44405,1,2,0:0:0:0:
448,352,44627,2,0,L|440:264,2,78.7500030040742,0|0|2,1:0|1:0|0:0,0:0:0:0:
360,160,45516,2,0,L|480:144,1,105.000004005432,8|0,1:2|1:0,0:0:0:0:
441,273,46182,1,4,0:0:0:0:
336,136,46405,6,0,L|408:128,1,52.5000020027161,4|2,1:0|0:0,0:0:0:0:
248,192,46738,2,0,L|195:197,1,52.5000020027161,0|2,1:0|0:0,0:0:0:0:
328,216,47071,1,0,1:0:0:0:
256,112,47294,2,0,P|248:64|248:0,1,105.000004005432,8|0,1:2|1:0,0:0:0:0:
247,7,47960,1,0,1:0:0:0:
328,216,48182,22,0,P|336:264|336:328,1,105.000004005432,4|0,1:0|1:0,0:0:0:0:
448,232,48849,2,0,P|440:256|408:296,1,52.5000020027161,2|8,0:0|1:2,0:0:0:0:
176,336,49294,1,0,1:0:0:0:
416,376,49516,1,0,1:0:0:0:
328,216,49738,1,4,0:0:0:0:
176,336,49960,6,0,L|56:368,1,105.000004005432,4|0,1:0|1:0,0:0:0:0:
80,272,50627,1,2,0:0:0:0:
280,304,50849,2,0,L|384:320,1,105.000004005432,8|0,1:2|1:0,0:0:0:0:
328,216,51516,1,2,0:0:0:0:
368,136,51738,2,0,L|432:144,1,52.5000020027161,0|2,1:0|0:0,0:0:0:0:
460,62,52071,2,0,L|408:56,1,52.5000020027161,0|2,1:0|0:0,0:0:0:0:
504,144,52405,1,0,1:0:0:0:
328,216,52627,2,0,L|224:200,1,105.000004005432,8|0,1:2|1:0,0:0:0:0:
152,264,53294,1,4,0:0:0:0:
40,168,53516,6,0,L|128:184,2,78.7500030040742,4|0|2,1:0|1:0|0:0,0:0:0:0:
152,264,54405,2,0,P|184:256|256:256,1,105.000004005432,8|0,1:2|1:0,0:0:0:0:
277,263,55071,1,0,1:0:0:0:
298,273,55294,1,0,2:0:0:0:
315,285,55516,1,0,1:0:0:0:
333,302,55738,1,0,1:0:0:0:
346,317,55960,1,0,1:0:0:0:
296,384,56183,5,0,1:0:0:0:
296,384,56294,1,0,1:0:0:0:
296,384,56405,1,0,1:0:0:0:
344,216,56627,21,0,1:0:0:0:
512,248,56849,5,0,1:0:0:0:
512,248,56960,1,0,1:0:0:0:
512,248,57071,2,0,L|496:296|488:320,1,52.5000020027161,4|2,1:0|0:0,0:0:0:0:
344,216,57516,1,8,1:2:0:0:
344,216,57960,5,0,1:0:0:0:
344,216,58182,1,2,0:0:0:0:
448,96,58405,1,8,1:2:0:0:
448,96,58849,6,0,P|440:136|432:160,1,52.5000020027161,4|2,1:0|0:0,0:0:0:0:
272,264,59294,2,0,L|280:232|288:200,1,52.5000020027161,8|2,1:2|0:0,0:0:0:0:
448,96,59738,1,0,1:0:0:0:
416,232,59960,1,10,0:0:0:0:
320,80,60182,1,8,1:2:0:0:
320,80,60627,22,0,P|258:87|224:93,1,78.7500030040742,4|0,1:0|0:0,0:0:0:0:
160,112,61071,2,0,L|176:184,1,52.5000020027161,8|2,1:2|0:0,0:0:0:0:
288,328,61516,2,0,L|264:216,2,105.000004005432,0|4|4,1:0|0:0|1:0,0:0:0:0:
368,256,62627,1,2,0:0:0:0:
368,256,62738,1,0,0:0:0:0:
368,256,62849,2,0,P|400:264|424:272,1,52.5000020027161,0|4,1:2|0:0,0:0:0:0:
288,328,63294,2,0,P|256:320|232:312,1,52.5000020027161,0|4,1:0|0:0,0:0:0:0:
144,184,63738,6,0,P|208:200|264:216,1,105.000004005432,8|4,1:2|1:0,0:0:0:0:
400,144,64516,1,2,0:0:0:0:
280,104,64849,1,2,0:0:0:0:
368,256,65071,2,0,P|376:312|368:360,1,105.000004005432,0|8,1:2|1:2,0:0:0:0:
160,272,65738,1,2,0:0:0:0:
272,304,65960,2,0,P|264:248|272:200,1,105.000004005432,0|4,1:2|1:2,0:0:0:0:
368,256,66627,1,2,0:0:0:0:
160,272,66849,2,0,P|164:335|176:374,1,105.000004005432,0|10,1:2|1:2,0:0:0:0:
272,304,67516,1,0,0:0:0:0:
368,256,67738,6,0,L|440:248,1,52.5000020027161,4|0,1:2|0:0,0:0:0:0:
480,320,68182,2,0,L|472:376,1,52.5000020027161,4|0,1:2|0:0,0:0:0:0:
328,168,68627,2,0,L|335:116,1,52.5000020027161,4|0,1:2|0:0,0:0:0:0:
232,208,69071,2,0,L|104:232,1,105.000004005432,4|4,1:2|1:0,0:0:0:0:
96,320,69738,6,0,L|104:368,2,26.2500010013581,2|0|0,0:0|0:0|1:0,0:0:0:0:
32,256,70182,1,0,1:0:0:0:
29,243,70294,1,0,1:0:0:0:
27,230,70405,21,0,1:0:0:0:
25,217,70516,1,0,1:0:0:0:
25,204,70627,1,0,1:0:0:0:
26,190,70738,1,0,1:0:0:0:
26,177,70849,5,0,1:2:0:0:
30,161,70960,1,0,1:0:0:0:
36,143,71071,1,0,1:2:0:0:
44,126,71182,1,4,1:2:0:0:
57,112,71294,6,0,L|209:104,1,140,4|0,1:0|1:0,0:0:0:0:
416,88,71960,1,2,0:0:0:0:
232,120,72182,2,0,L|93:128,1,140,0|4,1:2|1:0,0:0:0:0:
416,88,72849,1,2,0:0:0:0:
408,168,73071,2,0,L|335:157,1,70,4|2,1:0|0:0,0:0:0:0:
312,160,73405,1,0,0:0:0:0:
312,160,73516,2,0,L|248:208,1,70,0|2,1:0|0:0,0:0:0:0:
40,192,73960,2,0,L|192:176,1,140,0|4,1:0|0:0,0:0:0:0:
360,184,74627,5,2,0:0:0:0:
384,176,74738,1,0,0:0:0:0:
408,168,74849,2,0,P|432:232|416:312,2,140,4|4|0,1:0|0:0|1:0,0:0:0:0:
360,48,75960,2,0,L|437:39,2,70,2|0|2,0:0|1:0|0:0,0:0:0:0:
232,80,76627,2,0,L|240:152,1,70,0|2,1:0|0:0,0:0:0:0:
360,208,77071,2,0,L|429:200,1,70,0|2,1:0|0:0,0:0:0:0:
184,264,77516,2,0,P|120:272|80:280,1,105,4|0,1:0|1:0,0:0:0:0:
32,344,77960,1,0,1:0:0:0:
17,195,78182,21,2,0:0:0:0:
24,155,78294,1,0,0:0:0:0:
40,128,78405,2,0,P|88:136|120:152,1,70,4|2,1:0|0:0,0:0:0:0:
32,344,78849,2,0,P|26:309|26:274,1,70,0|2,1:0|0:0,0:0:0:0:
328,112,79294,1,0,1:0:0:0:
336,288,79516,1,2,0:0:0:0:
200,144,79738,1,0,1:0:0:0:
328,112,79960,6,0,P|392:120|472:136,1,140,2|2,0:0|0:0,0:0:0:0:
336,288,80627,1,0,1:0:0:0:
328,112,80849,1,2,0:0:0:0:
336,288,81071,2,0,P|261:273|197:265,1,140,0|0,1:0|1:0,0:0:0:0:
48,264,81738,5,0,0:0:0:0:
48,264,81849,1,0,0:0:0:0:
48,264,81960,2,0,L|56:336,1,70,0|2,1:0|0:0,0:0:0:0:
128,224,82405,2,0,L|128:144,1,70,0|2,1:0|0:0,0:0:0:0:
24,144,82849,1,2,1:2:0:0:
56,334,83071,1,2,0:0:0:0:
40,240,83294,1,0,1:0:0:0:
56,334,83516,2,0,P|128:334|216:350,1,140,2|4,0:0|0:0,0:0:0:0:
352,288,84182,6,0,P|328:328|320:352,1,70,0|4,1:0|0:0,0:0:0:0:
160,240,84627,6,0,P|184:200|192:176,1,70,0|4,1:0|0:0,0:0:0:0:
280,160,85071,22,0,P|320:184|344:192,1,70,0|4,1:0|0:0,0:0:0:0:
256,256,85516,6,0,P|224:312|200:384,1,140,4|0,1:0|1:0,0:0:0:0:
160,240,86182,1,2,0:0:0:0:
184,144,86405,2,0,P|136:149|56:144,1,105,0|0,1:0|0:0,0:0:0:0:
32,136,86849,1,4,1:0:0:0:
48,8,87071,1,2,0:0:0:0:
168,24,87294,6,0,L|264:32,1,70,4|2,1:0|0:0,0:0:0:0:
246,31,87627,1,0,0:0:0:0:
254,33,87738,1,0,1:0:0:0:
400,80,87960,1,2,0:0:0:0:
184,144,88182,2,0,P|149:146|25:161,1,140,0|4,1:0|1:2,0:0:0:0:
216,142,88849,21,2,0:0:0:0:
246,140,88960,1,0,0:0:0:0:
278,139,89071,2,0,L|358:139,1,70,0|2,1:0|0:0,0:0:0:0:
48,184,89516,1,0,1:0:0:0:
80,56,89738,1,2,0:0:0:0:
48,184,89960,2,0,P|48:248|80:320,1,140,0|0,1:0|1:0,0:0:0:0:
160,264,90627,5,2,0:0:0:0:
160,360,90849,1,0,1:0:0:0:
76,317,91071,1,2,0:0:0:0:
160,360,91294,2,0,P|216:328|312:312,1,140,4|0,1:2|1:0,0:0:0:0:
432,232,91960,1,2,1:2:0:0:
368,384,92182,1,2,1:2:0:0:
336,224,92405,5,0,0:0:0:0:
331,196,92516,1,0,0:0:0:0:
323,168,92627,2,0,P|306:106|280:32,1,140,4|0,1:0|1:0,0:0:0:0:
400,120,93294,2,0,P|440:112|464:96,1,70,2|0,0:0|1:0,0:0:0:0:
504,24,93738,1,2,0:0:0:0:
432,232,93960,1,0,1:0:0:0:
288,80,94182,6,0,P|208:112|160:176,1,140,2|2,0:0|0:0,0:0:0:0:
192,320,94849,2,0,L|184:240,1,70,0|2,1:0|0:0,0:0:0:0:
160,48,95294,1,0,1:0:0:0:
160,48,95516,1,2,0:0:0:0:
192,320,95738,1,4,1:2:0:0:
192,320,95960,21,2,0:0:0:0:
192,320,96071,1,0,0:0:0:0:
192,320,96182,2,0,P|238:315|280:312,1,70,4|2,1:0|0:0,0:0:0:0:
104,336,96627,1,0,1:0:0:0:
24,360,96849,1,2,0:0:0:0:
200,304,97071,2,0,P|246:299|288:296,1,70,4|2,1:0|0:0,0:0:0:0:
432,312,97516,1,0,1:0:0:0:
192,320,97738,6,0,P|134:332|48:356,1,140,2|2,0:0|0:0,0:0:0:0:
24,360,98294,1,0,0:0:0:0:
24,360,98405,1,0,1:0:0:0:
48,224,98627,1,2,0:0:0:0:
256,272,98849,2,0,P|352:296|480:320,1,210.000008010865,4|4,0:0|1:0,0:0:0:0:
376,176,113960,69,4,1:0:0:0:
376,176,114294,1,0,1:0:0:0:
376,176,114405,2,0,P|368:200|368:240,1,52.5000020027161,0|2,0:0|1:2,0:0:0:0:
440,176,114849,2,0,P|400:160|320:152,1,105.000004005432,8|0,1:2|1:0,0:0:0:0:
248,168,115516,1,0,1:0:0:0:
248,168,115627,1,0,0:0:0:0:
248,168,115738,2,0,P|249:194|256:232,1,52.5000020027161,0|2,1:0|0:0,0:0:0:0:
176,248,116071,2,0,P|173:244|149:204,1,52.5000020027161,0|2,1:0|0:0,0:0:0:0:
88,272,116405,1,0,1:0:0:0:
248,168,116627,2,0,P|255:228|280:288,1,105.000004005432,8|2,1:2|0:0,0:0:0:0:
440,176,117294,1,2,0:0:0:0:
353,233,117516,6,0,P|360:288|360:312,1,78.7500030040742,4|0,1:0|1:0,0:0:0:0:
360,16,118182,1,2,0:0:0:0:
429,72,118405,2,0,P|437:160|445:200,1,105.000004005432,8|2,1:2|0:0,0:0:0:0:
464,328,119071,1,4,0:0:0:0:
152,344,119294,6,0,P|112:352|96:360,1,52.5000020027161,4|2,1:0|0:0,0:0:0:0:
272,288,119627,2,0,P|299:282|323:276,1,52.5000020027161,0|2,1:0|0:0,0:0:0:0:
152,344,119960,1,0,1:0:0:0:
208,176,120182,2,0,P|204:143|197:103,1,52.5000020027161,8|0,1:2|1:0,0:0:0:0:
199,109,120516,1,0,1:0:0:0:
197,97,120627,1,0,1:0:0:0:
194,85,120738,1,0,1:0:0:0:
191,72,120849,1,0,1:0:0:0:
187,58,120960,1,0,1:0:0:0:
182,45,121071,1,4,1:0:0:0:
184,48,121516,21,0,1:0:0:0:
208,176,121738,1,2,0:0:0:0:
184,48,121960,2,0,P|120:56|80:64,1,105.000004005432,8|2,1:2|0:0,0:0:0:0:
16,216,122627,1,2,1:2:0:0:
56,296,122849,6,0,P|64:320|64:352,1,52.5000020027161,4|2,1:0|0:0,0:0:0:0:
64,347,123182,1,0,1:0:0:0:
64,347,123294,1,0,0:0:0:0:
16,216,123516,1,0,0:0:0:0:
16,216,123738,2,0,P|8:176|16:104,1,105.000004005432,8|4,1:2|0:0,0:0:0:0:
40,32,124405,1,2,0:0:0:0:
40,32,124627,6,0,L|104:48,1,52.5000020027161,4|2,1:0|0:0,0:0:0:0:
184,120,124960,2,0,P|192:152|192:176,1,52.5000020027161,0|2,1:0|0:0,0:0:0:0:
240,32,125294,1,0,1:0:0:0:
240,32,125516,2,0,P|288:40|360:48,1,105.000004005432,8|2,1:2|0:0,0:0:0:0:
432,40,126182,5,0,1:0:0:0:
432,40,126405,1,0,0:0:0:0:
376,104,126627,1,0,1:0:0:0:
344,176,126849,1,0,1:0:0:0:
344,256,127071,1,0,1:0:0:0:
360,336,127293,1,4,1:2:0:0:
371,333,127405,1,0,1:0:0:0:
383,331,127516,1,0,1:0:0:0:
396,329,127627,1,0,1:0:0:0:
410,328,127738,21,0,1:0:0:0:
424,329,127849,1,0,1:0:0:0:
437,331,127960,1,0,1:0:0:0:
450,335,128071,1,0,1:0:0:0:
464,340,128182,6,0,P|476:277|484:198,1,140,4|8,1:0|1:2,0:0:0:0:
432,40,128849,1,2,0:0:0:0:
344,176,129071,2,0,P|332:239|324:318,1,140,0|8,1:0|1:2,0:0:0:0:
192,144,129738,1,2,0:0:0:0:
192,144,129960,2,0,L|96:152,1,70,0|0,1:0|0:0,0:0:0:0:
256,72,130405,2,0,L|328:96,1,70,10|4,1:2|0:0,0:0:0:0:
240,216,130849,2,0,P|216:288|224:368,1,140,0|10,1:0|1:2,0:0:0:0:
219,351,131516,1,10,1:2:0:0:
192,144,131738,5,4,1:0:0:0:
192,144,132182,1,8,1:2:0:0:
304,144,132405,1,2,0:0:0:0:
48,200,132627,1,0,1:2:0:0:
48,200,133071,6,0,P|56:248|64:272,1,70,8|4,1:2|0:0,0:0:0:0:
176,56,133516,2,0,P|112:56|40:80,1,140,4|8,1:0|1:2,0:0:0:0:
272,192,134182,2,0,P|336:184|360:176,1,70,2|0,0:0|1:0,0:0:0:0:
504,216,134627,1,10,1:2:0:0:
472,64,134849,1,12,0:0:0:0:
424,256,135071,21,6,0:0:0:0:
416,288,135182,1,0,0:0:0:0:
408,320,135294,2,0,L|264:344,1,140,4|8,1:0|1:2,0:0:0:0:
72,208,135960,1,2,0:0:0:0:
24,312,136182,2,0,L|162:288,1,140,0|8,1:0|1:2,0:0:0:0:
162,288,136849,1,2,0:0:0:0:
440,248,137071,5,4,1:0:0:0:
424,104,137405,1,2,0:0:0:0:
408,96,137516,1,0,0:0:0:0:
312,192,137738,1,2,0:0:0:0:
312,192,138182,5,2,0:0:0:0:
432,176,138405,1,4,1:0:0:0:
376,312,138627,1,2,0:0:0:0:
368,144,138849,6,0,P|320:120|224:120,1,140,4|8,1:0|1:2,0:0:0:0:
96,64,139516,1,2,0:0:0:0:
96,64,139738,2,0,P|104:128|104:160,1,70,0|2,1:0|0:2,0:0:0:0:
184,200,140182,1,10,1:2:0:0:
24,264,140405,1,2,0:0:0:0:
184,200,140627,6,0,P|272:192|336:224,1,140,4|8,1:0|1:2,0:0:0:0:
400,192,141294,1,2,0:0:0:0:
400,192,141405,1,0,0:0:0:0:
400,192,141516,1,0,1:0:0:0:
328,288,141738,1,0,1:0:0:0:
352,80,141960,2,0,L|424:104,1,70,4|0,1:2|0:0,0:0:0:0:
264,136,142405,6,0,P|184:152|96:160,1,140,4|0,1:0|1:0,0:0:0:0:
128,256,143071,1,2,0:0:0:0:
136,48,143294,2,0,P|73:44|16:112,1,140,0|0,1:0|1:0,0:0:0:0:
216,72,143960,1,2,0:0:0:0:
40,264,144182,6,0,L|56:336,1,70,4|2,1:0|0:0,0:0:0:0:
128,256,144627,2,0,L|120:176,1,70,0|2,1:0|0:0,0:0:0:0:
216,232,145071,2,0,P|224:296|224:376,1,140,0|4,1:0|1:2,0:0:0:0:
384,208,145738,5,2,0:0:0:0:
384,208,145849,1,0,0:0:0:0:
384,208,145960,2,0,L|464:224,1,70,4|2,1:0|0:0,0:0:0:0:
288,112,146405,2,0,L|219:98,1,70,0|2,1:0|0:0,0:0:0:0:
384,208,146849,2,0,P|392:144|392:64,2,140,0|4|4,1:0|0:0|1:0,0:0:0:0:
264,232,147960,2,0,P|256:256|248:304,1,70,2|0,0:0|1:0,0:0:0:0:
272,376,148405,1,2,0:0:0:0:
261,150,148627,2,0,P|336:168|384:208,1,140,0|4,1:0|1:2,0:0:0:0:
48,168,149294,5,2,0:0:0:0:
24,176,149405,1,0,0:0:0:0:
0,184,149516,2,0,L|16:336,1,140,4|0,1:0|1:0,0:0:0:0:
152,360,150182,2,0,L|144:280,2,70,2|0|2,0:0|1:0|0:0,0:0:0:0:
48,320,150849,1,0,1:0:0:0:
248,272,151071,2,0,P|320:264|400:264,1,140,2|2,0:0|0:0,0:0:0:0:
464,344,151738,2,0,P|416:352|384:352,1,70,0|2,1:0|0:0,0:0:0:0:
48,320,152182,1,4,1:0:0:0:
272,376,152627,1,6,1:2:0:0:
72,360,152849,21,2,0:0:0:0:
48,320,152960,1,0,0:0:0:0:
32,280,153071,2,0,P|24:240|24:200,1,70,4|2,1:0|0:0,0:0:0:0:
160,48,153516,2,0,P|168:88|168:128,1,70,4|2,1:2|0:0,0:0:0:0:
32,280,153960,2,0,P|22:209|33:121,2,140,0|4|4,1:0|1:2|1:0,0:0:0:0:
72,360,155071,5,2,0:0:0:0:
82,357,155182,1,0,0:0:0:0:
93,355,155294,1,0,1:0:0:0:
264,288,155516,1,0,1:0:0:0:
275,289,155627,1,0,1:0:0:0:
286,290,155739,5,0,1:0:0:0:
299,291,155849,1,0,1:0:0:0:
310,292,155960,1,0,1:0:0:0:
321,293,156072,1,4,1:2:0:0:
333,294,156182,5,0,1:0:0:0:
344,295,156293,1,0,1:0:0:0:
355,296,156405,1,4,1:2:0:0:
366,297,156516,1,0,1:0:0:0:
377,299,156627,22,0,L|441:347,1,70,4|2,1:0|0:0,0:0:0:0:
392,168,157071,2,0,L|304:200,1,70,0|2,1:0|0:0,0:0:0:0:
504,232,157516,2,0,P|520:136|512:80,1,140,0|4,1:0|1:2,0:0:0:0:
392,168,158182,1,2,0:0:0:0:
272,144,158405,5,4,1:0:0:0:
360,32,158627,1,2,0:0:0:0:
392,168,158849,1,0,1:0:0:0:
360,32,159071,1,2,0:0:0:0:
144,328,159294,1,0,1:0:0:0:
144,328,159738,2,0,P|101:332|69:340,1,70,4|0,1:2|0:0,0:0:0:0:
96,208,160182,6,0,P|160:224|248:240,1,140,4|0,1:0|1:0,0:0:0:0:
352,280,160849,1,2,0:0:0:0:
144,328,161071,2,0,P|78:335|-9:352,1,140,0|2,1:0|1:2,0:0:0:0:
72,96,161738,1,2,0:0:0:0:
96,208,161960,2,0,P|161:200|192:192,1,70,4|4,1:0|0:2,0:0:0:0:
248,256,162405,2,0,P|248:288|264:336,1,70,0|4,1:0|0:0,0:0:0:0:
248,144,162849,2,0,P|352:144|392:160,1,140,4|4,1:0|1:0,0:0:0:0:
472,112,163516,5,2,0:0:0:0:
472,88,163627,1,0,0:0:0:0:
464,64,163738,2,0,L|324:49,1,140,4|0,1:0|1:0,0:0:0:0:
160,32,164405,2,0,L|240:40,1,70,2|0,0:0|1:0,0:0:0:0:
64,32,164849,1,2,0:0:0:0:
80,128,165071,1,0,1:0:0:0:
96,224,165294,2,0,P|104:280|120:368,1,140,2|2,0:0|0:0,0:0:0:0:
224,312,165960,1,0,1:0:0:0:
336,296,166182,1,2,0:0:0:0:
456,312,166405,1,4,1:0:0:0:
119,362,166849,1,4,1:2:0:0:
119,362,167071,1,2,0:0:0:0:
40,272,167293,21,4,1:0:0:0:
119,362,167515,1,2,0:0:0:0:
120,216,167737,2,0,P|160:184|264:208,1,140,0|0,1:0|1:0,0:0:0:0:
192,256,168405,1,2,0:0:0:0:
216,104,168627,1,0,1:0:0:0:
368,128,168849,2,0,L|512:144,1,140,2|2,0:0|1:2,0:0:0:0:
507,143,169405,1,0,0:0:0:0:
507,143,169516,1,0,1:0:0:0:
216,104,169738,1,0,1:2:0:0:
256,192,169849,12,4,170849,1:0:0:0:
88,352,177516,6,0,L|96:248,1,105.000004005432,4|0,0:0|1:0,0:0:0:0:
104,160,178182,1,0,0:0:0:0:
104,160,178294,1,0,1:0:0:0:
104,160,178405,2,0,P|162:167|176:168,1,52.5000020027161,2|0,0:0|0:0,0:0:0:0:
248,128,178738,2,0,P|240:176|240:200,1,52.5000020027161,2|0,0:0|0:0,0:0:0:0:
328,168,179071,1,2,0:0:0:0:
184,248,179294,2,0,L|112:256,1,52.5000020027161,4|0,0:0|0:0,0:0:0:0:
328,168,179738,6,0,L|424:176,2,78.7500030040742,0|0|0,1:0|1:0|0:0,1:0:0:0:
248,128,180627,2,0,P|248:96|264:48,1,78.7500030040742,2|0,0:0|0:0,0:0:0:0:
262,51,181071,2,0,L|200:64,1,52.5000020027161,0|2,0:0|0:0,0:0:0:0:
80,136,181516,2,0,L|16:112,1,52.5000020027161,0|0,1:0|0:0,0:0:0:0:
56,8,181849,2,0,L|72:32|88:56,1,52.5000020027161,0|0,1:0|0:0,0:0:0:0:
160,96,182182,1,2,0:0:0:0:
160,96,182405,2,0,P|160:152|152:224,1,105.000004005432,4|2,0:0|0:0,0:0:0:0:
112,288,183071,1,2,0:0:0:0:
72,208,183294,21,4,1:0:0:0:
152,320,183516,1,0,1:0:0:0:
240,296,183738,1,0,1:0:0:0:
112,288,183960,1,0,1:0:0:0:
24,312,184182,1,4,1:0:0:0:
24,312,184294,1,0,1:0:0:0:
24,312,184405,1,2,1:2:0:0:
152,320,184627,1,0,1:0:0:0:
240,296,184849,21,0,1:0:0:0:
240,296,184960,1,0,1:0:0:0:
240,296,185071,2,0,L|344:264,1,105.000004005432,4|0,1:0|1:0,0:0:0:0:
424,368,185738,2,0,P|400:352|384:320,2,52.5000020027161,2|0|2,0:0|1:0|0:0,0:0:0:0:
496,256,186405,2,0,P|504:200|504:144,1,105.000004005432,0|4,1:2|1:0,0:0:0:0:
408,56,187071,5,2,0:0:0:0:
408,56,187182,1,0,0:0:0:0:
408,56,187294,2,0,L|344:72,1,52.5000020027161,0|4,1:0|0:0,0:0:0:0:
136,120,187738,2,0,L|188:108,1,52.5000020027161,0|4,1:0|0:0,0:0:0:0:
488,32,188182,1,0,1:0:0:0:
488,32,188627,6,0,P|496:80|496:144,1,105.000004005432,4|0,1:0|1:0,0:0:0:0:
320,336,189294,2,0,P|312:304|312:272,2,52.5000020027161,2|0|2,0:0|1:0|0:0,0:0:0:0:
376,168,189960,2,0,P|312:168|264:176,1,105.000004005432,0|4,1:0|1:0,0:0:0:0:
64,208,190627,1,2,0:0:0:0:
64,208,190738,1,0,0:0:0:0:
64,208,190849,1,0,1:0:0:0:
80,312,191071,1,4,0:0:0:0:
80,312,191294,2,0,L|56:320|24:328,1,52.5000020027161,0|4,1:0|0:0,0:0:0:0:
64,208,191738,1,0,1:2:0:0:
104,96,191960,1,4,0:0:0:0:
208,32,192182,22,0,P|232:80|248:152,1,105.000004005432,4|0,1:0|1:0,0:0:0:0:
245,129,192849,1,2,0:0:0:0:
168,192,193071,1,0,1:0:0:0:
64,208,193294,1,2,0:0:0:0:
248,256,193516,2,0,P|312:248|360:248,1,105.000004005432,0|4,1:0|1:0,0:0:0:0:
432,144,194182,2,0,P|392:152|380:155,1,52.5000020027161,2|0,0:0|1:0,0:0:0:0:
424,336,194627,2,0,L|464:336|476:336,2,52.5000020027161,2|0|2,0:0|1:0|0:0,0:0:0:0:
488,240,195294,1,0,1:0:0:0:
488,240,195738,6,0,L|496:208|504:176,1,52.5000020027161,4|2,1:0|0:0,0:0:0:0:
432,144,196182,2,0,L|432:104|432:80,1,52.5000020027161,0|0,1:2|0:0,0:0:0:0:
336,112,196627,2,0,P|328:80|320:56,1,52.5000020027161,0|2,1:2|0:0,0:0:0:0:
224,96,197071,2,0,P|184:80|120:64,1,105.000004005432,0|0,1:0|1:0,0:0:0:0:
80,152,197738,5,0,1:2:0:0:
88,176,197849,1,2,1:2:0:0:
96,208,197960,5,0,1:2:0:0:
96,248,198072,1,2,1:2:0:0:
88,288,198183,5,0,1:2:0:0:
72,320,198294,2,0,L|152:328,1,78.7500030040742,0|0,1:0|1:0,0:0:0:0:
150,327,198849,1,2,1:2:0:0:
240,336,199071,1,2,1:2:0:0:
408,352,199294,1,4,1:0:0:0:
432,336,206182,5,2,0:0:0:0:
432,336,206294,1,0,0:0:0:0:
432,336,206405,2,0,P|440:296|448:272,1,52.5000020027161,0|2,1:0|0:0,0:0:0:0:
384,160,206738,2,0,L|448:184,1,52.5000020027161,0|0,1:0|0:0,0:0:0:0:
504,216,207071,1,0,1:0:0:0:
304,264,207294,2,0,P|248:272|200:280,1,105.000004005432,8|0,1:2|1:0,0:0:0:0:
200,279,207960,1,4,0:0:0:0:
32,200,208182,6,0,P|65:195|96:192,1,52.5000020027161,0|2,1:0|0:0,0:0:0:0:
192,280,208516,2,0,P|159:285|128:288,1,52.5000020027161,0|2,1:0|0:0,0:0:0:0:
24,328,208849,1,0,1:0:0:0:
240,360,209071,2,0,P|280:362|344:363,1,105.000004005432,8|2,1:2|0:0,0:0:0:0:
424,296,209738,5,4,0:0:0:0:
424,296,209849,1,0,0:0:0:0:
424,296,209960,2,0,P|432:256|440:232,1,52.5000020027161,0|2,1:0|0:0,0:0:0:0:
344,240,210294,2,0,P|336:200|328:168,1,52.5000020027161,0|2,1:0|0:0,0:0:0:0:
416,160,210627,1,2,0:0:0:0:
416,160,210738,1,0,0:0:0:0:
416,160,210849,2,0,P|416:128|424:40,1,105.000004005432,8|4,1:2|0:0,0:0:0:0:
421,55,211516,1,0,1:2:0:0:
424,296,211738,22,0,L|336:336,1,78.7500030040742,4|0,1:0|0:0,0:0:0:0:
264,304,212182,2,0,L|288:392,1,78.7500030040742,4|0,1:0|0:0,0:0:0:0:
284,379,212627,5,0,1:0:0:0:
288,344,212738,1,0,1:0:0:0:
296,312,212849,1,0,1:0:0:0:
312,280,212960,1,0,1:0:0:0:
336,248,213071,5,0,1:0:0:0:
360,224,213182,1,0,1:0:0:0:
392,200,213294,1,0,1:0:0:0:
432,184,213405,1,0,1:0:0:0:
480,192,213516,1,4,1:0:0:0:
496,280,213738,21,2,0:0:0:0:
408,296,213960,2,0,P|408:336|416:376,1,70,0|2,1:0|0:0,0:0:0:0:
360,224,214405,2,0,P|301:216|216:208,1,140,0|0,1:0|1:0,0:0:0:0:
136,160,215071,1,2,0:0:0:0:
56,216,215294,22,0,P|48:264|48:288,1,70,4|2,1:0|0:0,0:0:0:0:
136,160,215738,1,0,1:0:0:0:
144,248,215960,1,2,0:0:0:0:
136,160,216182,2,0,P|144:96|144:16,1,140,0|0,1:0|1:0,0:0:0:0:
233,167,216849,5,2,0:0:0:0:
252,163,216960,1,0,0:0:0:0:
272,160,217071,2,0,P|328:152|416:152,1,140,0|0,1:0|1:0,0:0:0:0:
424,56,217738,1,2,0:0:0:0:
512,108,217960,2,0,P|512:192|504:248,2,140,0|4|4,1:0|0:0|1:0,0:0:0:0:
376,304,219071,2,0,P|384:344|392:376,1,70,2|0,0:0|1:0,0:0:0:0:
408,224,219516,1,2,0:0:0:0:
432,144,219738,2,0,P|432:96|424:0,1,140,0|4,1:0|1:0,0:0:0:0:
312,80,220405,5,2,0:0:0:0:
312,80,220516,1,0,0:0:0:0:
312,80,220627,2,0,P|320:128|328:160,1,70,4|2,1:0|0:0,0:0:0:0:
128,64,221071,2,0,P|152:96|176:120,1,70,0|2,1:0|0:0,0:0:0:0:
0,192,221516,2,0,P|40:208|72:216,2,70,0|2|0,1:0|0:0|1:0,0:0:0:0:
184,256,222182,6,0,P|272:240|336:240,1,140,2|2,0:0|0:0,0:0:0:0:
322,239,222849,1,0,1:0:0:0:
264,344,223071,1,2,0:0:0:0:
184,256,223294,2,0,P|176:216|168:112,1,140,0|4,1:0|0:0,0:0:0:0:
167,117,223960,1,2,0:0:0:0:
323,239,224182,21,4,1:0:0:0:
167,117,224405,1,2,0:0:0:0:
32,248,224627,2,0,P|48:328|64:392,1,140,0|0,1:0|1:0,0:0:0:0:
184,256,225294,1,2,0:0:0:0:
323,239,225516,1,0,1:0:0:0:
184,256,225738,2,2,P|178:225|168:112,1,140,2|2,0:0|0:0,0:0:0:0:
168,117,226294,1,0,0:0:0:0:
168,117,226405,1,0,1:0:0:0:
336,24,226627,1,2,0:0:0:0:
256,192,226738,12,4,229516,1:0:0:0:
