osu file format v14

[General]
AudioFilename: Song.mp3
AudioLeadIn: 1000
PreviewTime: 48213
Countdown: 0
SampleSet: Normal
StackLeniency: 0.6
Mode: 0
LetterboxInBreaks: 0
WidescreenStoryboard: 1

[Editor]
Bookmarks: 11494,26735,48553,59463,70372,81281
DistanceSpacing: 0.5
BeatDivisor: 6
GridSize: 4
TimelineZoom: 2.500005

[Metadata]
Title:Hana Kagerou - Hana Kagerou-
TitleUnicode:華陽炎 - Hana Kagerou-
Artist:Minamotoya feat. Kuroa*
ArtistUnicode:源屋 feat. Kuroa*
Creator:Streliteela
Version:Extra
Source:SOUND VOLTEX II -infinite infection-
Tags:sdvx
BeatmapID:777456
BeatmapSetID:352822

[Difficulty]
HPDrainRate:7
CircleSize:4.3
OverallDifficulty:8
ApproachRate:9.2
SliderMultiplier:2
SliderTickRate:1

[Events]
//Background and Video events
0,0,"BG.jpg",0,0
//Break Periods
//Storyboard Layer 0 (Background)
//Storyboard Layer 1 (Fail)
//Storyboard Layer 2 (Pass)
//Storyboard Layer 3 (Foreground)
//Storyboard Sound Samples

[TimingPoints]
-4,352.941176470588,4,2,10,80,1,0
1054,-100,4,2,10,70,0,0
3348,-133.333333333333,4,2,10,80,0,0
3701,-100,4,2,10,80,0,0
7054,413.793103448276,4,2,10,80,1,0
8709,480,4,2,10,80,1,0
10149,-133.333333333333,4,2,10,80,0,0
10629,545.454545454546,4,2,10,80,1,0
11174,-133.333333333333,4,2,10,80,0,0
11719,705.882352941176,4,2,10,80,1,0
11719,-133.333333333333,4,2,10,80,0,0
13130,666.666666666667,4,2,10,80,1,0
14463,340.909090909091,4,2,10,80,1,0
14463,-100,4,1,10,80,0,0
15826,-83.3333333333333,4,3,10,80,0,0
15997,-83.3333333333333,4,1,10,80,0,0
16338,-83.3333333333333,4,1,11,80,0,0
16508,-83.3333333333333,4,1,10,80,0,0
16678,-83.3333333333333,4,1,11,80,0,0
16849,-83.3333333333333,4,1,10,80,0,0
17019,-83.3333333333333,4,1,11,80,0,0
17190,-83.3333333333333,4,1,10,80,0,0
17701,-83.3333333333333,4,1,11,80,0,0
17872,-83.3333333333333,4,1,10,80,0,0
18042,-83.3333333333333,4,1,11,80,0,0
18099,-83.3333333333333,4,1,10,80,0,0
18383,-83.3333333333333,4,1,11,80,0,0
18553,-83.3333333333333,4,1,10,80,0,0
19065,-83.3333333333333,4,1,11,80,0,0
19235,-83.3333333333333,4,1,10,80,0,0
19406,-83.3333333333333,4,1,11,80,0,0
19576,-83.3333333333333,4,1,10,80,0,0
19747,-83.3333333333333,4,1,11,80,0,0
19917,-83.3333333333333,4,1,10,80,0,0
20258,-83.3333333333333,4,1,11,80,0,0
21281,-83.3333333333333,4,1,10,80,0,0
21792,-83.3333333333333,4,1,11,80,0,0
21963,-83.3333333333333,4,1,10,80,0,0
22133,-83.3333333333333,4,1,11,80,0,0
22303,-83.3333333333333,4,1,10,80,0,0
22474,-83.3333333333333,4,1,11,80,0,0
22644,-83.3333333333333,4,1,10,80,0,0
23156,-83.3333333333333,4,1,11,80,0,0
23326,-83.3333333333333,4,1,10,80,0,0
23497,-83.3333333333333,4,1,11,80,0,0
23667,-83.3333333333333,4,1,10,80,0,0
23838,-83.3333333333333,4,1,11,80,0,0
24008,-83.3333333333333,4,1,11,80,0,0
24178,-133.333333333333,4,1,11,80,0,0
24519,-83.3333333333333,4,1,11,80,0,0
24690,-100,4,1,11,80,0,0
24945,-100,4,1,10,80,0,0
25372,-100,4,1,11,80,0,0
25542,-71.4285714285714,4,1,11,80,0,0
25713,-83.3333333333333,4,1,11,80,0,0
26053,-142.857142857143,4,1,11,80,0,0
26394,-100,4,1,10,80,0,0
27417,-133.333333333333,4,1,10,80,0,0
27758,-100,4,1,10,80,0,0
28269,-90.9090909090909,4,1,10,80,0,0
28610,-133.333333333333,4,1,10,80,0,0
28781,-83.3333333333333,4,1,10,80,0,0
30315,-133.333333333333,4,1,10,80,0,0
30656,-66.6666666666667,4,1,10,80,0,0
30826,-83.3333333333333,4,1,10,80,0,0
31082,-76.9230769230769,4,1,10,80,0,0
31338,-66.6666666666667,4,1,10,80,0,0
31508,-100,4,1,10,80,0,0
32190,-83.3333333333333,4,1,10,80,0,0
36110,-133.333333333333,4,1,10,80,0,0
36451,-133.333333333333,4,1,11,80,0,0
37644,-76.9230769230769,4,1,10,80,0,0
41565,-76.9230769230769,4,1,11,80,0,0
43099,-76.9230769230769,4,1,10,80,0,0
47531,-200,4,1,11,80,0,0
48213,-100,4,1,10,80,0,0
48553,-83.3333333333333,4,3,10,80,0,1
48724,-83.3333333333333,4,1,10,80,0,1
57928,-100,4,1,11,80,0,1
59463,-83.3333333333333,4,1,10,80,0,1
61338,-133.333333333333,4,1,10,80,0,1
61678,-83.3333333333333,4,1,11,80,0,1
61849,-83.3333333333333,4,1,10,80,0,1
62019,-83.3333333333333,4,1,11,80,0,1
62190,-83.3333333333333,4,1,10,80,0,1
63383,-83.3333333333333,4,1,11,80,0,1
64917,-83.3333333333333,4,1,11,80,0,1
65088,-83.3333333333333,4,1,10,80,0,1
65940,-133.333333333333,4,1,10,80,0,1
66110,-83.3333333333333,4,1,10,80,0,1
67303,-133.333333333333,4,1,10,80,0,1
67474,-83.3333333333333,4,1,10,80,0,1
69178,-83.3333333333333,4,1,11,80,0,1
69690,-166.666666666667,4,1,10,80,0,1
70031,-55.5555555555556,4,1,10,80,0,1
70372,-100,4,1,10,80,0,0
70542,-117.647058823529,4,1,10,80,0,0
71735,-133.333333333333,4,1,10,80,0,0
72076,-100,4,1,10,80,0,0
73099,-83.3333333333333,4,1,10,80,0,0
76508,-116.279069767442,4,1,10,80,0,0
76764,-83.3333333333333,4,1,10,80,0,0
77872,-111.111111111111,4,1,10,80,0,0
78127,-83.3333333333333,4,1,10,80,0,0
78894,-83.3333333333333,4,1,11,80,0,0
80599,-83.3333333333333,4,1,10,5,0,0
81281,-117.647058823529,4,3,11,80,0,0
81451,-117.647058823529,4,2,11,80,0,0
83156,-133.333333333333,4,2,11,80,0,0
83497,-117.647058823529,4,2,11,80,0,0
86053,-200,4,2,11,80,0,0
86394,-117.647058823529,4,2,11,80,0,0
86735,-117.647058823529,4,3,11,80,0,0
87076,-117.647058823529,4,2,11,80,0,0
89463,-117.647058823529,4,1,10,80,0,0
90826,-117.647058823529,4,2,11,80,0,0
91849,-90.9090909090909,4,2,11,80,0,0
92190,-83.3333333333333,4,1,10,80,0,1
94065,-133.333333333333,4,1,10,80,0,1
94406,-83.3333333333333,4,1,11,80,0,1
94917,-83.3333333333333,4,1,10,80,0,1
95428,-83.3333333333333,4,1,11,80,0,1
95599,-83.3333333333333,4,1,10,80,0,1
95769,-83.3333333333333,4,1,11,80,0,1
95940,-83.3333333333333,4,1,10,80,0,1
96110,-83.3333333333333,4,1,11,80,0,1
96281,-83.3333333333333,4,1,10,80,0,1
96451,-83.3333333333333,4,1,11,80,0,1
96622,-83.3333333333333,4,1,10,80,0,1
96792,-83.3333333333333,4,1,11,80,0,1
97644,-83.3333333333333,4,1,10,80,0,1
98497,-83.3333333333333,4,1,11,80,0,1
98667,-83.3333333333333,4,1,10,80,0,1
98838,-83.3333333333333,4,1,11,80,0,1
99008,-83.3333333333333,4,1,10,80,0,1
99860,-83.3333333333333,4,1,11,80,0,1
100031,-83.3333333333333,4,1,10,80,0,1
100201,-83.3333333333333,4,1,11,80,0,1
100372,-83.3333333333333,4,1,10,80,0,1
101906,-83.3333333333333,4,1,11,80,0,1
102417,-166.666666666667,4,1,10,80,0,1
102758,-166.666666666667,4,2,10,80,0,1
103099,-83.3333333333333,4,1,10,80,0,0
103610,-83.3333333333333,4,1,11,80,0,0
103781,-83.3333333333333,4,1,10,80,0,0
103951,-83.3333333333333,4,1,11,80,0,0
104463,-83.3333333333333,4,1,10,80,0,0
104974,-83.3333333333333,4,1,11,80,0,0
105144,-83.3333333333333,4,1,10,80,0,0
105315,-83.3333333333333,4,1,11,80,0,0
105826,-83.3333333333333,4,1,10,80,0,0
106338,-83.3333333333333,4,1,11,80,0,0
106508,-83.3333333333333,4,1,10,80,0,0
106678,-83.3333333333333,4,1,11,80,0,0
106849,-66.6666666666667,4,1,11,80,0,0
107531,-133.333333333333,4,1,11,80,0,0
107872,-100,4,1,11,80,0,0
108213,-83.3333333333333,4,1,11,80,0,0
108553,-83.3333333333333,4,1,10,80,0,0
109065,-83.3333333333333,4,1,11,80,0,0
109235,-83.3333333333333,4,1,10,80,0,0
109406,-83.3333333333333,4,1,11,80,0,0
109917,-83.3333333333333,4,1,10,80,0,0
110428,-83.3333333333333,4,1,11,80,0,0
110599,-83.3333333333333,4,1,10,80,0,0
110769,-83.3333333333333,4,1,11,80,0,0
111281,-83.3333333333333,4,1,11,80,0,0
112644,-71.4285714285714,4,1,11,80,0,0
113326,-133.333333333333,4,1,11,80,0,0
113667,-133.333333333333,4,2,10,80,0,0
114017,387.096774193548,4,2,10,80,1,0
114017,-100,4,3,11,80,0,0
114791,-100,4,2,10,50,0,0
115565,413.793103448276,4,2,10,50,1,0
117220,428.571428571429,4,2,10,50,1,0
117220,-200,4,2,10,50,0,0
117648,-100,4,2,10,50,0,0
118934,545.454545454546,4,2,10,50,1,0
120024,307.692307692308,4,2,10,50,1,0
120024,-800,4,3,11,50,0,0
120062,-800,4,3,11,5,0,0

[Colours]
Combo1 : 255,215,155
Combo2 : 255,170,255
Combo3 : 255,157,157
Combo4 : 117,186,255

[HitObjects]
500,104,1054,5,0,0:0:0:0:
463,23,1231,1,0,0:0:0:0:
427,164,1407,1,8,0:0:0:0:
358,103,1584,1,0,0:0:0:0:
323,99,1672,1,0,0:0:0:0:
287,95,1760,1,2,0:0:0:0:
276,252,1937,1,0,0:0:0:0:
125,180,2113,2,0,L|236:172,1,100
382,261,2466,5,2,0:0:0:0:
276,252,2642,1,0,0:0:0:0:
125,180,2819,1,2,0:0:0:0:
224,172,2995,1,0,0:0:0:0:
276,252,3172,1,0,0:0:0:0:
234,22,3348,2,0,P|228:96|223:182,1,150.000005722046,2|2,0:0|0:0,0:0:0:0:
282,345,3878,2,0,P|293:293|268:243,1,100,2|0,0:0|0:0,0:0:0:0:
70,302,4231,6,0,B|116:313|116:313|184:294|184:294|230:303,1,150,2|0,0:0|0:0,0:0:0:0:
229,280,4584,2,0,P|293:261|352:315,1,150,2|0,0:0|0:0,0:0:0:0:
454,316,4937,1,2,0:0:0:0:
354,333,5113,1,0,0:0:0:0:
297,122,5290,1,2,0:0:0:0:
396,142,5466,1,2,0:0:0:0:
332,253,5643,5,0,0:0:0:0:
297,122,5819,1,2,0:0:0:0:
464,61,5995,1,0,0:0:0:0:
449,228,6172,1,2,0:0:0:0:
254,200,6348,2,0,L|144:206,1,100,0|2,0:0|0:0,0:0:0:0:
88,351,6701,2,0,L|188:345,1,100,0|2,0:0|0:0,0:0:0:0:
88,351,7054,5,0,0:0:0:0:
10,331,7260,1,2,0:0:0:0:
4,252,7467,1,0,0:0:0:0:
79,221,7674,1,2,0:0:0:0:
130,283,7881,1,0,0:0:0:0:
398,186,8295,2,0,L|283:179,1,100,0|2,0:0|0:0,0:0:0:0:
398,186,8709,5,2,0:0:0:0:
491,151,8949,1,0,0:0:0:0:
488,51,9189,1,2,0:0:0:0:
392,24,9429,1,0,0:0:0:0:
336,107,9669,1,2,0:0:0:0:
293,299,10149,2,0,P|288:262|296:219,1,75.0000028610231,0|2,0:0|0:0,0:0:0:0:
368,329,10629,6,0,P|310:376|236:355,1,150,10|0,0:0|0:0,0:0:0:0:
223,339,11174,2,0,L|131:345,1,75.0000028610231,2|0,0:0|0:0,0:0:0:0:
52,185,11719,6,0,L|144:189,1,75.0000028610231,2|0,0:0|0:0,0:0:0:0:
243,48,12424,2,0,L|153:55,1,75.0000028610231,2|0,0:0|0:0,0:0:0:0:
223,339,13130,5,2,0:0:0:0:
243,48,13463,1,2,0:0:0:0:
397,295,13796,1,2,0:0:0:0:
127,186,14130,1,2,0:0:0:0:
410,115,14463,5,8,0:0:0:0:
403,204,14633,1,8,0:0:0:0:
301,186,14803,1,8,0:0:0:0:
309,276,14974,1,8,0:0:0:0:
227,240,15144,2,0,L|168:245,1,50,8|8,0:0|0:0,0:0:0:0:
69,310,15315,2,0,L|134:311,1,50,8|8,0:0|0:0,0:0:0:0:
195,160,15485,2,0,L|136:165,1,50,8|8,0:0|0:0,0:0:0:0:
40,234,15656,2,0,L|105:235,1,50,8|8,0:0|0:0,0:0:0:0:
162,73,15826,5,4,0:0:0:0:
56,40,15997,1,0,0:0:0:0:
56,40,16053,1,0,0:0:0:0:
56,40,16110,1,0,0:0:0:0:
57,40,16167,2,0,P|63:102|68:166,1,119.999996337891,8|2,0:0|0:0,0:0:0:0:
301,186,16508,1,0,0:0:0:0:
135,234,16678,1,2,0:0:0:0:
226,359,16849,2,0,P|226:297|227:227,1,119.999996337891,8|2,0:0|0:0,0:0:0:0:
387,44,17190,6,0,P|392:99|396:172,1,119.999996337891,10|0,0:0|0:0,0:0:0:0:
465,239,17417,1,0,0:0:0:0:
465,239,17474,1,0,0:0:0:0:
465,239,17531,2,0,P|461:296|461:362,1,119.999996337891,8|2,0:0|0:0,0:0:0:0:
493,140,17872,1,2,0:0:0:0:
365,261,18042,1,2,0:0:0:0:
365,261,18099,1,0,0:0:0:0:
365,261,18156,1,0,0:0:0:0:
365,261,18213,2,0,P|316:258|237:257,1,119.999996337891,8|2,0:0|0:0,0:0:0:0:
79,346,18553,6,0,P|132:351|209:349,1,119.999996337891,2|0,0:0|0:0,0:0:0:0:
211,334,18781,1,0,0:0:0:0:
216,314,18838,1,0,0:0:0:0:
216,294,18894,2,0,B|227:255|200:210|200:210|181:242,1,119.999996337891,8|2,0:0|0:0,0:0:0:0:
35,145,19235,2,0,B|24:106|51:61|51:61|70:93,1,119.999996337891,2|2,0:0|0:0,0:0:0:0:
81,107,19491,1,0,0:0:0:0:
95,125,19576,2,0,P|151:120|222:121,1,119.999996337891,8|2,0:0|0:0,0:0:0:0:
298,237,19917,5,2,0:0:0:0:
345,43,20088,1,0,0:0:0:0:
350,72,20173,1,0,0:0:0:0:
356,101,20258,1,10,0:0:0:0:
246,25,20428,1,2,0:0:0:0:
447,60,20599,1,10,0:0:0:0:
280,157,20769,1,2,0:0:0:0:
427,166,20940,1,10,0:0:0:0:
422,195,21025,1,2,0:0:0:0:
416,224,21110,1,2,0:0:0:0:
512,384,21281,6,0,P|520:322|486:268,1,119.999996337891,6|0,0:0|0:0,0:0:0:0:
413,318,21508,1,0,0:0:0:0:
413,318,21565,1,0,0:0:0:0:
413,318,21622,2,0,B|348:324|348:324|285:313,1,119.999996337891,8|2,0:0|0:0,0:0:0:0:
91,253,21963,1,2,0:0:0:0:
209,238,22133,1,2,0:0:0:0:
398,151,22303,1,8,0:0:0:0:
280,136,22473,1,2,0:0:0:0:
70,111,22644,5,2,0:0:0:0:
166,33,22815,1,0,0:0:0:0:
166,33,22872,1,0,0:0:0:0:
166,33,22928,1,0,0:0:0:0:
166,33,22985,2,0,P|170:93|173:166,1,119.999996337891,8|2,0:0|0:0,0:0:0:0:
301,365,23326,1,2,0:0:0:0:
317,245,23497,1,2,0:0:0:0:
478,72,23667,1,8,0:0:0:0:
494,192,23838,1,2,0:0:0:0:
359,49,24008,6,0,P|327:49|286:53,1,59.9999981689454,10|0,0:0|0:0,0:0:0:0:
197,133,24178,2,0,B|185:192|185:192|200:254,1,112.500004291535,10|0,0:0|0:0,0:0:0:0:
249,340,24520,6,0,P|272:343|331:334,1,59.9999981689454,10|0,0:0|0:0,0:0:0:0:
407,286,24690,2,0,B|419:208|419:208|399:131,1,150,10|0,0:0|0:0,0:0:0:0:
478,72,25031,2,0,L|478:153,1,50,10|0,0:0|0:0,0:0:0:0:
317,245,25201,2,0,L|311:171,1,50,10|0,0:0|0:0,0:0:0:0:
245,29,25372,5,2,0:0:0:0:
199,167,25542,2,0,L|197:133,2,34.9999989318848,2|0|0,0:0|0:0|0:0,0:0:0:0:
120,212,25713,2,0,L|113:340,1,119.999996337891,2|2,0:0|0:0,0:0:0:0:
53,146,26053,6,0,P|34:75|89:30,1,139.999995727539,6|0,0:0|0:0,0:0:0:0:
101,25,26480,1,0,0:0:0:0:
124,34,26565,1,0,0:0:0:0:
140,52,26650,1,0,0:0:0:0:
145,76,26735,6,0,L|264:71,1,100,2|0,0:0|0:0,0:0:0:0:
400,144,27076,2,0,L|291:142,1,100
448,68,27417,6,0,P|485:124|467:204,1,150.000005722046,8|0,0:0|0:0,0:0:0:0:
368,232,27928,1,0,0:0:0:0:
201,163,28099,1,2,0:0:0:0:
294,22,28269,6,0,L|297:138,1,110.000003356934
360,351,28610,1,2,0:0:0:0:
368,232,28781,2,0,L|360:358,1,119.999996337891,8|0,0:0|0:0,0:0:0:0:
360,351,29292,1,0,0:0:0:0:
476,184,29463,6,0,P|487:124|453:58,1,119.999996337891,2|0,0:0|0:0,0:0:0:0:
450,277,29803,1,0,0:0:0:0:
390,123,29974,1,2,0:0:0:0:
360,351,30144,1,8,0:0:0:0:
187,263,30315,6,0,L|310:258,1,112.500004291535
188,345,30656,1,0,0:0:0:0:
188,345,30826,6,0,B|143:374|105:361|105:361|125:334,1,119.999996337891,8|0,0:0|0:0,0:0:0:0:
139,256,31082,6,0,B|79:259|42:226|42:226|78:213,1,129.999994049073,8|0,0:0|0:0,0:0:0:0:
126,150,31338,6,0,B|71:134|39:79|39:79|81:85,1,150.000005722046,8|0,0:0|0:0,0:0:0:0:
231,94,31678,1,8,0:0:0:0:
168,1,31849,2,0,L|117:6,1,50,8|0,0:0|0:0,0:0:0:0:
231,94,32019,2,0,L|301:97,1,50,8|0,0:0|0:0,0:0:0:0:
480,53,32190,6,0,P|433:16|360:41,1,119.999996337891,6|0,0:0|0:0,0:0:0:0:
362,199,32531,1,8,0:0:0:0:
378,26,32701,1,0,0:0:0:0:
362,199,32872,2,0,L|238:191,1,119.999996337891,2|0,0:0|0:0,0:0:0:0:
231,94,33213,1,8,0:0:0:0:
189,263,33383,1,0,0:0:0:0:
98,139,33553,5,2,0:0:0:0:
427,137,33724,2,0,B|445:194|445:194|430:263,1,119.999996337891,0|8,0:0|0:0,0:0:0:0:
231,94,34065,1,0,0:0:0:0:
289,384,34235,2,0,L|289:328|289:253,1,119.999996337891,2|0,0:0|0:0,0:0:0:0:
98,139,34576,2,0,P|94:198|93:264,1,119.999996337891,8|0,0:0|0:0,0:0:0:0:
5,152,34917,6,0,P|11:84|53:47,1,119.999996337891,2|0,0:0|0:0,0:0:0:0:
92,258,35258,1,0,0:0:0:0:
212,197,35428,2,0,L|340:192,1,119.999996337891,8|0,0:0|0:0,0:0:0:0:
500,233,35769,2,0,P|452:267|383:246,1,119.999996337891,8|0,0:0|0:0,0:0:0:0:
436,20,36110,6,0,L|430:174,1,150.000005722046,12|2,0:0|0:0,0:0:0:0:
350,61,36622,1,10,0:0:0:0:
512,136,36792,1,10,0:0:0:0:
244,125,36963,1,10,0:0:0:0:
423,101,37133,1,10,0:0:0:0:
200,50,37303,5,10,0:0:0:0:
170,72,37389,1,10,0:0:0:0:
157,104,37474,1,10,0:0:0:0:
159,138,37559,1,10,0:0:0:0:
178,171,37644,6,0,L|326:165,1,129.999994049073,6|0,0:0|0:0,0:0:0:0:
348,363,37985,1,8,0:0:0:0:
307,165,38156,1,2,0:0:0:0:
512,260,38326,2,0,L|383:254,1,129.999994049073,8|0,0:0|0:0,0:0:0:0:
382,253,38838,1,0,0:0:0:0:
49,284,39008,6,0,P|141:272|183:359,1,194.999991073609,2|0,0:0|0:0,0:0:0:0:
270,275,39349,2,0,L|409:270,1,129.999994049073,8|2,0:0|0:0,0:0:0:0:
498,112,39690,1,8,0:0:0:0:
498,112,40031,6,0,B|439:131|439:131|359:117,1,129.999994049073,8|0,0:0|0:0,0:0:0:0:
211,88,40372,1,2,0:0:0:0:
383,30,40713,5,8,0:0:0:0:
211,88,40883,1,10,0:0:0:0:
337,194,41053,2,0,B|275:169|275:169|197:175,1,129.999994049073,8|0,0:0|0:0,0:0:0:0:
354,298,41394,1,8,0:0:0:0:
172,348,41565,5,6,0:0:0:0:
122,38,41906,1,6,0:0:0:0:
431,144,42247,1,6,0:0:0:0:
442,351,42588,5,6,0:0:0:0:
436,247,42758,1,6,0:0:0:0:
431,144,42928,1,6,0:0:0:0:
354,298,43099,5,6,0:0:0:0:
206,204,43269,1,0,0:0:0:0:
202,178,43354,1,0,0:0:0:0:
199,152,43440,1,8,0:0:0:0:
112,186,43610,1,0,0:0:0:0:
114,153,43695,1,0,0:0:0:0:
117,120,43781,1,8,0:0:0:0:
24,146,43951,1,0,0:0:0:0:
34,108,44036,1,0,0:0:0:0:
47,69,44122,1,8,0:0:0:0:
143,283,44292,1,8,0:0:0:0:
289,99,44463,5,2,0:0:0:0:
332,258,44633,1,0,0:0:0:0:
336,232,44718,1,0,0:0:0:0:
339,206,44804,1,8,0:0:0:0:
426,240,44974,1,0,0:0:0:0:
424,207,45059,1,0,0:0:0:0:
421,174,45145,1,8,0:0:0:0:
511,187,45315,1,0,0:0:0:0:
501,149,45400,1,0,0:0:0:0:
488,110,45486,1,8,0:0:0:0:
394,320,45656,1,8,0:0:0:0:
396,75,45826,5,6,0:0:0:0:
117,120,45997,1,6,0:0:0:0:
117,120,46338,1,6,0:0:0:0:
424,207,46509,1,6,0:0:0:0:
424,207,46849,1,6,0:0:0:0:
122,296,47019,1,6,0:0:0:0:
122,296,47360,1,2,0:0:0:0:
487,253,47531,6,0,P|450:282|389:277,1,100,4|10,0:0|0:0,0:0:0:0:
320,296,48213,6,0,P|394:295|441:352,1,150,8|0,0:0|0:0,0:0:0:0:
424,207,48553,5,4,0:0:0:0:
334,72,48724,1,0,0:0:0:0:
331,101,48809,1,0,0:0:0:0:
327,130,48894,1,8,0:0:0:0:
473,87,49065,1,0,0:0:0:0:
325,157,49235,2,0,L|199:145,1,119.999996337891,2|0,0:0|0:0,0:0:0:0:
256,34,49576,1,8,0:0:0:0:
256,253,49747,1,0,0:0:0:0:
39,87,49917,5,2,0:0:0:0:
325,157,50088,1,0,0:0:0:0:
187,157,50258,1,8,0:0:0:0:
473,87,50428,1,0,0:0:0:0:
424,234,50599,2,0,P|423:300|424:371,1,119.999996337891,2|0,0:0|0:0,0:0:0:0:
256,253,50940,2,0,P|184:242|136:244,1,119.999996337891,8|0,0:0|0:0,0:0:0:0:
39,87,51281,6,0,P|106:82|147:39,1,119.999996337891,2|0,0:0|0:0,0:0:0:0:
312,73,51622,1,8,0:0:0:0:
72,11,51792,1,0,0:0:0:0:
126,271,51963,5,2,0:0:0:0:
72,11,52133,1,0,0:0:0:0:
312,73,52303,1,8,0:0:0:0:
256,253,52474,1,0,0:0:0:0:
33,189,52644,5,2,0:0:0:0:
256,253,52815,1,0,0:0:0:0:
39,87,52985,1,8,0:0:0:0:
126,271,53156,1,0,0:0:0:0:
282,166,53326,2,0,L|418:158,1,119.999996337891,2|0,0:0|0:0,0:0:0:0:
483,270,53667,2,0,B|456:348|456:348|433:293,1,119.999996337891,8|8,0:0|0:0,0:0:0:0:
312,73,54008,5,2,0:0:0:0:
442,45,54178,1,0,0:0:0:0:
282,166,54349,1,8,0:0:0:0:
460,153,54519,1,0,0:0:0:0:
256,253,54690,1,2,0:0:0:0:
182,42,54860,1,0,0:0:0:0:
55,149,55031,2,0,B|82:71|82:71|105:126,1,119.999996337891,8|0,0:0|0:0,0:0:0:0:
96,374,55372,5,2,0:0:0:0:
226,346,55542,1,0,0:0:0:0:
72,261,55713,1,8,0:0:0:0:
256,253,55883,1,0,0:0:0:0:
55,149,56054,1,2,0:0:0:0:
256,253,56224,1,0,0:0:0:0:
355,108,56394,6,0,B|442:89|442:89|417:124,1,119.999996337891,8|0,0:0|0:0,0:0:0:0:
293,163,56735,2,0,P|277:99|300:44,1,119.999996337891,2|0,0:0|0:0,0:0:0:0:
380,198,57076,1,8,0:0:0:0:
511,151,57247,1,0,0:0:0:0:
380,198,57417,5,2,0:0:0:0:
295,50,57588,1,0,0:0:0:0:
511,151,57758,1,8,0:0:0:0:
334,312,57928,5,14,0:0:0:0:
318,311,58269,1,14,0:0:0:0:
303,310,58610,1,14,0:0:0:0:
288,308,58781,2,0,B|249:307|249:307|200:330|200:330|139:325,1,150,10|0,0:0|0:0,0:0:0:0:
141,285,59122,1,8,0:0:0:0:
116,253,59207,1,8,0:0:0:0:
78,238,59292,1,8,0:0:0:0:
43,245,59377,1,8,0:0:0:0:
15,274,59462,5,6,0:0:0:0:
109,91,59633,1,0,0:0:0:0:
111,127,59718,1,0,0:0:0:0:
115,163,59803,1,8,0:0:0:0:
183,24,59974,1,0,0:0:0:0:
13,45,60144,2,0,L|2:178,1,119.999996337891,2|0,0:0|0:0,0:0:0:0:
203,116,60485,1,8,0:0:0:0:
3,164,60656,1,0,0:0:0:0:
308,42,60826,5,2,0:0:0:0:
101,12,60997,1,0,0:0:0:0:
412,140,61167,1,8,0:0:0:0:
203,116,61338,6,0,P|207:185|212:272,1,150.000005722046,8|2,0:0|0:0,0:0:0:0:
152,323,61849,2,0,B|211:311|211:311|281:328,1,119.999996337891,2|10,0:0|0:0,0:0:0:0:
379,354,62190,6,0,B|358:232|358:232|339:292,1,179.999994506836,2|0,0:0|0:0,0:0:0:0:
379,354,62531,2,0,B|436:364|436:364|503:350,1,119.999996337891,8|0,0:0|0:0,0:0:0:0:
503,231,62872,1,2,0:0:0:0:
496,351,63042,1,0,0:0:0:0:
395,63,63213,1,8,0:0:0:0:
402,183,63383,5,6,0:0:0:0:
403,194,63724,1,6,0:0:0:0:
405,205,64065,1,6,0:0:0:0:
406,216,64406,1,6,0:0:0:0:
406,227,64576,5,8,0:0:0:0:
364,222,64661,1,8,0:0:0:0:
321,216,64747,1,8,0:0:0:0:
279,209,64832,1,8,0:0:0:0:
237,203,64917,5,6,0:0:0:0:
113,352,65088,1,0,0:0:0:0:
126,158,65258,1,8,0:0:0:0:
229,322,65428,1,0,0:0:0:0:
49,250,65599,1,2,0:0:0:0:
237,203,65940,6,0,L|335:196,1,75.0000028610231,8|0,0:0|0:0,0:0:0:0:
414,33,66281,1,2,0:0:0:0:
427,227,66451,1,0,0:0:0:0:
303,78,66622,1,8,0:0:0:0:
491,125,66792,1,0,0:0:0:0:
311,197,66963,1,2,0:0:0:0:
311,197,67303,6,0,L|237:203,1,75.0000028610231,8|0,0:0|0:0,0:0:0:0:
140,64,67644,1,6,0:0:0:0:
140,64,67985,1,2,0:0:0:0:
389,137,68156,1,8,0:0:0:0:
165,274,68326,1,2,0:0:0:0:
338,322,68497,1,8,0:0:0:0:
259,221,68667,1,8,0:0:0:0:
259,209,68752,1,8,0:0:0:0:
259,196,68838,1,8,0:0:0:0:
258,184,68923,1,8,0:0:0:0:
258,172,69008,6,0,L|258:40,1,119.999996337891,8|2,0:0|0:0,0:0:0:0:
140,64,69349,1,8,0:0:0:0:
389,137,69519,1,10,0:0:0:0:
259,209,69690,6,0,L|260:328,1,119.999996337891,8|8,0:0|0:0,0:0:0:0:
256,353,70116,6,0,B|228:368|193:336|193:336|150:372|150:372|113:344|62:357,1,179.999994506836
28,306,70372,6,0,P|72:276|131:278,1,100,6|8,0:0|0:0,0:0:0:0:
117,274,70883,1,2,0:0:0:0:
256,353,71053,2,0,B|309:340|309:340|366:362|366:362|426:350,1,170.000003242493,8|8,0:0|0:0,0:0:0:0:
505,165,71735,6,0,P|437:177|383:125,1,150.000005722046,2|8,0:0|0:0,0:0:0:0:
353,21,72247,1,0,0:0:0:0:
321,230,72417,1,8,0:0:0:0:
252,118,72588,1,0,0:0:0:0:
252,118,72673,1,0,0:0:0:0:
252,118,72758,2,0,L|142:128,1,100,8|8,0:0|0:0,0:0:0:0:
54,295,73099,6,0,L|183:304,1,119.999996337891,2|0,0:0|0:0,0:0:0:0:
185,324,73355,1,0,0:0:0:0:
198,349,73440,2,0,B|295:334|295:334|269:318,1,119.999996337891,8|2,0:0|0:0,0:0:0:0:
118,204,73781,1,8,0:0:0:0:
107,379,73951,1,2,0:0:0:0:
118,204,74122,1,8,0:0:0:0:
111,174,74207,1,8,0:0:0:0:
105,144,74292,6,0,B|169:154|169:154|232:142,1,119.999996337891,6|0,0:0|0:0,0:0:0:0:
435,245,74633,2,0,B|371:235|371:235|308:247,1,119.999996337891,6|0,0:0|0:0,0:0:0:0:
223,362,74974,2,0,B|233:298|233:298|221:235,1,119.999996337891,6|0,0:0|0:0,0:0:0:0:
322,25,75315,6,0,B|312:89|312:89|324:152,1,119.999996337891,6|8,0:0|0:0,0:0:0:0:
359,124,75570,1,8,0:0:0:0:
374,81,75656,1,8,0:0:0:0:
362,40,75741,1,8,0:0:0:0:
322,25,75826,6,0,L|189:30,1,119.999996337891,6|0,0:0|0:0,0:0:0:0:
184,54,76082,1,0,0:0:0:0:
166,75,76167,2,0,B|71:63|71:63|95:89,1,119.999996337891,8|0,0:0|0:0,0:0:0:0:
140,169,76508,2,0,B|159:220|159:220|149:298,1,129.000001968384,2|0,0:0|0:0,0:0:0:0:
91,338,76849,2,0,B|148:326|148:326|215:344,1,119.999996337891,8|0,0:0|0:0,0:0:0:0:
456,318,77190,6,0,B|402:336|402:336|329:327,1,119.999996337891,2|0,0:0|0:0,0:0:0:0:
311,243,77445,1,0,0:0:0:0:
305,250,77531,2,0,B|289:192|289:192|304:122,1,119.999996337891,8|0,0:0|0:0,0:0:0:0:
359,66,77872,2,0,B|306:123|231:86,1,134.999995880127,2|0,0:0|0:0,0:0:0:0:
174,33,78213,6,0,B|91:43|91:43|134:61,1,119.999996337891,8|0,0:0|0:0,0:0:0:0:
146,70,78468,1,0,0:0:0:0:
166,80,78553,2,0,L|160:210,1,119.999996337891,12|0,0:0|0:0,0:0:0:0:
132,212,78809,1,0,0:0:0:0:
104,224,78894,6,0,L|110:293,1,59.9999981689454,14|0,0:0|0:0,0:0:0:0:
205,354,79065,2,0,L|211:295,1,59.9999981689454,14|0,0:0|0:0,0:0:0:0:
90,209,79235,6,0,L|96:278,1,59.9999981689454,12|0,0:0|0:0,0:0:0:0:
221,347,79406,2,0,L|227:288,1,59.9999981689454,14|0,0:0|0:0,0:0:0:0:
75,196,79576,6,0,L|81:265,1,59.9999981689454,12|0,0:0|0:0,0:0:0:0:
241,337,79747,2,0,L|247:278,1,59.9999981689454,14|0,0:0|0:0,0:0:0:0:
352,62,79917,6,0,L|360:190,1,119.999996337891,14|0,0:0|0:0,0:0:0:0:
450,205,80173,1,0,0:0:0:0:
450,205,80258,2,0,L|443:334,1,119.999996337891,8|10,0:0|0:0,0:0:0:0:
256,192,80599,12,0,81195,0:0:0:0:
255,186,81281,6,0,P|215:204|172:204,1,85.0000016212464,6|0,0:0|0:0,0:0:0:0:
88,128,81536,1,0,0:0:0:0:
88,128,81622,2,0,P|128:110|171:110,1,85.0000016212464,2|0,0:0|0:0,0:0:0:0:
255,186,81963,2,0,B|252:228|252:228|267:259|267:259|262:310,1,127.50000243187,8|0,0:0|0:0,0:0:0:0:
301,342,82303,2,0,P|261:332|214:344,1,85.0000016212464,2|0,0:0|0:0,0:0:0:0:
128,379,82644,5,8,0:0:0:0:
77,224,82815,1,0,0:0:0:0:
31,320,82985,1,8,0:0:0:0:
182,265,83156,6,0,L|332:264,1,150.000005722046,2|8,0:0|0:0,0:0:0:0:
413,201,83667,1,8,0:0:0:0:
429,301,83838,1,8,0:0:0:0:
452,117,84008,6,0,P|391:105|337:141,1,127.50000243187,2|0,0:0|0:0,0:0:0:0:
331,156,84349,2,0,L|240:151,1,85.0000016212464,0|8,0:0|0:0,0:0:0:0:
166,71,84690,1,8,0:0:0:0:
188,220,84860,1,0,0:0:0:0:
331,156,85031,1,2,0:0:0:0:
316,293,85201,1,8,0:0:0:0:
494,342,85372,5,2,0:0:0:0:
395,358,85542,1,0,0:0:0:0:
316,293,85713,1,8,0:0:0:0:
213,312,85883,1,8,0:0:0:0:
195,315,86053,6,0,L|93:326,1,100,2|8,0:0|0:0,0:0:0:0:
166,71,86735,5,6,0:0:0:0:
166,71,87076,2,0,P|205:91|245:89,1,85.0000016212464,2|8,0:0|0:0,0:0:0:0:
297,156,87417,2,0,P|371:119|458:134,1,170.000003242493,0|8,0:0|0:0,0:0:0:0:
391,212,87928,1,8,0:0:0:0:
296,156,88099,6,0,L|304:70,1,85.0000016212464,2|8,0:0|0:0,0:0:0:0:
391,212,88440,1,0,0:0:0:0:
476,131,88610,2,0,L|484:219,1,85.0000016212464,2|0,0:0|0:0,0:0:0:0:
391,212,88951,1,8,0:0:0:0:
332,285,89122,1,8,0:0:0:0:
239,271,89292,1,8,0:0:0:0:
172,336,89463,6,0,P|104:317|46:360,1,127.50000243187,6|0,0:0|0:0,0:0:0:0:
60,318,89803,1,8,0:0:0:0:
61,292,89889,1,8,0:0:0:0:
64,266,89974,1,8,0:0:0:0:
67,240,90059,1,8,0:0:0:0:
92,218,90144,5,8,0:0:0:0:
90,183,90230,1,8,0:0:0:0:
88,149,90315,1,8,0:0:0:0:
87,115,90400,1,8,0:0:0:0:
63,79,90485,5,8,0:0:0:0:
96,53,90570,1,8,0:0:0:0:
138,53,90656,1,8,0:0:0:0:
172,77,90741,1,8,0:0:0:0:
189,115,90826,6,2,L|283:110,1,85.0000016212464,2|10,0:0|0:0,0:0:0:0:
417,219,91167,2,0,L|314:211,1,85.0000016212464,2|8,0:0|0:0,0:0:0:0:
256,339,91508,2,0,B|202:323|174:358|174:358|216:368,1,127.50000243187
256,339,91849,6,0,B|298:293|220:221|268:169,1,165.000005035401,8|0,0:0|0:0,0:0:0:0:
337,93,92190,5,6,0:0:0:0:
426,149,92360,1,0,0:0:0:0:
422,184,92445,1,0,0:0:0:0:
417,219,92531,1,8,0:0:0:0:
335,194,92701,1,0,0:0:0:0:
502,212,92872,2,0,L|512:342,1,119.999996337891,2|0,0:0|0:0,0:0:0:0:
322,278,93213,2,0,P|263:253|203:265,1,119.999996337891,8|0,0:0|0:0,0:0:0:0:
418,307,93553,5,2,0:0:0:0:
256,339,93724,1,0,0:0:0:0:
63,273,93894,1,8,0:0:0:0:
212,98,94065,6,0,L|208:251,1,150.000005722046,8|2,0:0|0:0,0:0:0:0:
195,266,94576,6,0,B|141:293|141:293|57:280,1,119.999996337891,8|2,0:0|0:0,0:0:0:0:
13,109,94917,1,2,0:0:0:0:
195,266,95258,1,8,0:0:0:0:
13,109,95428,1,2,0:0:0:0:
212,98,95599,5,2,0:0:0:0:
63,273,95769,1,2,0:0:0:0:
212,98,95940,1,8,0:0:0:0:
417,234,96110,1,2,0:0:0:0:
512,19,96281,5,2,0:0:0:0:
318,169,96451,1,2,0:0:0:0:
470,125,96622,1,8,0:0:0:0:
212,98,96792,1,2,0:0:0:0:
492,258,96963,5,0,0:0:0:0:
470,294,97048,1,0,0:0:0:0:
433,313,97133,1,0,0:0:0:0:
391,313,97218,1,0,0:0:0:0:
354,291,97303,2,0,B|296:280|296:280|223:306,1,119.999996337891,8|2,0:0|0:0,0:0:0:0:
4,328,97644,6,0,B|68:320|68:320|131:354,1,119.999996337891,2|0,0:0|0:0,0:0:0:0:
146,216,97985,1,8,0:0:0:0:
131,356,98156,2,0,P|191:356|246:305,1,119.999996337891
146,216,98497,1,2,0:0:0:0:
312,364,98667,1,8,0:0:0:0:
359,143,98838,1,2,0:0:0:0:
503,48,99008,6,0,B|441:52|441:52|380:18,1,119.999996337891,2|0,0:0|0:0,0:0:0:0:
359,143,99349,1,8,0:0:0:0:
372,17,99520,2,0,P|312:17|257:68,1,119.999996337891
359,143,99860,1,2,0:0:0:0:
252,78,100031,2,0,L|261:216,1,119.999996337891,8|2,0:0|0:0,0:0:0:0:
417,352,100372,6,0,L|420:216,1,119.999996337891,6|0,0:0|0:0,0:0:0:0:
326,288,100713,1,0,0:0:0:0:
512,301,100883,1,8,0:0:0:0:
252,78,101053,1,0,0:0:0:0:
326,288,101224,1,8,0:0:0:0:
488,62,101394,2,0,L|486:200,1,119.999996337891,0|8,0:0|0:0,0:0:0:0:
362,205,101735,6,0,P|298:200|243:241,1,119.999996337891,8|2,0:0|0:0,0:0:0:0:
179,384,102076,1,8,0:0:0:0:
142,155,102247,1,2,0:0:0:0:
236,255,102417,6,0,L|113:268,1,119.999996337891,8|2,0:0|0:0,0:0:0:0:
34,256,103099,6,0,P|97:260|136:313,1,119.999996337891,6|0,0:0|0:0,0:0:0:0:
179,384,103326,1,0,0:0:0:0:
179,384,103383,1,0,0:0:0:0:
179,384,103440,2,0,L|312:373,1,119.999996337891,8|2,0:0|0:0,0:0:0:0:
507,235,103781,1,2,0:0:0:0:
352,219,103951,1,2,0:0:0:0:
152,91,104122,1,8,0:0:0:0:
300,71,104292,1,2,0:0:0:0:
422,282,104463,5,2,0:0:0:0:
439,53,104633,1,0,0:0:0:0:
439,53,104690,1,0,0:0:0:0:
439,53,104747,1,0,0:0:0:0:
439,53,104803,2,0,L|432:186,1,119.999996337891,8|2,0:0|0:0,0:0:0:0:
265,356,105144,2,0,L|258:236,1,119.999996337891,2|2,0:0|0:0,0:0:0:0:
69,135,105485,2,0,L|63:293,1,119.999996337891,8|2,0:0|0:0,0:0:0:0:
195,312,105826,6,0,P|246:278|325:298,1,119.999996337891,2|0,0:0|0:0,0:0:0:0:
319,293,106053,1,0,0:0:0:0:
332,307,106110,1,0,0:0:0:0:
342,324,106167,2,0,L|468:317,1,119.999996337891,8|2,0:0|0:0,0:0:0:0:
475,119,106508,2,0,P|422:124|367:77,1,119.999996337891,2|2,0:0|0:0,0:0:0:0:
263,12,106735,1,0,0:0:0:0:
263,12,106792,1,0,0:0:0:0:
263,12,106849,2,0,L|216:16,2,37.5000014305115,10|0|0,0:0|0:0|0:0,0:0:0:0:
258,153,107019,1,2,0:0:0:0:
258,153,107360,5,0,0:0:0:0:
258,153,107417,1,0,0:0:0:0:
258,153,107474,1,0,0:0:0:0:
258,153,107531,2,0,L|255:235,1,75.0000028610231,2|2,0:0|0:0,0:0:0:0:
154,92,107872,6,0,L|169:197,1,100,2|2,0:0|0:0,0:0:0:0:
35,71,108213,6,0,L|76:190,1,119.999996337891,2|2,0:0|0:0,0:0:0:0:
118,298,108553,6,0,P|172:283|231:328,1,119.999996337891,2|0,0:0|0:0,0:0:0:0:
232,333,108781,1,0,0:0:0:0:
239,351,108838,1,0,0:0:0:0:
245,369,108894,2,0,L|381:363,1,119.999996337891,8|2,0:0|0:0,0:0:0:0:
490,203,109235,2,0,L|354:197,1,119.999996337891,2|2,0:0|0:0,0:0:0:0:
233,40,109576,2,0,L|369:34,1,119.999996337891,8|2,0:0|0:0,0:0:0:0:
225,168,109917,5,2,0:0:0:0:
72,91,110088,1,0,0:0:0:0:
72,91,110144,1,0,0:0:0:0:
72,91,110201,1,0,0:0:0:0:
72,91,110258,2,0,L|80:212,1,119.999996337891,8|2,0:0|0:0,0:0:0:0:
222,316,110599,1,2,0:0:0:0:
225,168,110769,1,2,0:0:0:0:
376,61,110940,1,8,0:0:0:0:
397,232,111110,1,2,0:0:0:0:
276,47,111281,5,10,0:0:0:0:
343,338,111451,1,10,0:0:0:0:
343,338,111792,1,10,0:0:0:0:
68,246,111963,1,10,0:0:0:0:
68,246,112303,1,10,0:0:0:0:
416,146,112474,1,10,0:0:0:0:
395,280,112644,6,0,P|329:261|269:305,1,139.999995727539,2|2,0:0|0:0,0:0:0:0:
264,314,112872,1,0,0:0:0:0:
255,330,112928,1,0,0:0:0:0:
246,346,112985,2,0,L|87:354,1,139.999995727539,2|2,0:0|0:0,0:0:0:0:
30,141,113326,6,0,L|185:131,1,150.000005722046,2|2,0:0|0:0,0:0:0:0:
395,280,114017,1,4,0:0:0:0:
395,280,114791,5,2,0:0:0:0:
319,255,114984,1,0,0:0:0:0:
237,253,115178,1,2,0:0:0:0:
157,281,115371,1,0,0:0:0:0:
104,340,115565,1,2,0:0:0:0:
104,340,116392,5,2,0:0:0:0:
149,274,116599,1,0,0:0:0:0:
155,190,116806,1,2,0:0:0:0:
136,112,117013,1,0,0:0:0:0:
65,57,117220,6,0,L|59:159,1,100,2|0,0:0|0:0,0:0:0:0:
221,324,118077,5,2,0:0:0:0:
271,246,118291,1,0,0:0:0:0:
271,246,118362,1,0,0:0:0:0:
271,246,118434,1,0,0:0:0:0:
271,246,118505,2,0,L|389:238,1,100,2|0,0:0|0:0,0:0:0:0:
401,350,118934,5,2,0:0:0:0:
221,324,119206,1,0,0:0:0:0:
190,147,119479,1,2,0:0:0:0:
350,62,119752,1,0,0:0:0:0:
479,187,120024,6,0,L|484:242,1,50,2|0,0:0|0:0,0:0:0:0:
