osu file format v14

[General]
AudioFilename: Song.mp3
AudioLeadIn: 0
PreviewTime: 48221
Countdown: 1
SampleSet: Normal
StackLeniency: 0.7
Mode: 1
LetterboxInBreaks: 0
WidescreenStoryboard: 1

[Editor]
DistanceSpacing: 1.1
BeatDivisor: 4
GridSize: 32
TimelineZoom: 2.6

[Metadata]
Title:Hana Kagerou
TitleUnicode:華陽炎 -Hana Kagerou-
Artist:Minamotoya feat. Kuroa*
ArtistUnicode:源屋 feat. Kuroa*
Creator:Ni-Sokkususu
Version:Bloom
Source:SOUND VOLTEX II -infinite infection-
Tags:sdvx
BeatmapID:1047998
BeatmapSetID:491879

[Difficulty]
HPDrainRate:5
CircleSize:5
OverallDifficulty:5
ApproachRate:5
SliderMultiplier:1.4
SliderTickRate:1

[Events]
//Background and Video events
0,0,"bg.jpg",0,0
//Break Periods
//Storyboard Layer 0 (Background)
//Storyboard Layer 1 (Fail)
//Storyboard Layer 2 (Pass)
//Storyboard Layer 3 (Foreground)
//Storyboard Sound Samples

[TimingPoints]
4,352.941176470588,4,1,1,50,1,0
7062,413.793103448276,4,1,1,45,1,0
7062,-95.2380952380952,4,1,1,45,0,0
8717,480,4,1,1,40,1,0
8717,-93.4579439252336,4,1,1,40,0,0
10637,545.454545454546,4,1,1,35,1,0
10637,-90.9090909090909,4,1,1,35,0,0
11727,705.882352941176,4,1,1,30,1,0
11727,-88.4955752212389,4,1,1,30,0,0
13138,666.666666666667,4,1,1,25,1,0
13138,-90.0900900900901,4,1,1,25,0,0
14471,340.909090909091,4,1,1,80,1,0
15834,-100,4,1,1,80,0,1
26743,-100,4,2,1,60,0,0
48135,-100,4,1,1,80,0,0
48561,-100,4,1,1,80,0,1
59044,-100,4,2,1,60,0,0
59428,-100,4,1,1,80,0,1
67567,-100,4,2,1,60,0,1
70209,-100,4,1,1,80,0,1
70380,-100,4,1,1,80,0,0
74215,-100,4,2,1,60,0,0
75792,-100,4,1,1,80,0,0
78135,-100,4,2,1,60,0,0
80777,-100,4,1,1,80,0,0
92198,-100,4,1,1,80,0,1
94840,-100,4,2,1,60,0,1
97610,-100,4,1,1,80,0,1
101658,-100,4,2,1,60,0,1
102596,-100,4,1,1,80,0,1
102766,-100,4,1,1,80,0,0
103107,-100,4,1,1,80,0,1
114016,387.096774193548,4,1,1,80,1,0
115564,413.793103448276,4,1,1,80,1,0
117219,428.571428571429,4,1,1,80,1,0
118076,-108.695652173913,4,1,1,80,0,0
118719,-117.647058823529,4,1,1,80,0,0
118933,545.454545454546,4,1,1,80,1,0
119205,-111.111111111111,4,1,1,80,0,0
119478,-133.333333333333,4,1,1,80,0,0
119751,-166.666666666667,4,1,1,80,0,0
120023,-50,4,1,1,80,0,1
120092,-50,4,1,1,80,0,0

[HitObjects]
256,192,1062,5,0,0:0:0:0:
256,192,1239,1,0,0:0:0:0:
256,192,1415,1,8,0:0:0:0:
256,192,1592,1,0,0:0:0:0:
256,192,1680,1,0,0:0:0:0:
256,192,1768,1,8,0:0:0:0:
256,192,1945,1,0,0:0:0:0:
256,192,2121,1,8,0:0:0:0:
256,192,2474,1,8,0:0:0:0:
256,192,2651,1,0,0:0:0:0:
256,192,2827,1,8,0:0:0:0:
256,192,3003,1,8,0:0:0:0:
256,192,3180,1,0,0:0:0:0:
256,192,3356,1,8,0:0:0:0:
256,192,3886,1,0,0:0:0:0:
256,192,4062,1,8,0:0:0:0:
256,192,4239,1,8,0:0:0:0:
256,192,4592,1,0,0:0:0:0:
256,192,4768,1,8,0:0:0:0:
256,192,4945,1,8,0:0:0:0:
256,192,5121,1,0,0:0:0:0:
256,192,5298,1,8,0:0:0:0:
256,192,5474,1,0,0:0:0:0:
256,192,5651,1,8,0:0:0:0:
256,192,5827,1,0,0:0:0:0:
256,192,6004,1,0,0:0:0:0:
256,192,6180,1,8,0:0:0:0:
256,192,6357,1,0,0:0:0:0:
256,192,6709,1,0,0:0:0:0:
256,192,6886,1,8,0:0:0:0:
256,192,7062,1,0,0:0:0:0:
256,192,7268,1,8,0:0:0:0:
256,192,7475,1,8,0:0:0:0:
256,192,7682,1,0,0:0:0:0:
256,192,7889,1,8,0:0:0:0:
256,192,8303,1,0,0:0:0:0:
256,192,8510,1,8,0:0:0:0:
256,192,8717,1,8,0:0:0:0:
256,192,8957,1,0,0:0:0:0:
256,192,9197,1,8,0:0:0:0:
256,192,9437,1,8,0:0:0:0:
256,192,9677,1,0,0:0:0:0:
256,192,10157,1,0,0:0:0:0:
256,192,10397,1,8,0:0:0:0:
256,192,10637,1,8,0:0:0:0:
256,192,11182,1,0,0:0:0:0:
256,192,11455,1,8,0:0:0:0:
256,192,11727,1,0,0:0:0:0:
256,192,12432,1,8,0:0:0:0:
256,192,13138,1,8,0:0:0:0:
256,192,13804,1,0,0:0:0:0:
256,192,14471,1,12,0:0:0:0:
256,192,14641,1,12,0:0:0:0:
256,192,14811,1,12,0:0:0:0:
256,192,14982,1,12,0:0:0:0:
256,192,15152,1,8,0:0:0:0:
256,192,15238,1,8,0:0:0:0:
256,192,15323,1,8,0:0:0:0:
256,192,15408,1,8,0:0:0:0:
256,192,15493,1,8,0:0:0:0:
256,192,15578,1,8,0:0:0:0:
256,192,15664,1,8,0:0:0:0:
256,192,15749,1,8,0:0:0:0:
256,192,15834,1,4,0:0:0:0:
256,192,16005,1,8,0:0:0:0:
256,192,16061,1,0,0:0:0:0:
256,192,16118,1,0,0:0:0:0:
256,192,16175,1,0,0:0:0:0:
256,192,16346,1,8,0:0:0:0:
256,192,16516,1,0,0:0:0:0:
256,192,16686,1,0,0:0:0:0:
256,192,16772,1,0,0:0:0:0:
256,192,16857,1,8,0:0:0:0:
256,192,17027,1,0,0:0:0:0:
256,192,17198,1,8,0:0:0:0:
256,192,17368,1,8,0:0:0:0:
256,192,17425,1,0,0:0:0:0:
256,192,17482,1,8,0:0:0:0:
256,192,17539,1,0,0:0:0:0:
256,192,17709,1,0,0:0:0:0:
256,192,17880,1,8,0:0:0:0:
256,192,17965,1,0,0:0:0:0:
256,192,18050,1,8,0:0:0:0:
256,192,18107,1,8,0:0:0:0:
256,192,18164,1,0,0:0:0:0:
256,192,18221,1,8,0:0:0:0:
256,192,18391,1,0,0:0:0:0:
256,192,18561,1,8,0:0:0:0:
256,192,18732,1,0,0:0:0:0:
256,192,18789,1,0,0:0:0:0:
256,192,18846,1,0,0:0:0:0:
256,192,18902,1,8,0:0:0:0:
256,192,19073,1,0,0:0:0:0:
256,192,19243,1,8,0:0:0:0:
256,192,19414,1,8,0:0:0:0:
256,192,19471,1,8,0:0:0:0:
256,192,19527,1,8,0:0:0:0:
256,192,19584,1,0,0:0:0:0:
256,192,19755,1,0,0:0:0:0:
256,192,19811,1,8,0:0:0:0:
256,192,19868,1,8,0:0:0:0:
256,192,19925,1,0,0:0:0:0:
256,192,20096,1,0,0:0:0:0:
256,192,20181,1,0,0:0:0:0:
256,192,20266,1,8,0:0:0:0:
256,192,20436,1,0,0:0:0:0:
256,192,20607,1,8,0:0:0:0:
256,192,20777,1,0,0:0:0:0:
256,192,20863,1,0,0:0:0:0:
256,192,20948,1,8,0:0:0:0:
256,192,21118,1,0,0:0:0:0:
256,192,21289,1,4,0:0:0:0:
256,192,21459,1,8,0:0:0:0:
256,192,21516,1,8,0:0:0:0:
256,192,21573,1,8,0:0:0:0:
256,192,21630,1,0,0:0:0:0:
256,192,21800,1,0,0:0:0:0:
256,192,21971,1,0,0:0:0:0:
256,192,22056,1,0,0:0:0:0:
256,192,22141,1,8,0:0:0:0:
256,192,22226,1,0,0:0:0:0:
256,192,22311,1,8,0:0:0:0:
256,192,22397,1,8,0:0:0:0:
256,192,22482,1,0,0:0:0:0:
256,192,22652,1,12,0:0:0:0:
256,192,22823,1,8,0:0:0:0:
256,192,22880,1,0,0:0:0:0:
256,192,22936,1,0,0:0:0:0:
256,192,22993,1,8,0:0:0:0:
256,192,23164,1,8,0:0:0:0:
256,192,23334,1,0,0:0:0:0:
256,192,23419,1,8,0:0:0:0:
256,192,23505,1,8,0:0:0:0:
256,192,23590,1,0,0:0:0:0:
256,192,23675,1,8,0:0:0:0:
256,192,23760,1,8,0:0:0:0:
256,192,23846,1,0,0:0:0:0:
256,192,24016,1,12,0:0:0:0:
256,192,24186,1,12,0:0:0:0:
256,192,24527,1,12,0:0:0:0:
256,192,24698,1,12,0:0:0:0:
256,192,25039,1,12,0:0:0:0:
256,192,25209,1,12,0:0:0:0:
256,192,25380,1,8,0:0:0:0:
256,192,25550,1,8,0:0:0:0:
256,192,25607,1,8,0:0:0:0:
256,192,25664,1,8,0:0:0:0:
256,192,25721,1,0,0:0:0:0:
256,192,25891,1,0,0:0:0:0:
256,192,26061,1,8,0:0:0:0:
256,192,26147,1,8,0:0:0:0:
256,192,26232,1,0,0:0:0:0:
256,192,26317,1,0,0:0:0:0:
256,192,26402,1,0,0:0:0:0:
256,192,26488,1,0,0:0:0:0:
256,192,26573,1,8,0:0:0:0:
256,192,26658,1,8,0:0:0:0:
256,192,26743,1,4,0:0:0:0:
256,192,27255,1,0,0:0:0:0:
256,192,27425,1,8,0:0:0:0:
256,192,28107,1,0,0:0:0:0:
256,192,28363,1,0,0:0:0:0:
256,192,28618,1,0,0:0:0:0:
256,192,28789,1,8,0:0:0:0:
256,192,29300,1,0,0:0:0:0:
256,192,29471,1,0,0:0:0:0:
256,192,29982,1,0,0:0:0:0:
256,192,30152,1,8,0:0:0:0:
256,192,30664,1,8,0:0:0:0:
256,192,30834,1,12,0:0:0:0:
256,192,31090,1,12,0:0:0:0:
256,192,31346,1,12,0:0:0:0:
256,192,31516,1,8,0:0:0:0:
256,192,31686,1,0,0:0:0:0:
256,192,31857,1,8,0:0:0:0:
256,192,31942,1,8,0:0:0:0:
256,192,32027,1,8,0:0:0:0:
256,192,32113,1,8,0:0:0:0:
256,192,32198,1,4,0:0:0:0:
256,192,32368,1,0,0:0:0:0:
256,192,32539,1,8,0:0:0:0:
256,192,32709,1,0,0:0:0:0:
256,192,32880,1,0,0:0:0:0:
256,192,33050,1,0,0:0:0:0:
256,192,33135,1,0,0:0:0:0:
256,192,33221,1,8,0:0:0:0:
256,192,33391,1,0,0:0:0:0:
256,192,33561,1,0,0:0:0:0:
256,192,33647,1,0,0:0:0:0:
256,192,33817,1,0,0:0:0:0:
256,192,33902,1,8,0:0:0:0:
256,192,34073,1,0,0:0:0:0:
256,192,34158,1,0,0:0:0:0:
256,192,34243,1,8,0:0:0:0:
256,192,34328,1,0,0:0:0:0:
256,192,34414,1,0,0:0:0:0:
256,192,34499,1,0,0:0:0:0:
256,192,34584,1,8,0:0:0:0:
256,192,34755,1,0,0:0:0:0:
256,192,34925,1,8,0:0:0:0:
256,192,34982,1,0,0:0:0:0:
256,192,35039,1,0,0:0:0:0:
256,192,35096,1,0,0:0:0:0:
256,192,35266,1,0,0:0:0:0:
256,192,35436,1,8,0:0:0:0:
256,192,35607,1,0,0:0:0:0:
256,192,35692,1,0,0:0:0:0:
256,192,35777,1,8,0:0:0:0:
256,192,35948,1,0,0:0:0:0:
256,192,36118,1,12,0:0:0:0:
256,192,36459,1,12,0:0:0:0:
256,192,36630,1,0,0:0:0:0:
256,192,36800,1,12,0:0:0:0:
256,192,36971,1,8,0:0:0:0:
256,192,37056,1,0,0:0:0:0:
256,192,37141,1,8,0:0:0:0:
256,192,37226,1,0,0:0:0:0:
256,192,37311,1,8,0:0:0:0:
256,192,37397,1,8,0:0:0:0:
256,192,37482,1,8,0:0:0:0:
256,192,37567,1,8,0:0:0:0:
256,192,37652,1,4,0:0:0:0:
256,192,37908,1,0,0:0:0:0:
256,192,37993,1,8,0:0:0:0:
256,192,38164,1,0,0:0:0:0:
256,192,38334,1,12,0:0:0:0:
256,192,38846,1,8,0:0:0:0:
256,192,38931,1,8,0:0:0:0:
256,192,39016,1,4,0:0:0:0:
256,192,39186,1,8,0:0:0:0:
256,192,39357,1,0,0:0:0:0:
256,192,39527,1,0,0:0:0:0:
256,192,39698,1,12,0:0:0:0:
256,192,40039,1,0,0:0:0:0:
256,192,40209,1,8,0:0:0:0:
256,192,40380,1,4,0:0:0:0:
256,192,40721,1,8,0:0:0:0:
256,192,40891,1,0,0:0:0:0:
256,192,40976,1,0,0:0:0:0:
256,192,41061,1,0,0:0:0:0:
256,192,41232,1,0,0:0:0:0:
256,192,41402,1,8,0:0:0:0:
256,192,41573,1,4,0:0:0:0:
256,192,41914,1,4,0:0:0:0:
256,192,42255,1,4,0:0:0:0:
256,192,42596,1,4,0:0:0:0:
256,192,42766,1,4,0:0:0:0:
256,192,42936,1,8,0:0:0:0:
256,192,43022,1,8,0:0:0:0:
256,192,43107,1,4,0:0:0:0:
256,192,43277,1,0,0:0:0:0:
256,192,43363,1,0,0:0:0:0:
256,192,43448,1,8,0:0:0:0:
256,192,43618,1,0,0:0:0:0:
256,192,43789,1,8,0:0:0:0:
256,192,43959,1,8,0:0:0:0:
256,192,44044,1,8,0:0:0:0:
256,192,44130,1,0,0:0:0:0:
256,192,44300,1,8,0:0:0:0:
256,192,44471,1,4,0:0:0:0:
256,192,44641,1,8,0:0:0:0:
256,192,44726,1,0,0:0:0:0:
256,192,44811,1,8,0:0:0:0:
256,192,44897,1,8,0:0:0:0:
256,192,44982,1,0,0:0:0:0:
256,192,45152,1,0,0:0:0:0:
256,192,45238,1,0,0:0:0:0:
256,192,45323,1,8,0:0:0:0:
256,192,45408,1,0,0:0:0:0:
256,192,45493,1,8,0:0:0:0:
256,192,45664,1,8,0:0:0:0:
256,192,45834,1,4,0:0:0:0:
256,192,46005,1,4,0:0:0:0:
256,192,46346,1,4,0:0:0:0:
256,192,46517,1,4,0:0:0:0:
256,192,46857,1,4,0:0:0:0:
256,192,47028,1,4,0:0:0:0:
256,192,47368,1,8,0:0:0:0:
256,192,47539,1,8,0:0:0:0:
256,192,47880,1,8,0:0:0:0:
256,192,48221,1,0,0:0:0:0:
256,192,48561,1,4,0:0:0:0:
256,192,48732,1,0,0:0:0:0:
256,192,48817,1,0,0:0:0:0:
256,192,48902,1,8,0:0:0:0:
256,192,49073,1,0,0:0:0:0:
256,192,49243,1,8,0:0:0:0:
256,192,49414,1,0,0:0:0:0:
256,192,49499,1,0,0:0:0:0:
256,192,49584,1,8,0:0:0:0:
256,192,49669,1,0,0:0:0:0:
256,192,49755,1,8,0:0:0:0:
256,192,49840,1,0,0:0:0:0:
256,192,49925,1,8,0:0:0:0:
256,192,50010,1,8,0:0:0:0:
256,192,50096,1,0,0:0:0:0:
256,192,50181,1,8,0:0:0:0:
256,192,50266,1,0,0:0:0:0:
256,192,50436,1,8,0:0:0:0:
256,192,50522,1,0,0:0:0:0:
256,192,50607,1,0,0:0:0:0:
256,192,50692,1,0,0:0:0:0:
256,192,50777,1,8,0:0:0:0:
256,192,50863,1,0,0:0:0:0:
256,192,50948,1,8,0:0:0:0:
256,192,51033,1,8,0:0:0:0:
256,192,51118,1,0,0:0:0:0:
256,192,51203,1,8,0:0:0:0:
256,192,51289,1,0,0:0:0:0:
256,192,51459,1,0,0:0:0:0:
256,192,51544,1,0,0:0:0:0:
256,192,51630,1,8,0:0:0:0:
256,192,51800,1,0,0:0:0:0:
256,192,51971,1,8,0:0:0:0:
256,192,52141,1,8,0:0:0:0:
256,192,52198,1,0,0:0:0:0:
256,192,52255,1,0,0:0:0:0:
256,192,52311,1,8,0:0:0:0:
256,192,52482,1,8,0:0:0:0:
256,192,52567,1,8,0:0:0:0:
256,192,52652,1,0,0:0:0:0:
256,192,52823,1,8,0:0:0:0:
256,192,52908,1,0,0:0:0:0:
256,192,52993,1,8,0:0:0:0:
256,192,53078,1,0,0:0:0:0:
256,192,53164,1,8,0:0:0:0:
256,192,53249,1,8,0:0:0:0:
256,192,53334,1,8,0:0:0:0:
256,192,53419,1,0,0:0:0:0:
256,192,53505,1,0,0:0:0:0:
256,192,53590,1,0,0:0:0:0:
256,192,53675,1,8,0:0:0:0:
256,192,53760,1,8,0:0:0:0:
256,192,53846,1,8,0:0:0:0:
256,192,53931,1,8,0:0:0:0:
256,192,54016,1,0,0:0:0:0:
256,192,54186,1,8,0:0:0:0:
256,192,54272,1,0,0:0:0:0:
256,192,54357,1,8,0:0:0:0:
256,192,54442,1,8,0:0:0:0:
256,192,54527,1,0,0:0:0:0:
256,192,54613,1,0,0:0:0:0:
256,192,54698,1,8,0:0:0:0:
256,192,54868,1,0,0:0:0:0:
256,192,54953,1,0,0:0:0:0:
256,192,55039,1,8,0:0:0:0:
256,192,55209,1,8,0:0:0:0:
256,192,55294,1,8,0:0:0:0:
256,192,55380,1,8,0:0:0:0:
256,192,55465,1,0,0:0:0:0:
256,192,55550,1,8,0:0:0:0:
256,192,55635,1,0,0:0:0:0:
256,192,55721,1,8,0:0:0:0:
256,192,55806,1,8,0:0:0:0:
256,192,55891,1,0,0:0:0:0:
256,192,55976,1,8,0:0:0:0:
256,192,56061,1,0,0:0:0:0:
256,192,56232,1,0,0:0:0:0:
256,192,56317,1,8,0:0:0:0:
256,192,56402,1,0,0:0:0:0:
256,192,56573,1,8,0:0:0:0:
256,192,56743,1,0,0:0:0:0:
256,192,56828,1,0,0:0:0:0:
256,192,56914,1,0,0:0:0:0:
256,192,56999,1,0,0:0:0:0:
256,192,57084,1,8,0:0:0:0:
256,192,57169,1,0,0:0:0:0:
256,192,57255,1,8,0:0:0:0:
256,192,57340,1,8,0:0:0:0:
256,192,57425,1,0,0:0:0:0:
256,192,57510,1,0,0:0:0:0:
256,192,57596,1,8,0:0:0:0:
256,192,57681,1,0,0:0:0:0:
256,192,57766,1,8,0:0:0:0:
256,192,57851,1,8,0:0:0:0:
256,192,57936,1,4,0:0:0:0:
256,192,58277,1,4,0:0:0:0:
256,192,58618,1,4,0:0:0:0:
256,192,58959,1,4,0:0:0:0:
256,192,59130,1,8,0:0:0:0:
256,192,59215,1,8,0:0:0:0:
256,192,59300,1,8,0:0:0:0:
256,192,59385,1,8,0:0:0:0:
256,192,59471,1,4,0:0:0:0:
256,192,59641,1,8,0:0:0:0:
256,192,59726,1,8,0:0:0:0:
256,192,59811,1,0,0:0:0:0:
256,192,59897,1,8,0:0:0:0:
256,192,59982,1,0,0:0:0:0:
256,192,60067,1,0,0:0:0:0:
256,192,60152,1,8,0:0:0:0:
256,192,60323,1,0,0:0:0:0:
256,192,60408,1,0,0:0:0:0:
256,192,60493,1,8,0:0:0:0:
256,192,60578,1,0,0:0:0:0:
256,192,60664,1,8,0:0:0:0:
256,192,60834,1,8,0:0:0:0:
256,192,60919,1,8,0:0:0:0:
256,192,61005,1,0,0:0:0:0:
256,192,61090,1,0,0:0:0:0:
256,192,61175,1,8,0:0:0:0:
256,192,61260,1,0,0:0:0:0:
256,192,61345,1,8,0:0:0:0:
256,192,61431,1,8,0:0:0:0:
256,192,61516,1,0,0:0:0:0:
256,192,61686,1,8,0:0:0:0:
256,192,61772,1,0,0:0:0:0:
256,192,61857,1,8,0:0:0:0:
256,192,61942,1,8,0:0:0:0:
256,192,62027,1,0,0:0:0:0:
256,192,62112,1,8,0:0:0:0:
256,192,62198,1,0,0:0:0:0:
256,192,62368,1,0,0:0:0:0:
256,192,62453,1,0,0:0:0:0:
256,192,62539,1,8,0:0:0:0:
256,192,62709,1,8,0:0:0:0:
256,192,62880,1,0,0:0:0:0:
256,192,62965,1,8,0:0:0:0:
256,192,63050,1,8,0:0:0:0:
256,192,63107,1,0,0:0:0:0:
256,192,63164,1,0,0:0:0:0:
256,192,63220,1,8,0:0:0:0:
256,192,63391,1,8,0:0:0:0:
256,192,63476,1,8,0:0:0:0:
256,192,63561,1,8,0:0:0:0:
256,192,63647,1,0,0:0:0:0:
256,192,63732,1,8,0:0:0:0:
256,192,63817,1,0,0:0:0:0:
256,192,63902,1,8,0:0:0:0:
256,192,63987,1,0,0:0:0:0:
256,192,64073,1,8,0:0:0:0:
256,192,64158,1,8,0:0:0:0:
256,192,64243,1,0,0:0:0:0:
256,192,64328,1,8,0:0:0:0:
256,192,64414,1,0,0:0:0:0:
256,192,64499,1,0,0:0:0:0:
256,192,64584,1,8,0:0:0:0:
256,192,64669,1,8,0:0:0:0:
256,192,64755,1,8,0:0:0:0:
256,192,64840,1,8,0:0:0:0:
256,192,64925,1,0,0:0:0:0:
256,192,65095,1,8,0:0:0:0:
256,192,65181,1,0,0:0:0:0:
256,192,65266,1,8,0:0:0:0:
256,192,65351,1,8,0:0:0:0:
256,192,65436,1,0,0:0:0:0:
256,192,65522,1,0,0:0:0:0:
256,192,65607,1,8,0:0:0:0:
256,192,65777,1,0,0:0:0:0:
256,192,65948,1,12,0:0:0:0:
256,192,66118,1,8,0:0:0:0:
256,192,66203,1,8,0:0:0:0:
256,192,66289,1,8,0:0:0:0:
256,192,66374,1,0,0:0:0:0:
256,192,66459,1,8,0:0:0:0:
256,192,66544,1,0,0:0:0:0:
256,192,66630,1,8,0:0:0:0:
256,192,66715,1,8,0:0:0:0:
256,192,66800,1,0,0:0:0:0:
256,192,66885,1,8,0:0:0:0:
256,192,66970,1,0,0:0:0:0:
256,192,67141,1,0,0:0:0:0:
256,192,67311,1,12,0:0:0:0:
256,192,67482,1,8,0:0:0:0:
256,192,67652,1,0,0:0:0:0:
256,192,67737,1,0,0:0:0:0:
256,192,67823,1,8,0:0:0:0:
256,192,67908,1,0,0:0:0:0:
256,192,67993,1,8,0:0:0:0:
256,192,68078,1,0,0:0:0:0:
256,192,68164,1,8,0:0:0:0:
256,192,68249,1,8,0:0:0:0:
256,192,68334,1,0,0:0:0:0:
256,192,68419,1,0,0:0:0:0:
256,192,68505,1,8,0:0:0:0:
256,192,68590,1,0,0:0:0:0:
256,192,68675,1,8,0:0:0:0:
256,192,68760,1,8,0:0:0:0:
256,192,68845,1,8,0:0:0:0:
256,192,69016,1,12,0:0:0:0:
256,192,69186,1,12,0:0:0:0:
256,192,69357,1,12,0:0:0:0:
256,192,69527,1,12,0:0:0:0:
256,192,69698,1,8,0:0:0:0:
256,192,69783,1,8,0:0:0:0:
256,192,69868,1,0,0:0:0:0:
256,192,69953,1,0,0:0:0:0:
256,192,70039,1,8,0:0:0:0:
256,192,70380,1,4,0:0:0:0:
256,192,70721,1,0,0:0:0:0:
256,192,70891,1,0,0:0:0:0:
256,192,71061,1,8,0:0:0:0:
256,192,71402,1,0,0:0:0:0:
256,192,71743,1,0,0:0:0:0:
256,192,72084,1,8,0:0:0:0:
256,192,72255,1,0,0:0:0:0:
256,192,72425,1,8,0:0:0:0:
256,192,72596,1,8,0:0:0:0:
256,192,72652,1,0,0:0:0:0:
256,192,72709,1,0,0:0:0:0:
256,192,72766,1,8,0:0:0:0:
256,192,72936,1,0,0:0:0:0:
256,192,73107,1,8,0:0:0:0:
256,192,73278,1,8,0:0:0:0:
256,192,73334,1,0,0:0:0:0:
256,192,73391,1,8,0:0:0:0:
256,192,73448,1,0,0:0:0:0:
256,192,73618,1,8,0:0:0:0:
256,192,73789,1,8,0:0:0:0:
256,192,73960,1,8,0:0:0:0:
256,192,74016,1,8,0:0:0:0:
256,192,74073,1,8,0:0:0:0:
256,192,74130,1,0,0:0:0:0:
256,192,74300,1,12,0:0:0:0:
256,192,74641,1,12,0:0:0:0:
256,192,74982,1,12,0:0:0:0:
256,192,75323,1,12,0:0:0:0:
256,192,75493,1,8,0:0:0:0:
256,192,75578,1,8,0:0:0:0:
256,192,75664,1,8,0:0:0:0:
256,192,75749,1,8,0:0:0:0:
256,192,75834,1,4,0:0:0:0:
256,192,76005,1,8,0:0:0:0:
256,192,76061,1,0,0:0:0:0:
256,192,76118,1,0,0:0:0:0:
256,192,76175,1,0,0:0:0:0:
256,192,76346,1,8,0:0:0:0:
256,192,76516,1,0,0:0:0:0:
256,192,76573,1,0,0:0:0:0:
256,192,76630,1,0,0:0:0:0:
256,192,76686,1,0,0:0:0:0:
256,192,76772,1,0,0:0:0:0:
256,192,76857,1,8,0:0:0:0:
256,192,77027,1,0,0:0:0:0:
256,192,77198,1,8,0:0:0:0:
256,192,77368,1,8,0:0:0:0:
256,192,77425,1,0,0:0:0:0:
256,192,77482,1,8,0:0:0:0:
256,192,77539,1,0,0:0:0:0:
256,192,77709,1,0,0:0:0:0:
256,192,77880,1,8,0:0:0:0:
256,192,78050,1,0,0:0:0:0:
256,192,78221,1,8,0:0:0:0:
256,192,78391,1,8,0:0:0:0:
256,192,78476,1,8,0:0:0:0:
256,192,78561,1,4,0:0:0:0:
256,192,78732,1,8,0:0:0:0:
256,192,78817,1,8,0:0:0:0:
256,192,78902,1,8,0:0:0:0:
256,192,79073,1,8,0:0:0:0:
256,192,79243,1,8,0:0:0:0:
256,192,79328,1,8,0:0:0:0:
256,192,79414,1,8,0:0:0:0:
256,192,79499,1,8,0:0:0:0:
256,192,79584,1,8,0:0:0:0:
256,192,79669,1,8,0:0:0:0:
256,192,79755,1,8,0:0:0:0:
256,192,79840,1,8,0:0:0:0:
256,192,79925,1,4,0:0:0:0:
256,192,80096,1,8,0:0:0:0:
256,192,80266,1,8,0:0:0:0:
256,192,80607,1,8,0:0:0:0:
256,192,80948,1,0,0:0:0:0:
256,192,81289,1,4,0:0:0:0:
256,192,81459,1,0,0:0:0:0:
256,192,81544,1,0,0:0:0:0:
256,192,81630,1,0,0:0:0:0:
256,192,81800,1,0,0:0:0:0:
256,192,81971,1,8,0:0:0:0:
256,192,82311,1,0,0:0:0:0:
256,192,82482,1,8,0:0:0:0:
256,192,82652,1,8,0:0:0:0:
256,192,82823,1,0,0:0:0:0:
256,192,82993,1,0,0:0:0:0:
256,192,83164,1,8,0:0:0:0:
256,192,83505,1,8,0:0:0:0:
256,192,83675,1,8,0:0:0:0:
256,192,84016,1,0,0:0:0:0:
256,192,84357,1,0,0:0:0:0:
256,192,84527,1,8,0:0:0:0:
256,192,84698,1,0,0:0:0:0:
256,192,84868,1,8,0:0:0:0:
256,192,84925,1,0,0:0:0:0:
256,192,84982,1,0,0:0:0:0:
256,192,85039,1,0,0:0:0:0:
256,192,85209,1,0,0:0:0:0:
256,192,85380,1,8,0:0:0:0:
256,192,85550,1,0,0:0:0:0:
256,192,85635,1,0,0:0:0:0:
256,192,85721,1,8,0:0:0:0:
256,192,85891,1,8,0:0:0:0:
256,192,86061,1,4,0:0:0:0:
256,192,86232,1,8,0:0:0:0:
256,192,86402,1,8,0:0:0:0:
256,192,86573,1,0,0:0:0:0:
256,192,86743,1,4,0:0:0:0:
256,192,86914,1,8,0:0:0:0:
256,192,87084,1,0,0:0:0:0:
256,192,87255,1,0,0:0:0:0:
256,192,87425,1,8,0:0:0:0:
256,192,87766,1,0,0:0:0:0:
256,192,87936,1,8,0:0:0:0:
256,192,88107,1,8,0:0:0:0:
256,192,88277,1,8,0:0:0:0:
256,192,88448,1,8,0:0:0:0:
256,192,88618,1,8,0:0:0:0:
256,192,88789,1,0,0:0:0:0:
256,192,88959,1,8,0:0:0:0:
256,192,89130,1,8,0:0:0:0:
256,192,89300,1,0,0:0:0:0:
256,192,89385,1,0,0:0:0:0:
256,192,89471,1,12,0:0:0:0:
256,192,89641,1,8,0:0:0:0:
256,192,89726,1,0,0:0:0:0:
256,192,89811,1,8,0:0:0:0:
256,192,89897,1,0,0:0:0:0:
256,192,89982,1,8,0:0:0:0:
256,192,90067,1,8,0:0:0:0:
256,192,90152,1,0,0:0:0:0:
256,192,90238,1,0,0:0:0:0:
256,192,90323,1,8,0:0:0:0:
256,192,90408,1,8,0:0:0:0:
256,192,90493,1,8,0:0:0:0:
256,192,90578,1,8,0:0:0:0:
256,192,90664,1,8,0:0:0:0:
256,192,90749,1,8,0:0:0:0:
256,192,90834,1,0,0:0:0:0:
256,192,91005,1,0,0:0:0:0:
256,192,91090,1,0,0:0:0:0:
256,192,91175,1,8,0:0:0:0:
256,192,91346,1,8,0:0:0:0:
256,192,91516,1,4,0:0:0:0:
256,192,91686,1,8,0:0:0:0:
256,192,91772,1,8,0:0:0:0:
256,192,91857,1,8,0:0:0:0:
256,192,91942,1,8,0:0:0:0:
256,192,92027,1,8,0:0:0:0:
256,192,92113,1,8,0:0:0:0:
256,192,92198,1,4,0:0:0:0:
256,192,92368,1,8,0:0:0:0:
256,192,92425,1,0,0:0:0:0:
256,192,92482,1,0,0:0:0:0:
256,192,92539,1,0,0:0:0:0:
256,192,92709,1,8,0:0:0:0:
256,192,92794,1,8,0:0:0:0:
256,192,92880,1,0,0:0:0:0:
256,192,92965,1,0,0:0:0:0:
256,192,93050,1,8,0:0:0:0:
256,192,93135,1,0,0:0:0:0:
256,192,93221,1,8,0:0:0:0:
256,192,93306,1,8,0:0:0:0:
256,192,93391,1,0,0:0:0:0:
256,192,93476,1,0,0:0:0:0:
256,192,93561,1,8,0:0:0:0:
256,192,93732,1,0,0:0:0:0:
256,192,93817,1,0,0:0:0:0:
256,192,93902,1,8,0:0:0:0:
256,192,93988,1,0,0:0:0:0:
256,192,94073,1,8,0:0:0:0:
256,192,94158,1,8,0:0:0:0:
256,192,94243,1,0,0:0:0:0:
256,192,94328,1,8,0:0:0:0:
256,192,94414,1,0,0:0:0:0:
256,192,94499,1,0,0:0:0:0:
256,192,94584,1,8,0:0:0:0:
256,192,94669,1,8,0:0:0:0:
256,192,94755,1,0,0:0:0:0:
256,192,94925,1,4,0:0:0:0:
256,192,95266,1,8,0:0:0:0:
256,192,95436,1,4,0:0:0:0:
256,192,95777,1,8,0:0:0:0:
256,192,95948,1,4,0:0:0:0:
256,192,96118,1,8,0:0:0:0:
256,192,96289,1,0,0:0:0:0:
256,192,96459,1,12,0:0:0:0:
256,192,96630,1,12,0:0:0:0:
256,192,96800,1,4,0:0:0:0:
256,192,96971,1,8,0:0:0:0:
256,192,97056,1,8,0:0:0:0:
256,192,97141,1,8,0:0:0:0:
256,192,97226,1,8,0:0:0:0:
256,192,97311,1,8,0:0:0:0:
256,192,97397,1,8,0:0:0:0:
256,192,97482,1,8,0:0:0:0:
256,192,97567,1,8,0:0:0:0:
256,192,97652,1,4,0:0:0:0:
256,192,97823,1,0,0:0:0:0:
256,192,97908,1,0,0:0:0:0:
256,192,97993,1,8,0:0:0:0:
256,192,98078,1,0,0:0:0:0:
256,192,98164,1,0,0:0:0:0:
256,192,98249,1,0,0:0:0:0:
256,192,98334,1,8,0:0:0:0:
256,192,98505,1,8,0:0:0:0:
256,192,98590,1,8,0:0:0:0:
256,192,98675,1,0,0:0:0:0:
256,192,98846,1,8,0:0:0:0:
256,192,98931,1,8,0:0:0:0:
256,192,99016,1,8,0:0:0:0:
256,192,99101,1,0,0:0:0:0:
256,192,99186,1,8,0:0:0:0:
256,192,99272,1,0,0:0:0:0:
256,192,99357,1,8,0:0:0:0:
256,192,99442,1,0,0:0:0:0:
256,192,99527,1,8,0:0:0:0:
256,192,99613,1,8,0:0:0:0:
256,192,99698,1,0,0:0:0:0:
256,192,99783,1,0,0:0:0:0:
256,192,99868,1,8,0:0:0:0:
256,192,100039,1,8,0:0:0:0:
256,192,100209,1,8,0:0:0:0:
256,192,100294,1,8,0:0:0:0:
256,192,100380,1,4,0:0:0:0:
256,192,100550,1,4,0:0:0:0:
256,192,100891,1,4,0:0:0:0:
256,192,101061,1,4,0:0:0:0:
256,192,101402,1,4,0:0:0:0:
256,192,101573,1,4,0:0:0:0:
256,192,101743,1,8,0:0:0:0:
256,192,101800,1,0,0:0:0:0:
256,192,101857,1,0,0:0:0:0:
256,192,101914,1,0,0:0:0:0:
256,192,101971,1,0,0:0:0:0:
256,192,102027,1,0,0:0:0:0:
256,192,102084,1,0,0:0:0:0:
256,192,102141,1,0,0:0:0:0:
256,192,102198,1,0,0:0:0:0:
256,192,102255,1,0,0:0:0:0:
256,192,102311,1,0,0:0:0:0:
256,192,102368,1,0,0:0:0:0:
256,192,102425,1,8,0:0:0:0:
256,192,102766,1,0,0:0:0:0:
256,192,103107,1,12,0:0:0:0:
256,192,103277,1,8,0:0:0:0:
256,192,103334,1,8,0:0:0:0:
256,192,103391,1,8,0:0:0:0:
256,192,103448,1,0,0:0:0:0:
256,192,103618,1,8,0:0:0:0:
256,192,103703,1,8,0:0:0:0:
256,192,103789,1,0,0:0:0:0:
256,192,103959,1,0,0:0:0:0:
256,192,104044,1,8,0:0:0:0:
256,192,104130,1,8,0:0:0:0:
256,192,104300,1,0,0:0:0:0:
256,192,104471,1,0,0:0:0:0:
256,192,104556,1,0,0:0:0:0:
256,192,104641,1,8,0:0:0:0:
256,192,104726,1,0,0:0:0:0:
256,192,104811,1,0,0:0:0:0:
256,192,104896,1,0,0:0:0:0:
256,192,104981,1,8,0:0:0:0:
256,192,105066,1,0,0:0:0:0:
256,192,105152,1,0,0:0:0:0:
256,192,105237,1,0,0:0:0:0:
256,192,105322,1,8,0:0:0:0:
256,192,105407,1,0,0:0:0:0:
256,192,105493,1,0,0:0:0:0:
256,192,105578,1,0,0:0:0:0:
256,192,105663,1,8,0:0:0:0:
256,192,105748,1,0,0:0:0:0:
256,192,105834,1,8,0:0:0:0:
256,192,106005,1,8,0:0:0:0:
256,192,106061,1,0,0:0:0:0:
256,192,106118,1,8,0:0:0:0:
256,192,106175,1,0,0:0:0:0:
256,192,106346,1,8,0:0:0:0:
256,192,106431,1,8,0:0:0:0:
256,192,106516,1,8,0:0:0:0:
256,192,106686,1,8,0:0:0:0:
256,192,106743,1,0,0:0:0:0:
256,192,106800,1,0,0:0:0:0:
256,192,106857,1,0,0:0:0:0:
256,192,106942,1,0,0:0:0:0:
256,192,107027,1,8,0:0:0:0:
256,192,107368,1,8,0:0:0:0:
256,192,107453,1,0,0:0:0:0:
256,192,107539,1,8,0:0:0:0:
256,192,107624,1,0,0:0:0:0:
256,192,107709,1,8,0:0:0:0:
256,192,107794,1,0,0:0:0:0:
256,192,107880,1,8,0:0:0:0:
256,192,107965,1,0,0:0:0:0:
256,192,108050,1,8,0:0:0:0:
256,192,108135,1,8,0:0:0:0:
256,192,108221,1,8,0:0:0:0:
256,192,108306,1,0,0:0:0:0:
256,192,108391,1,8,0:0:0:0:
256,192,108476,1,0,0:0:0:0:
256,192,108561,1,8,0:0:0:0:
256,192,108731,1,8,0:0:0:0:
256,192,108788,1,8,0:0:0:0:
256,192,108845,1,8,0:0:0:0:
256,192,108902,1,0,0:0:0:0:
256,192,109072,1,8,0:0:0:0:
256,192,109157,1,8,0:0:0:0:
256,192,109243,1,0,0:0:0:0:
256,192,109328,1,8,0:0:0:0:
256,192,109413,1,0,0:0:0:0:
256,192,109498,1,8,0:0:0:0:
256,192,109584,1,8,0:0:0:0:
256,192,109754,1,0,0:0:0:0:
256,192,109925,1,0,0:0:0:0:
256,192,110010,1,0,0:0:0:0:
256,192,110095,1,8,0:0:0:0:
256,192,110180,1,0,0:0:0:0:
256,192,110265,1,0,0:0:0:0:
256,192,110350,1,0,0:0:0:0:
256,192,110435,1,8,0:0:0:0:
256,192,110522,1,0,0:0:0:0:
256,192,110606,1,0,0:0:0:0:
256,192,110691,1,0,0:0:0:0:
256,192,110776,1,8,0:0:0:0:
256,192,110863,1,0,0:0:0:0:
256,192,110947,1,0,0:0:0:0:
256,192,111032,1,0,0:0:0:0:
256,192,111117,1,8,0:0:0:0:
256,192,111202,1,0,0:0:0:0:
256,192,111289,1,12,0:0:0:0:
256,192,111459,1,12,0:0:0:0:
256,192,111800,1,12,0:0:0:0:
256,192,111970,1,12,0:0:0:0:
256,192,112311,1,12,0:0:0:0:
256,192,112481,1,12,0:0:0:0:
256,192,112652,1,8,0:0:0:0:
256,192,112738,1,0,0:0:0:0:
256,192,112823,1,8,0:0:0:0:
256,192,112880,1,8,0:0:0:0:
256,192,112936,1,8,0:0:0:0:
256,192,112993,1,0,0:0:0:0:
256,192,113078,1,0,0:0:0:0:
256,192,113164,1,8,0:0:0:0:
256,192,113249,1,0,0:0:0:0:
256,192,113334,1,8,0:0:0:0:
256,192,113419,1,0,0:0:0:0:
256,192,113505,1,0,0:0:0:0:
256,192,113590,1,0,0:0:0:0:
256,192,113675,1,8,0:0:0:0:
256,192,114016,1,12,0:0:0:0:
256,192,114790,1,0,0:0:0:0:
256,192,114983,1,0,0:0:0:0:
256,192,115177,1,8,0:0:0:0:
256,192,115370,1,8,0:0:0:0:
256,192,115564,1,4,0:0:0:0:
256,192,116391,1,0,0:0:0:0:
256,192,116598,1,0,0:0:0:0:
256,192,116805,1,8,0:0:0:0:
256,192,117012,1,8,0:0:0:0:
256,192,117219,1,12,0:0:0:0:
256,192,117647,1,0,0:0:0:0:
256,192,118076,1,8,0:0:0:0:
256,192,118290,1,8,0:0:0:0:
256,192,118361,1,0,0:0:0:0:
256,192,118433,1,0,0:0:0:0:
256,192,118504,1,8,0:0:0:0:
256,192,118719,1,0,0:0:0:0:
256,192,118933,1,0,0:0:0:0:
256,192,119205,1,0,0:0:0:0:
256,192,119478,1,8,0:0:0:0:
256,192,119751,1,8,0:0:0:0:
256,192,120023,1,4,0:0:0:0:
