osu file format v13

[General]
AudioFilename: ALiCE'S EMOTiON - Torn Moon.mp3
AudioLeadIn: 0
PreviewTime: 58662
Countdown: 0
SampleSet: Normal
StackLeniency: 0.7
Mode: 0
LetterboxInBreaks: 0
WidescreenStoryboard: 0

[Editor]
Bookmarks: 1797,121797
DistanceSpacing: 0.9
BeatDivisor: 2
GridSize: 4
TimelineZoom: 0.8999997

[Metadata]
Title:Hagetsu
TitleUnicode:破月
Artist:Minamotoya feat. 3L
ArtistUnicode:源屋 feat. 3L
Creator:Asphyxia
Version:Normal
Source:Touhou
Tags:ALiCE'S EMOTiON c80 njk records radiata redalice suimusou immaterial missing power memory forgathering dream ProfessionalBox Lust broken moon
BeatmapID:448811
BeatmapSetID:187417

[Difficulty]
HPDrainRate:4
CircleSize:3.5
OverallDifficulty:4
ApproachRate:5
SliderMultiplier:1.1
SliderTickRate:1

[Events]
//Background and Video events
0,0,"bg.png",0,0
//Break Periods
2,91549,93731
//Storyboard Layer 0 (Background)
//Storyboard Layer 1 (Fail)
//Storyboard Layer 2 (Pass)
//Storyboard Layer 3 (Foreground)
//Storyboard Sound Samples
//Background Colour Transformations
3,100,163,162,255

[TimingPoints]
1797,447.761194029851,4,2,1,35,1,0
12543,-100,4,2,1,40,0,0
12767,-100,4,2,1,45,0,0
12991,-100,4,2,1,50,0,0
13214,-100,4,2,1,55,0,0
13438,-100,4,1,1,40,0,0
14334,-100,4,2,1,60,0,0
16125,-100,4,1,1,60,0,0
30453,-100,4,2,1,60,0,0
47244,-100,4,2,2,60,0,0
48588,-100,4,2,1,60,0,0
50826,-100,4,2,2,60,0,0
55640,-100,4,2,1,60,0,0
56423,-100,4,2,2,60,0,0
56535,-100,4,2,1,60,0,0
57319,-100,4,2,2,60,0,0
58438,-100,4,2,1,60,0,0
59110,-100,4,1,1,80,0,1
65379,-100,4,2,2,80,0,1
66386,-100,4,1,1,80,0,1
79707,-100,4,2,2,80,0,1
80714,-100,4,1,1,80,0,1
87767,-100,4,1,1,60,0,0
114632,-100,4,1,1,45,0,0
116423,-100,4,1,1,60,0,0
118214,-100,4,1,1,40,0,0
120005,-100,4,1,1,30,0,0
120901,-100,4,1,1,20,0,0
121349,-100,4,1,1,10,0,0
122692,-100,4,2,0,5,0,0

[Colours]
Combo1 : 79,255,167
Combo2 : 0,118,236
Combo3 : 0,240,240
Combo4 : 255,185,220

[HitObjects]
56,96,1797,6,0,P|100:64|180:68,1,110,4|0,1:0|1:0,0:0:0:0:
236,116,2692,2,0,P|288:131|340:116,1,110,0|0,1:0|1:0,0:0:0:0:
372,80,3364,1,0,1:0:0:0:
416,100,3588,2,0,L|428:156,2,55,0|0|0,1:0|0:0|1:0,0:0:0:0:
324,68,4483,2,0,P|276:100|248:176,1,110,0|0,1:0|1:0,0:0:0:0:
260,192,5155,1,0,1:0:0:0:
252,240,5379,6,0,B|196:268|128:232,1,110,0|0,1:0|1:0,0:0:0:0:
44,260,6274,2,0,P|28:316|48:368,1,110,0|0,1:0|1:0,0:0:0:0:
92,376,6946,1,0,0:0:0:0:
136,352,7170,2,0,P|208:328|268:344,1,110,0|0,1:0|1:0,0:0:0:0:
336,352,8065,2,0,P|364:364|408:364,3,55,2|0|0|2,1:2|0:0|1:0|0:2,0:0:0:0:
436,348,8961,6,0,P|468:296|456:244,1,110,0|0,1:0|1:0,0:0:0:0:
388,180,9856,2,0,P|357:135|364:82,1,110,0|10,1:0|1:2,0:0:0:0:
400,48,10528,1,10,0:0:0:0:
448,44,10752,2,0,P|480:44|504:36,2,55,0|10|0,1:0|0:0|1:0,0:0:0:0:
356,80,11647,1,0,1:0:0:0:
260,60,12095,1,0,1:0:0:0:
180,116,12543,6,0,L|112:104,3,55,8|10|8|10,1:2|1:2|1:2|1:2,0:0:0:0:
76,104,13438,2,0,L|21:113,3,55,0|0|0|0,0:0|0:0|0:0|0:0,0:0:0:0:
8,160,14334,6,0,B|16:224|76:260|152:268|196:204|196:204|221:239|284:248|324:227,1,385,4|8,1:0|0:0,0:0:0:0:
368,208,16125,6,0,P|392:152|376:68,1,110,2|10,0:0|0:0,0:0:0:0:
296,80,17020,2,0,P|273:129|273:184,1,110,2|2,3:1|3:2,0:0:0:0:
296,228,17692,1,2,3:1:0:0:
276,276,17916,2,0,P|244:288|208:288,2,55,2|2|10,0:0|0:2|0:0,0:0:0:0:
364,232,18811,1,2,3:1:0:0:
456,268,19259,2,0,P|492:252|508:232,1,55,8|0,0:0|0:0,0:0:0:0:
492,192,19707,6,0,L|472:80,1,110,2|10,0:0|0:0,0:0:0:0:
376,72,20602,2,0,P|328:80|296:72,1,55,2|0,3:1|0:0,0:0:0:0:
276,64,21050,1,8,0:0:0:0:
180,32,21498,2,0,P|120:24|60:32,1,110,2|10,0:0|0:0,0:0:0:0:
72,128,22394,2,0,P|126:133|180:125,1,110,2|8,3:1|3:1,0:0:0:0:
220,92,23065,1,0,3:0:0:0:
260,120,23289,6,0,P|280:164|248:244,1,110,2|10,0:1|0:0,0:0:0:0:
188,278,24185,2,0,P|174:225|195:175,1,110,2|8,3:1|0:0,0:0:0:0:
192,128,24856,1,0,0:0:0:0:
164,88,25080,2,0,P|124:68|92:68,2,55,2|2|10,0:0|0:2|0:0,0:0:0:0:
100,164,25976,1,2,3:1:0:0:
36,240,26423,2,0,P|59:254|85:261,1,55,8|0,0:0|0:0,0:0:0:0:
136,256,26871,6,0,B|196:260|236:300|236:300|288:264|348:272,1,220,2|2,0:0|3:1,0:0:0:0:
424,320,28214,1,8,0:0:0:0:
464,228,28662,6,0,B|512:196|508:112|448:68|368:108|368:108|304:80|304:128|216:96,1,385,4|8,0:0|0:2,0:0:0:0:
176,108,30453,6,0,P|120:136|0:128,1,165,0|2,1:0|0:0,0:0:0:0:
8,184,31349,2,0,P|83:216|164:211,1,165,0|2,1:0|0:0,0:0:0:0:
208,184,32244,1,0,1:0:0:0:
284,248,32692,1,0,1:0:0:0:
380,272,33140,2,0,P|448:264|492:232,1,110,0|0,1:0|1:0,0:0:0:0:
492,192,33811,1,2,0:0:0:0:
464,152,34035,6,0,B|448:100|448:100|472:80|480:40,2,110,0|0|0,1:0|1:0|1:0,0:0:0:0:
404,232,35379,1,0,1:0:0:0:
384,328,35826,2,0,P|336:304|308:252,1,110,0|0,1:0|1:0,0:0:0:0:
208,256,36722,2,0,P|181:303|132:327,1,110,0|0,1:0|1:0,0:0:0:0:
116,228,37617,6,0,P|146:180|270:176,1,165,0|2,1:0|0:0,0:0:0:0:
284,196,38513,2,0,P|344:208|420:184,1,110,0|0,1:0|1:0,0:0:0:0:
424,160,39185,1,2,0:0:0:0:
448,116,39408,2,0,P|472:64|468:8,2,110,0|0|0,1:0|1:0|1:0,0:0:0:0:
360,160,40752,1,0,1:0:0:0:
340,204,40976,1,2,0:0:0:0:
332,252,41199,6,0,L|348:360,2,110,0|0|0,1:0|1:0|1:0,0:0:0:0:
240,212,42543,1,0,1:0:0:0:
172,140,42991,2,0,P|141:201|180:289,1,165,6|2,1:2|0:0,0:0:0:0:
213,316,43886,2,0,P|256:319|279:311,1,55,10|10,0:0|0:0,0:0:0:0:
309,289,44334,2,0,P|352:286|375:294,1,55,10|10,0:0|0:0,0:0:0:0:
408,312,44782,6,0,P|444:264|440:96,1,220,4|0,1:2|1:0,0:0:0:0:
360,60,46125,1,8,1:0:0:0:
320,88,46349,1,0,0:0:0:0:
280,120,46573,2,0,B|224:144|224:144|96:120,1,165,4|2,1:2|0:0,0:0:0:0:
72,120,47468,2,0,P|28:164|16:220,1,110,0|8,0:0|0:1,0:0:0:0:
20,260,48140,1,2,0:0:0:0:
48,300,48364,6,0,B|104:312|104:312|160:296|160:296|224:312,1,165,4|0,0:2|0:0,0:0:0:0:
256,324,49259,2,0,P|312:280|324:228,1,110,0|8,1:0|1:0,0:0:0:0:
316,196,49931,1,0,0:0:0:0:
292,152,50155,1,4,1:2:0:0:
220,84,50602,1,8,1:0:0:0:
172,96,50826,2,0,L|108:88,2,55,2|2|2,0:0|0:0|0:0,0:0:0:0:
200,136,51498,2,0,L|180:188,1,55,8|2,1:0|0:0,0:0:0:0:
136,212,51946,6,0,P|196:264|328:232,1,220,6|0,0:2|0:0,0:0:0:0:
380,156,53289,1,8,1:1:0:0:
468,204,53737,2,0,P|488:256|480:320,2,110,4|8|2,0:2|1:1|0:0,0:0:0:0:
380,156,55080,1,8,1:1:0:0:
332,144,55304,1,2,0:0:0:0:
288,164,55528,6,0,B|232:172|184:140|184:140|124:156|64:136,1,220,4|2,0:2|0:0,0:0:0:0:
20,56,56871,1,8,1:0:0:0:
120,48,57319,2,0,B|228:32|228:32|284:56,2,165,6|6|8,1:2|0:0|1:0,0:0:0:0:
80,80,58886,1,8,1:0:0:0:
60,124,59110,6,0,P|48:188|60:248,1,110,4|8,0:0|0:0,0:0:0:0:
120,304,60005,1,0,0:0:0:0:
212,268,60453,2,0,P|244:260|276:260,1,55,8|2,0:0|0:2,0:0:0:0:
312,276,60901,2,0,P|376:296|448:272,1,110,0|12,0:0|0:2,0:0:0:0:
376,200,61797,1,4,0:2:0:0:
308,128,62244,1,4,0:2:0:0:
220,84,62692,6,0,P|209:136|235:193,2,110,4|8|0,0:0|0:0|0:0,0:0:0:0:
134,33,64035,1,8,0:0:0:0:
60,96,64483,2,0,L|32:144,1,55,0|2,0:0|0:2,0:0:0:0:
52,188,64931,2,0,L|80:236,1,55,8|2,0:0|0:2,0:0:0:0:
52,280,65379,1,8,0:0:0:0:
152,276,65826,1,8,0:0:0:0:
200,288,66050,1,2,0:0:0:0:
248,280,66274,6,0,P|292:240|304:184,2,110,12|8|0,0:2|0:0|0:0,0:0:0:0:
152,304,67617,2,0,L|88:300,1,55,8|2,0:0|0:2,0:0:0:0:
56,272,68065,1,0,0:0:0:0:
84,176,68513,1,4,0:2:0:0:
127,85,68961,2,0,P|168:119|184:172,1,110,4|4,0:2|0:2,0:0:0:0:
84,176,69856,6,0,L|328:192,1,220,4|0,0:0|0:0,0:0:0:0:
400,176,71199,1,8,0:0:0:0:
468,104,71647,2,0,P|496:152|488:228,1,110,0|8,0:0|0:0,0:0:0:0:
464,244,72319,1,2,3:2:0:0:
444,288,72543,2,0,L|468:352,2,55,6|0|0,3:2|0:0|0:0,0:0:0:0:
404,260,73214,1,6,3:2:0:0:
356,272,73438,6,0,L|240:264,1,110,4|8,0:0|0:0,0:0:0:0:
188,184,74334,2,0,L|72:176,1,110,0|8,0:0|0:0,0:0:0:0:
28,172,75005,1,2,0:2:0:0:
24,124,75229,2,0,P|8:80|12:44,1,55,0|2,0:0|0:2,0:0:0:0:
28,28,75677,2,0,P|73:17|108:25,1,55,4|2,0:2|0:2,0:0:0:0:
120,48,76125,2,0,P|172:68|264:44,1,110,4|4,0:2|0:2,0:0:0:0:
268,40,76797,1,2,0:2:0:0:
312,60,77020,6,0,B|292:116|328:116|308:180,1,110,4|8,0:0|0:0,0:0:0:0:
268,260,77916,1,0,0:0:0:0:
224,284,78140,1,2,0:2:0:0:
176,284,78364,2,0,L|104:280,1,55,8|2,0:0|0:2,0:0:0:0:
72,280,78811,2,0,P|40:228|52:160,1,110,0|8,0:0|0:0,0:0:0:0:
120,116,79707,1,8,0:0:0:0:
208,160,80155,2,0,P|252:168|284:160,1,55,8|2,0:0|0:0,0:0:0:0:
308,152,80602,6,0,L|288:272,2,110,12|8|0,0:2|0:0|0:0,0:0:0:0:
388,92,81946,1,8,0:0:0:0:
436,80,82170,1,2,0:2:0:0:
484,84,82394,2,0,P|500:128|496:160,1,55,0|2,0:0|0:2,0:0:0:0:
468,172,82841,2,0,P|452:216|456:248,1,55,8|2,0:0|0:2,0:0:0:0:
476,268,83289,1,0,0:0:0:0:
392,320,83737,1,8,0:0:0:0:
344,308,83961,1,2,0:2:0:0:
296,312,84185,6,0,P|236:280|164:288,1,110,4|8,0:0|0:0,0:0:0:0:
152,304,84856,1,2,0:2:0:0:
108,328,85080,2,0,P|56:296|44:240,1,110,0|8,0:0|0:0,0:0:0:0:
88,164,85976,6,0,B|140:128|192:156|192:156|248:100|324:96|404:124|420:208|404:264|360:288|340:280,1,440,0|4,3:0|0:0,0:0:0:0:
256,192,87991,12,0,91349,0:0:0:0:
120,104,94931,5,6,0:0:0:0:
212,72,95379,1,10,0:0:0:0:
308,100,95826,2,0,P|332:160|328:216,1,110,2|8,3:1|3:1,0:0:0:0:
296,240,96498,1,2,3:2:0:0:
260,272,96722,2,0,P|240:328|240:340,2,55,2|2|10,0:1|0:1|0:1,0:0:0:0:
192,200,97617,1,2,3:1:0:0:
104,160,98065,2,0,P|60:164|36:172,1,55,8|2,3:1|3:2,0:0:0:0:
76,212,98513,6,0,L|216:224,1,110,2|10,0:0|0:0,0:0:0:0:
288,212,99408,2,0,P|332:152|324:88,1,110,2|8,3:1|1:0,0:0:0:0:
296,84,100080,1,8,3:1:0:0:
248,92,100304,2,0,L|192:80,2,55,2|2|10,0:1|0:1|0:1,0:0:0:0:
284,184,101199,1,2,3:1:0:0:
224,264,101647,1,8,3:1:0:0:
136,308,102095,6,0,P|188:356|315:302,1,220,6|2,0:0|0:0,0:0:0:0:
356,220,103438,1,8,0:0:0:0:
388,180,103662,1,8,0:0:0:0:
436,176,103886,2,0,L|504:188,2,55,2|6|10,0:0|0:2|0:0,0:0:0:0:
352,120,104782,2,0,P|304:80|280:28,1,110,2|8,0:0|0:0,0:0:0:0:
244,68,105453,1,6,0:2:0:0:
208,104,105677,6,0,L|88:92,1,110,2|10,0:0|0:0,0:0:0:0:
52,180,106573,2,0,L|161:190,1,110,2|8,0:0|0:0,0:0:0:0:
212,196,107244,1,6,0:2:0:0:
256,224,107468,2,0,P|284:280|268:336,1,110,2|10,0:0|0:0,0:0:0:0:
184,364,108364,1,2,0:0:0:0:
96,320,108811,1,8,0:0:0:0:
4,280,109259,6,0,P|45:235|112:222,1,110,2|10,0:0|0:0,0:0:0:0:
188,236,110155,2,0,P|242:236|289:208,1,110,2|0,0:0|0:0,0:0:0:0:
304,160,110826,1,0,0:0:0:0:
316,112,111050,2,0,B|352:80|352:80|480:100,1,165,2|0,0:0|0:0,0:0:0:0:
484,144,111946,2,0,P|470:207|429:242,1,110,2|8,0:0|0:0,0:0:0:0:
392,248,112617,1,6,0:2:0:0:
344,240,112841,6,0,P|288:232|204:280,1,110,2|10,0:0|0:0,0:0:0:0:
164,316,113737,2,0,P|112:332|58:324,1,110,2|8,0:0|0:0,0:0:0:0:
32,284,114408,1,0,0:0:0:0:
64,248,114632,6,0,B|108:208|92:132|92:132|144:164|196:160|260:144|300:100|304:48,1,385,2|8,0:0|0:2,0:0:0:0:
264,24,116423,5,4,0:0:0:0:
256,192,116647,12,0,122692,0:0:0:0:
