osu file format v13

[General]
AudioFilename: ALiCE'S EMOTiON - Torn Moon.mp3
AudioLeadIn: 0
PreviewTime: 58662
Countdown: 0
SampleSet: Normal
StackLeniency: 0.7
Mode: 0
LetterboxInBreaks: 0
WidescreenStoryboard: 0

[Editor]
Bookmarks: 1797
DistanceSpacing: 1.1
BeatDivisor: 4
GridSize: 4
TimelineZoom: 2

[Metadata]
Title:Hagetsu
TitleUnicode:破月
Artist:Minamotoya feat. 3L
ArtistUnicode:源屋 feat. 3L
Creator:Asphyxia
Version:Lunatic
Source:Touhou
Tags:ALiCE'S EMOTiON c80 njk records radiata redalice suimusou immaterial missing power memory forgathering dream ProfessionalBox Lust broken moon
BeatmapID:447164
BeatmapSetID:187417

[Difficulty]
HPDrainRate:7
CircleSize:4
OverallDifficulty:8
ApproachRate:8
SliderMultiplier:1.9
SliderTickRate:1

[Events]
//Background and Video events
0,0,"bg.png",0,0
//Break Periods
//Storyboard Layer 0 (Background)
//Storyboard Layer 1 (Fail)
//Storyboard Layer 2 (Pass)
//Storyboard Layer 3 (Foreground)
//Storyboard Sound Samples
//Background Colour Transformations
3,100,163,162,255

[TimingPoints]
1797,447.761194029851,4,2,1,35,1,0
1797,-125,4,2,1,35,0,0
12543,-125,4,2,1,40,0,0
12767,-125,4,2,1,45,0,0
12991,-125,4,2,1,50,0,0
13214,-125,4,2,1,55,0,0
13438,-125,4,1,1,40,0,0
14334,-125,4,2,1,60,0,0
16125,-100,4,1,1,60,0,0
30453,-100,4,2,1,60,0,0
47244,-100,4,2,2,60,0,0
48588,-100,4,2,1,60,0,0
50826,-100,4,2,2,60,0,0
55640,-100,4,2,1,60,0,0
56423,-100,4,2,2,60,0,0
56535,-100,4,2,1,60,0,0
57319,-100,4,2,2,60,0,0
58438,-100,4,2,1,60,0,0
59110,-83.3333333333333,4,1,1,80,0,1
65379,-83.3333333333333,4,2,2,80,0,1
66386,-83.3333333333333,4,1,1,80,0,1
79707,-83.3333333333333,4,2,2,80,0,1
80714,-83.3333333333333,4,1,1,80,0,1
87767,-100,4,1,1,60,0,0
114632,-100,4,1,1,45,0,0
116423,-100,4,1,1,60,0,0
118214,-100,4,1,1,40,0,0
120005,-100,4,1,1,30,0,0
120901,-100,4,1,1,20,0,0
121349,-100,4,1,1,10,0,0
122692,-100,4,2,0,5,0,0

[Colours]
Combo1 : 79,255,167
Combo2 : 0,118,236
Combo3 : 0,240,240
Combo4 : 255,185,220

[HitObjects]
60,328,1797,5,4,1:0:0:0:
108,232,2020,1,0,0:0:0:0:
112,124,2244,1,0,1:0:0:0:
56,32,2468,1,0,0:0:0:0:
216,52,2692,2,0,L|280:48,1,38,0|0,1:0|0:0,0:0:0:0:
408,212,3028,1,0,0:0:0:0:
408,212,3140,2,0,P|372:216|344:208,1,38,0|0,1:0|0:0,0:0:0:0:
189,123,3476,6,0,P|168:120|140:132,1,38,0|4,0:0|1:0,0:0:0:0:
196,308,3811,1,0,0:0:0:0:
352,176,4035,1,0,1:0:0:0:
464,356,4259,1,0,0:0:0:0:
432,188,4483,2,0,P|428:144|416:128,1,38,0|0,1:0|0:0,0:0:0:0:
248,88,4819,1,0,0:0:0:0:
212,104,4931,1,0,1:0:0:0:
176,108,5043,1,0,0:0:0:0:
136,108,5155,1,0,0:0:0:0:
100,96,5267,1,0,0:0:0:0:
64,84,5379,6,0,P|20:104|0:140,1,76,0|0,1:0|0:0,0:0:0:0:
120,312,5826,2,0,P|135:277|131:240,1,76,0|0,1:0|0:0,0:0:0:0:
272,124,6274,2,0,L|280:176,1,38,0|0,1:0|0:0,0:0:0:0:
444,276,6610,1,0,0:0:0:0:
443,276,6722,1,0,1:0:0:0:
443,276,6834,2,0,L|436:340,2,38,0|0|0,0:0|0:0|0:0,0:0:0:0:
412,236,7170,5,0,1:0:0:0:
304,132,7394,1,0,0:0:0:0:
484,64,7617,1,0,1:0:0:0:
472,56,8065,5,2,1:2:0:0:
436,44,8177,1,0,0:0:0:0:
400,40,8289,1,0,0:0:0:0:
364,44,8401,1,2,0:2:0:0:
328,56,8513,1,0,1:0:0:0:
296,76,8625,1,0,0:0:0:0:
260,92,8737,1,2,0:2:0:0:
224,96,8849,1,0,0:0:0:0:
184,96,8961,6,0,L|104:84,1,76,0|10,1:0|0:0,0:0:0:0:
80,188,9408,2,0,L|0:176,1,76,0|10,1:0|0:0,0:0:0:0:
144,312,9856,2,0,L|219:300,1,76,0|10,1:0|0:0,0:0:0:0:
292,380,10304,2,0,L|367:368,1,76,10|10,1:2|0:0,0:0:0:0:
499,213,10752,5,0,1:0:0:0:
312,32,10976,1,10,0:0:0:0:
356,286,11199,1,0,1:0:0:0:
469,56,11423,1,10,0:0:0:0:
244,176,11647,2,0,P|216:176|184:164,1,38,0|2,1:0|0:0,0:0:0:0:
108,248,11983,1,0,0:0:0:0:
108,248,12095,1,0,1:0:0:0:
108,248,12207,2,0,P|64:248|40:244,2,38,2|2|2,0:0|0:0|0:0,0:0:0:0:
148,236,12543,5,8,1:2:0:0:
188,248,12655,1,8,1:2:0:0:
216,280,12767,1,10,1:2:0:0:
240,316,12879,1,8,1:2:0:0:
272,340,12991,1,8,1:2:0:0:
312,352,13102,1,8,1:2:0:0:
352,352,13214,1,10,1:2:0:0:
388,336,13326,1,8,1:2:0:0:
412,304,13438,6,0,L|408:272,6,19,0|0|2|0|0|0|2,0:0|0:0|0:2|0:0|0:0|0:0|0:2,0:0:0:0:
496,224,13886,2,0,L|493:242,6,19,0|0|2|0|0|0|2,0:0|0:0|0:2|0:0|0:0|0:0|0:2,0:0:0:0:
480,172,14334,5,4,1:0:0:0:
292,48,14558,1,2,0:0:0:0:
192,244,14782,2,0,P|152:260|64:252,1,114,2|0,3:2|0:0,0:0:0:0:
48,232,15229,6,0,P|28:200|28:176,3,38,0|0|0|0,1:0|0:0|0:0|0:0,0:0:0:0:
96,180,15677,1,8,0:0:0:0:
136,184,15789,1,8,0:0:0:0:
176,184,15901,1,8,0:0:0:0:
216,176,16013,1,8,0:0:0:0:
256,160,16125,5,2,0:0:0:0:
340,56,16349,1,2,0:2:0:0:
468,88,16573,2,0,P|496:136|500:188,1,95,10|2,0:0|0:2,0:0:0:0:
296,304,17020,2,0,L|300:256,1,47.5,2|2,3:1|3:2,0:0:0:0:
200,120,17356,1,2,3:1:0:0:
100,255,17580,2,2,P|54:268|9:254,1,95,2|2,3:2|3:1,0:0:0:0:
52,192,17916,5,2,0:0:0:0:
92,64,18140,1,2,0:2:0:0:
224,44,18364,2,2,B|292:20|292:64|372:32,1,142.5,8|2,0:0|3:2,0:0:0:0:
436,64,18811,2,0,P|404:100|380:104,1,47.5,2|2,3:1|3:2,0:0:0:0:
224,200,19147,1,2,3:1:0:0:
324,288,19371,2,2,L|308:384,1,95,2|2,3:2|3:1,0:0:0:0:
370,346,19707,6,0,P|395:307|392:256,1,95,2|2,0:0|0:2,0:0:0:0:
160,172,20155,2,0,P|155:218|184:256,1,95,10|2,0:0|0:2,0:0:0:0:
308,120,20602,1,2,3:1:0:0:
308,120,20714,1,2,3:2:0:0:
432,264,20938,1,2,3:1:0:0:
367,63,21162,2,2,P|321:39|263:50,1,95,2|2,3:2|3:1,0:0:0:0:
308,120,21498,5,2,0:0:0:0:
128,232,21722,1,2,0:2:0:0:
24,48,21946,1,10,0:0:0:0:
20,68,22394,2,0,L|32:116,1,47.5,2|2,3:1|3:2,0:0:0:0:
144,296,22729,1,2,3:1:0:0:
188,268,22841,1,8,3:1:0:0:
240,260,22953,1,0,3:0:0:0:
292,264,23065,1,0,3:0:0:0:
340,248,23177,1,2,3:1:0:0:
356,200,23289,6,2,P|376:152|344:60,1,142.5,2|2,0:1|0:2,0:0:0:0:
284,56,23737,2,0,L|452:64,1,142.5,10|2,0:0|0:2,0:0:0:0:
488,100,24185,2,0,P|473:118|453:131,1,47.5,2|0,3:1|3:0,0:0:0:0:
356,336,24520,2,2,P|412:336|456:360,2,95,2|2|2,3:1|3:2|3:1,0:0:0:0:
308,360,25080,5,2,0:0:0:0:
124,276,25304,1,2,0:2:0:0:
284,156,25528,2,0,P|284:100|252:48,1,95,10|2,0:0|0:2,0:0:0:0:
388,204,25976,2,0,P|380:172|384:152,1,47.5,2|2,3:1|3:2,0:0:0:0:
492,292,26311,1,2,3:1:0:0:
324,328,26535,2,2,P|276:320|228:328,1,95,2|2,3:2|3:1,0:0:0:0:
188,356,26871,6,2,P|136:372|64:316,1,142.5,0|2,0:0|0:2,0:0:0:0:
216,284,27319,2,2,P|268:300|340:244,1,142.5,0|2,0:0|0:0,0:0:0:0:
261,175,27767,2,0,L|265:231,1,47.5,2|2,3:1|3:2,0:0:0:0:
416,284,28102,1,2,3:1:0:0:
492,104,28326,2,2,P|492:48|472:16,1,95,2|2,3:2|3:1,0:0:0:0:
416,76,28662,5,4,0:0:0:0:
272,200,28886,1,2,2:0:0:0:
156,48,29110,2,0,B|84:28|84:64|12:44,1,142.5,2|0,2:0|2:0,0:0:0:0:
0,132,29558,2,0,L|60:124,3,47.5,0|8|0|8,0:0|0:2|2:0|0:2,0:0:0:0:
140,136,30005,1,8,0:2:0:0:
188,156,30117,1,8,0:2:0:0:
224,192,30229,1,8,0:2:0:0:
232,244,30341,1,8,0:2:0:0:
216,292,30453,6,0,P|260:324|304:328,1,95,0|2,1:0|0:0,0:0:0:0:
480,176,30901,2,0,P|433:172|391:195,1,95,0|2,1:0|0:0,0:0:0:0:
393,366,31349,2,0,P|447:322|443:238,2,142.5,0|2|2,1:0|0:0|0:0,0:0:0:0:
297,176,32244,2,0,P|316:240|390:290,2,142.5,0|2|2,1:0|0:0|0:0,0:0:0:0:
272,64,33140,1,0,1:0:0:0:
160,40,33364,1,2,0:0:0:0:
76,116,33588,1,0,1:0:0:0:
108,224,33811,1,2,0:0:0:0:
108,224,33923,1,2,0:0:0:0:
108,224,34035,6,0,P|96:276|52:308,1,95,0|2,1:0|0:0,0:0:0:0:
120,368,34371,1,2,0:0:0:0:
120,368,34483,2,0,P|165:340|219:349,1,95,0|2,1:0|0:0,0:0:0:0:
408,260,34931,2,0,P|352:268|292:248,1,95,0|2,1:0|0:0,0:0:0:0:
280,244,35267,1,0,0:0:0:0:
256,212,35379,2,0,L|236:108,1,95,0|2,1:0|0:0,0:0:0:0:
424,24,35826,6,0,P|408:72|448:160,1,142.5,0|2,1:0|0:0,0:0:0:0:
458,233,36274,2,0,P|408:229|367:193,1,95,0|2,1:0|0:0,0:0:0:0:
212,307,36722,2,0,P|267:282|396:319,1,190,0|0,1:0|1:0,0:0:0:0:
136,364,37394,1,2,0:0:0:0:
136,364,37505,1,0,0:0:0:0:
136,364,37617,6,0,P|116:320|120:272,1,95,0|2,1:0|0:0,0:0:0:0:
288,120,38065,2,0,P|290:166|271:209,1,95,0|2,1:0|0:0,0:0:0:0:
69,165,38513,2,0,L|221:153,1,142.5,0|2,1:0|0:0,0:0:0:0:
232,80,38961,2,0,L|136:88,1,95,0|2,1:0|0:0,0:0:0:0:
312,24,39408,6,0,P|328:80|288:160,2,142.5,0|2|2,1:0|0:0|0:0,0:0:0:0:
436,224,40304,2,0,L|424:120,1,95,0|2,1:0|0:0,0:0:0:0:
425,129,40640,1,0,0:0:0:0:
425,129,40752,1,0,1:0:0:0:
352,272,40976,1,2,0:0:0:0:
352,272,41088,1,2,0:0:0:0:
352,272,41199,6,0,P|396:316|444:324,1,95,0|2,1:0|0:0,0:0:0:0:
204,356,41647,1,0,1:0:0:0:
248,156,41871,1,2,0:0:0:0:
248,156,41983,1,0,0:0:0:0:
248,156,42095,2,0,P|240:96|264:52,1,95,0|2,1:0|0:0,0:0:0:0:
48,24,42543,1,0,1:0:0:0:
104,124,42767,1,2,0:0:0:0:
16,288,42991,5,6,1:2:0:0:
224,360,43214,1,0,0:0:0:0:
224,360,43326,1,0,0:0:0:0:
224,360,43438,1,10,0:0:0:0:
272,176,43662,1,2,0:0:0:0:
420,296,43886,1,0,0:0:0:0:
420,296,43998,1,10,0:0:0:0:
420,296,44110,1,10,0:0:0:0:
420,296,44222,1,10,0:0:0:0:
420,296,44334,1,10,0:0:0:0:
420,296,44446,1,10,0:0:0:0:
420,296,44558,1,10,0:0:0:0:
420,296,44670,1,10,0:0:0:0:
420,296,44782,6,0,P|476:300|516:276,1,95,4|0,1:2|0:0,0:0:0:0:
256,172,45229,2,0,P|200:176|164:152,1,95,8|0,1:0|0:0,0:0:0:0:
364,96,45677,2,0,L|216:104,1,142.5,0|0,1:0|0:0,0:0:0:0:
177,41,46125,2,0,P|145:85|145:101,3,47.5,8|2|0|2,1:0|0:2|0:0|0:2,0:0:0:0:
222,104,46573,6,0,L|234:208,1,95,4|0,1:2|0:0,0:0:0:0:
456,316,47020,2,0,L|445:221,1,95,8|2,1:0|0:0,0:0:0:0:
368,196,47356,2,0,P|328:224|224:224,1,142.5,0|2,0:0|0:0,0:0:0:0:
136,172,47916,1,8,0:1:0:0:
8,24,48140,1,2,0:0:0:0:
260,20,48364,6,0,P|312:40|360:32,1,95,4|0,0:2|0:0,0:0:0:0:
512,236,48811,2,0,P|465:232|421:251,1,95,8|0,1:0|0:0,0:0:0:0:
176,336,49259,2,0,P|288:344|364:288,1,190,0|8,1:0|1:0,0:0:0:0:
92,208,49931,1,0,0:0:0:0:
92,208,50043,1,2,0:0:0:0:
92,208,50155,6,0,P|64:164|100:88,1,142.5,4|0,1:2|0:0,0:0:0:0:
136,152,50602,2,0,P|161:196|124:267,1,95,8|2,1:0|0:0,0:0:0:0:
88,288,50938,2,0,P|76:324|80:356,1,47.5,0|2,0:0|0:0,0:0:0:0:
188,320,51162,1,0,0:0:0:0:
188,320,51274,2,0,P|192:357|209:385,1,47.5,2|0,0:0|0:0,0:0:0:0:
256,252,51498,2,0,P|300:232|352:244,1,95,8|2,1:0|0:0,0:0:0:0:
496,340,51946,6,0,P|424:364|316:324,1,190,6|8,0:2|1:1,0:0:0:0:
300,112,52617,1,2,0:0:0:0:
300,112,52729,1,2,0:0:0:0:
300,112,52841,2,0,L|408:96,1,95,0|2,0:0|0:0,0:0:0:0:
184,248,53289,2,0,L|76:232,1,95,8|2,1:1|0:0,0:0:0:0:
288,228,53737,5,4,0:2:0:0:
498,147,53961,1,2,0:0:0:0:
375,336,54185,1,8,1:1:0:0:
363,111,54408,1,2,0:0:0:0:
505,286,54632,1,2,0:0:0:0:
288,228,54856,1,2,0:0:0:0:
288,228,54968,1,2,0:0:0:0:
288,228,55080,2,0,P|232:212|180:228,1,95,8|2,1:1|0:0,0:0:0:0:
0,104,55528,6,0,P|68:128|192:108,1,190,4|8,0:2|1:0,0:0:0:0:
372,152,56199,1,2,0:2:0:0:
372,152,56311,1,2,0:2:0:0:
372,152,56423,2,0,P|384:204|416:240,1,95,2|2,0:0|0:2,0:0:0:0:
376,308,56759,1,2,0:2:0:0:
376,308,56871,2,0,L|268:304,1,95,8|0,1:0|0:0,0:0:0:0:
84,216,57319,5,6,1:2:0:0:
376,40,57655,1,6,0:0:0:0:
256,360,57991,1,6,0:0:0:0:
456,172,58214,1,0,1:0:0:0:
236,84,58438,1,2,0:0:0:0:
368,304,58662,1,8,1:0:0:0:
368,304,58774,1,8,1:0:0:0:
368,304,58886,1,8,1:0:0:0:
368,304,58998,1,8,1:0:0:0:
368,304,59110,6,0,P|316:332|248:336,1,113.999996520996,4|2,0:0|0:2,0:0:0:0:
0,192,59558,2,0,P|52:164|120:160,1,113.999996520996,8|2,0:0|0:2,0:0:0:0:
320,64,60005,2,0,P|264:80|144:64,1,170.999994781494,0|2,0:0|0:2,0:0:0:0:
96,132,60453,2,0,P|128:184|120:240,1,113.999996520996,8|2,0:0|0:2,0:0:0:0:
364,360,60901,6,0,P|359:304|390:257,1,113.999996520996,0|2,0:0|0:2,0:0:0:0:
492,164,61349,1,12,0:2:0:0:
220,164,61573,1,2,0:2:0:0:
220,164,61685,1,2,0:2:0:0:
220,164,61797,2,0,L|192:36,1,113.999996520996,4|2,0:2|0:2,0:0:0:0:
368,28,62244,1,4,0:2:0:0:
368,300,62468,1,2,0:2:0:0:
368,300,62580,1,2,0:2:0:0:
368,300,62692,6,0,P|320:348|208:348,1,170.999994781494,4|2,0:0|0:2,0:0:0:0:
136,316,63140,2,0,P|84:312|12:340,1,113.999996520996,8|2,0:0|0:2,0:0:0:0:
0,224,63476,1,2,0:2:0:0:
0,224,63588,2,0,P|60:232|172:168,1,170.999994781494,0|2,0:0|0:2,0:0:0:0:
108,132,64035,2,0,P|56:160|0:148,1,113.999996520996,8|2,0:0|0:2,0:0:0:0:
216,40,64483,5,0,0:0:0:0:
437,218,64707,1,2,0:2:0:0:
417,19,64931,1,8,0:0:0:0:
238,237,65155,1,2,0:2:0:0:
238,237,65267,1,2,0:2:0:0:
238,237,65379,2,0,P|216:296|236:368,1,113.999996520996,8|2,0:0|0:0,0:0:0:0:
437,218,65826,1,8,0:0:0:0:
112,120,66050,1,2,0:0:0:0:
112,120,66162,1,0,0:0:0:0:
112,120,66274,6,0,L|88:8,1,113.999996520996,12|2,0:2|0:2,0:0:0:0:
400,120,66722,2,0,L|424:8,1,113.999996520996,8|2,0:0|0:2,0:0:0:0:
437,218,67170,2,0,P|368:220|296:136,1,170.999994781494,0|2,0:0|0:2,0:0:0:0:
236,208,67617,2,0,L|220:336,1,113.999996520996,8|2,0:0|0:2,0:0:0:0:
132,328,67953,1,2,0:2:0:0:
132,328,68065,6,0,P|100:276|24:248,1,113.999996520996,0|2,0:0|0:2,0:0:0:0:
152,24,68513,1,4,0:2:0:0:
152,24,68737,2,0,P|200:60|272:64,1,113.999996520996,2|4,0:2|0:2,0:0:0:0:
500,192,69185,2,0,P|444:200|399:235,1,113.999996520996,2|4,0:2|0:2,0:0:0:0:
256,368,69632,1,2,0:2:0:0:
256,368,69744,1,2,0:2:0:0:
256,368,69856,6,0,B|136:316|152:380|28:352,2,227.999993041992,4|8|0,0:0|0:0|0:0,0:0:0:0:
400,212,70976,1,2,0:2:0:0:
400,212,71088,1,2,0:2:0:0:
400,212,71199,2,0,P|344:200|300:144,1,113.999996520996,8|2,0:0|0:2,0:0:0:0:
56,32,71647,6,0,L|76:172,1,113.999996520996,0|2,0:0|0:2,0:0:0:0:
296,352,72095,2,0,L|312:239,1,113.999996520996,8|2,0:0|3:2,0:0:0:0:
380,172,72431,1,2,3:2:0:0:
380,172,72543,2,0,P|436:160|492:64,2,170.999994781494,6|6|6,3:2|3:2|3:2,0:0:0:0:
44,292,73438,6,0,P|104:268|212:300,1,170.999994781494,4|2,0:0|0:2,0:0:0:0:
304,268,73886,2,0,P|328:208|388:168,1,113.999996520996,8|2,0:0|0:2,0:0:0:0:
220,48,74334,2,0,L|88:40,1,113.999996520996,0|2,0:0|0:2,0:0:0:0:
180,121,74670,2,0,P|246:126|302:35,1,170.999994781494,2|2,0:2|0:2,0:0:0:0:
504,244,75229,5,0,0:0:0:0:
328,324,75453,1,2,0:2:0:0:
248,148,75677,1,4,0:2:0:0:
428,76,75901,1,2,0:2:0:0:
428,76,76013,1,2,0:2:0:0:
428,76,76125,1,4,0:2:0:0:
240,260,76349,1,2,0:2:0:0:
240,260,76461,1,2,0:2:0:0:
240,260,76573,1,4,0:2:0:0:
64,112,76797,1,2,0:2:0:0:
64,112,76908,1,2,0:2:0:0:
64,112,77020,6,0,P|60:172|44:228,1,113.999996520996,4|2,0:0|0:2,0:0:0:0:
280,356,77468,1,8,0:0:0:0:
352,240,77692,1,2,0:2:0:0:
448,140,77916,2,0,P|433:85|429:28,1,113.999996520996,0|2,0:0|0:2,0:0:0:0:
508,92,78252,1,2,0:2:0:0:
508,92,78364,2,0,L|480:216,1,113.999996520996,8|2,0:0|0:2,0:0:0:0:
164,268,78811,6,0,P|140:208|152:152,1,113.999996520996,0|2,0:0|0:2,0:0:0:0:
364,160,79259,2,0,P|371:216|348:268,1,113.999996520996,8|2,0:0|0:2,0:0:0:0:
283,204,79595,1,2,0:2:0:0:
283,204,79707,2,0,P|272:148|364:68,1,170.999994781494,8|2,0:0|0:0,0:0:0:0:
436,84,80155,2,0,P|467:144|455:204,1,113.999996520996,8|2,0:0|0:0,0:0:0:0:
220,336,80602,6,0,P|152:324|104:196,1,170.999994781494,12|2,0:2|0:2,0:0:0:0:
100,184,81050,1,8,0:0:0:0:
256,24,81274,1,2,0:2:0:0:
412,184,81498,2,0,L|428:248|440:296,2,113.999996520996,0|2|8,0:0|0:2|0:0,0:0:0:0:
204,316,82170,1,2,0:2:0:0:
204,316,82282,1,2,0:2:0:0:
204,316,82394,6,0,L|80:328,1,113.999996520996,0|2,0:0|0:2,0:0:0:0:
336,180,82841,2,0,L|460:192,1,113.999996520996,8|2,0:0|0:2,0:0:0:0:
196,40,83289,2,0,L|72:52,1,113.999996520996,0|2,0:0|0:2,0:0:0:0:
192,180,83737,1,8,0:0:0:0:
348,48,83961,1,2,0:2:0:0:
296,276,84185,6,0,P|240:316|128:312,1,170.999994781494,4|2,0:0|0:2,0:0:0:0:
148,244,84632,2,0,P|200:252|256:212,1,113.999996520996,8|2,0:0|0:2,0:0:0:0:
212,24,85080,2,0,P|156:16|109:47,1,113.999996520996,0|2,0:0|0:2,0:0:0:0:
292,120,85528,2,0,B|364:84|388:136|464:104,1,170.999994781494,8|2,0:0|0:2,0:0:0:0:
472,192,85976,6,0,P|460:248|464:268,1,56.9999982604981,0|8,3:0|3:2,0:0:0:0:
40,336,86423,1,8,3:2:0:0:
216,76,86759,2,0,P|214:47|203:21,2,56.9999982604981,8|8|8,3:2|3:2|3:2,0:0:0:0:
360,332,87207,1,8,3:2:0:0:
396,308,87319,1,8,3:2:0:0:
440,304,87431,1,8,3:2:0:0:
484,320,87543,1,8,3:2:0:0:
508,280,87655,1,8,3:2:0:0:
488,236,87767,6,2,P|472:184|484:132,1,95,4|0,0:0|0:2,0:0:0:0:
288,36,88214,2,0,P|308:92|304:132,1,95,10|2,0:0|0:2,0:0:0:0:
160,276,88662,2,0,L|144:216,1,47.5,2|2,3:1|3:2,0:0:0:0:
40,100,88998,1,2,3:1:0:0:
68,304,89222,2,2,P|100:352|148:372,1,95,2|2,3:2|3:1,0:0:0:0:
188,368,89558,5,2,0:0:0:0:
256,172,89782,1,2,0:0:0:0:
412,304,90005,2,2,P|456:276|496:180,1,142.5,10|2,0:0|3:2,0:0:0:0:
480,140,90453,1,2,3:1:0:0:
480,140,90565,1,2,3:2:0:0:
312,56,90789,1,2,3:1:0:0:
144,152,91013,2,2,L|40:136,1,95,2|2,3:2|3:1,0:0:0:0:
16,72,91349,6,2,P|64:48|120:52,1,95,0|2,0:0|0:0,0:0:0:0:
208,264,91797,2,2,L|52:252,1,142.5,10|2,0:0|3:2,0:0:0:0:
8,304,92244,2,0,P|52:328|72:328,1,47.5,2|2,3:1|3:2,0:0:0:0:
256,180,92580,1,2,3:1:0:0:
416,280,92804,1,2,3:2:0:0:
472,80,93028,1,2,3:1:0:0:
472,80,93140,5,2,0:1:0:0:
256,180,93364,1,2,0:1:0:0:
416,280,93588,1,10,0:1:0:0:
420,300,94035,2,0,P|440:332|464:352,1,47.5,2|2,3:1|3:2,0:0:0:0:
228,336,94371,1,2,3:1:0:0:
228,336,94483,2,2,P|160:340|112:308,1,95,8|2,3:1|3:1,0:1:0:0:
84,264,94819,1,2,3:2:0:0:
84,264,94931,6,2,P|68:208|84:160,1,95,4|2,0:0|0:0,0:0:0:0:
216,120,95379,2,0,P|232:64|216:16,1,95,10|2,0:0|0:2,0:0:0:0:
160,180,95826,2,0,P|184:196|212:200,1,47.5,2|2,3:1|3:2,0:0:0:0:
376,256,96162,1,2,3:1:0:0:
416,232,96274,1,8,3:1:0:0:
452,200,96386,1,2,3:2:0:0:
464,156,96498,1,2,3:2:0:0:
460,108,96610,1,2,3:1:0:0:
440,64,96722,5,2,0:1:0:0:
200,140,96946,1,2,0:1:0:0:
380,316,97170,1,10,0:1:0:0:
376,332,97617,2,0,P|352:360|332:368,1,47.5,2|2,3:1|3:2,0:0:0:0:
136,236,97953,2,0,P|160:264|180:272,1,47.5,2|8,3:1|3:1,0:0:0:0:
236,176,98177,1,2,3:2:0:0:
236,175,98289,2,2,P|222:195|203:208,1,47.5,2|2,3:2|3:1,0:0:0:0:
165,143,98513,6,2,P|97:147|43:206,1,142.5,0|2,0:0|0:2,0:0:0:0:
104,312,98961,2,0,P|172:308|226:249,1,142.5,10|2,0:0|3:2,0:0:0:0:
296,200,99408,2,0,P|312:248|312:268,1,47.5,2|2,3:1|3:2,0:0:0:0:
444,276,99744,2,0,P|480:256|508:256,1,47.5,0|8,0:0|1:0,0:0:0:0:
428,357,99968,2,2,P|404:349|385:336,2,47.5,2|8|2,3:1|3:1|3:2,0:0:0:0:
504,336,100304,5,2,0:1:0:0:
440,108,100528,1,2,0:1:0:0:
228,208,100752,1,10,0:1:0:0:
208,212,101199,1,2,3:1:0:0:
208,212,101311,1,2,3:2:0:0:
40,124,101535,1,2,3:1:0:0:
40,124,101647,1,8,3:1:0:0:
40,124,101759,1,2,3:2:0:0:
40,124,101871,1,2,3:2:0:0:
40,124,101983,1,2,3:1:0:0:
40,124,102095,6,0,P|72:80|76:32,1,95,6|6,0:0|0:2,0:0:0:0:
280,136,102543,2,2,P|287:182|364:240,1,142.5,10|2,0:0|0:2,0:0:0:0:
408,308,102991,2,0,P|390:339|391:365,1,47.5,2|2,0:0|0:2,0:0:0:0:
144,144,103326,2,0,P|162:152|180:174,1,47.5
136,264,103550,2,2,L|112:204,2,47.5,2|8|2,0:0|0:0|0:2,0:0:0:0:
136,264,103886,5,2,0:0:0:0:
256,28,104110,1,6,0:2:0:0:
376,264,104334,2,0,P|428:248|472:224,1,95,10|6,0:0|0:2,0:0:0:0:
184,124,104782,2,0,L|192:176,1,47.5,2|2,0:0|0:2,0:0:0:0:
440,100,105117,2,0,L|432:53,1,47.5,2|8,0:0|0:0,0:0:0:0:
344,132,105341,2,0,L|351:178,1,47.5,2|6,0:2|0:2,0:0:0:0:
312,248,105565,1,2,0:0:0:0:
312,248,105677,6,0,P|256:280|168:268,1,142.5,2|2,0:0|0:2,0:0:0:0:
264,188,106125,2,2,P|320:220|408:208,1,142.5,10|2,0:0|0:2,0:0:0:0:
440,188,106573,2,0,L|492:196,3,47.5,2|2|2|2,0:0|0:2|0:2|0:0,0:0:0:0:
376,128,107020,2,2,L|329:135,3,47.5,8|2|6|2,0:0|0:2|0:2|0:0,0:0:0:0:
460,96,107468,5,2,0:0:0:0:
256,228,107692,1,6,0:2:0:0:
108,36,107916,1,10,0:0:0:0:
256,312,108364,2,0,L|240:360,1,47.5,2|2,0:0|0:2,0:0:0:0:
420,308,108699,1,2,0:0:0:0:
420,308,108811,2,2,P|424:260|460:208,1,95,8|2,0:0|0:0,0:0:0:0:
364,156,109147,1,2,0:2:0:0:
364,156,109259,6,0,P|356:104|328:60,1,95,2|6,0:0|0:2,0:0:0:0:
135,188,109707,2,2,P|113:229|107:276,1,95,10|6,0:0|0:2,0:0:0:0:
284,356,110155,2,0,L|268:304,1,47.5,2|2,0:0|0:2,0:0:0:0:
248,108,110491,1,2,0:0:0:0:
40,116,110714,2,2,P|20:160|20:216,1,95,2|2,0:2|0:0,0:0:0:0:
48,252,111050,5,2,0:0:0:0:
176,60,111274,1,6,0:2:0:0:
264,260,111498,2,2,B|336:232|332:276|408:252,1,142.5,10|2,0:0|0:2,0:0:0:0:
464,192,111946,2,2,P|456:160|460:116,3,47.5,2|2|2|2,0:0|0:2|0:2|0:0,0:0:0:0:
504,88,112394,1,8,0:0:0:0:
464,64,112505,1,2,0:2:0:0:
416,68,112617,1,6,0:2:0:0:
380,100,112729,1,2,0:0:0:0:
360,144,112841,6,0,P|304:160|236:140,1,95,2|6,0:0|0:2,0:0:0:0:
8,312,113289,2,0,P|64:328|132:308,1,95,10|6,0:0|0:2,0:0:0:0:
320,256,113737,2,0,L|260:248,1,47.5,2|2,0:0|0:2,0:0:0:0:
448,348,114073,1,2,0:0:0:0:
496,164,114297,1,2,0:2:0:0:
232,156,114520,1,2,0:0:0:0:
232,156,114632,6,0,L|240:104,3,47.5,2|8|2|8,0:0|0:2|0:0|0:2,0:0:0:0:
164,204,115080,2,2,L|171:250,3,47.5,10|0|8|8,0:0|0:0|0:2|0:2,0:0:0:0:
220,320,115528,1,2,0:0:0:0:
264,336,115640,1,8,0:2:0:0:
312,324,115752,1,8,0:2:0:0:
344,288,115864,1,2,0:0:0:0:
348,240,115976,1,8,0:2:0:0:
324,200,116088,1,8,0:2:0:0:
280,180,116199,1,8,0:2:0:0:
232,184,116311,1,8,0:2:0:0:
200,216,116423,5,4,0:0:0:0:
256,192,116535,12,0,122692,0:0:0:0:
