osu file format v13

[General]
AudioFilename: [SDVX] Ray [EXH].mp3
AudioLeadIn: 0
PreviewTime: 38842
Countdown: 0
SampleSet: Normal
StackLeniency: 0.7
Mode: 3
LetterboxInBreaks: 0
SpecialStyle: 0
WidescreenStoryboard: 1

[Editor]
DistanceSpacing: 0.5
BeatDivisor: 4
GridSize: 4
TimelineZoom: 1

[Metadata]
Title:Ray
TitleUnicode:Ray
Artist:Minamotoya
ArtistUnicode:源屋
Creator:CrazyStar
Version:NOVICE
Source:SOUND VOLTEX BOOTH
Tags:SDVX Jubeat saucer BEMANI KONAMI
BeatmapID:436398
BeatmapSetID:176813

[Difficulty]
HPDrainRate:7
CircleSize:4
OverallDifficulty:6.5
ApproachRate:5
SliderMultiplier:1.4
SliderTickRate:1

[Events]
//Background and Video events
0,0,"Rasis.600.1370486.jpg",0,0
//Break Periods
//Storyboard Layer 0 (Background)
//Storyboard Layer 1 (Fail)
//Storyboard Layer 2 (Pass)
//Storyboard Layer 3 (Foreground)
//Storyboard Sound Samples
//Background Colour Transformations
3,100,163,162,255

[TimingPoints]
442,342.857142857143,4,1,0,23,1,0
38842,-100,4,1,0,23,0,1
60784,-100,4,2,0,23,0,0
94042,-100,4,1,0,23,0,1
104670,-100,4,1,0,23,0,0

[HitObjects]
64,192,442,5,0,0:0:0:0:
320,192,1042,1,0,0:0:0:0:
192,192,1299,1,0,0:0:0:0:
64,192,1813,1,0,0:0:0:0:
320,192,2413,1,0,0:0:0:0:
64,192,2670,1,0,0:0:0:0:
448,192,3013,1,0,0:0:0:0:
64,192,3184,1,0,0:0:0:0:
192,192,3356,1,0,0:0:0:0:
320,192,3527,1,0,0:0:0:0:
448,192,3699,1,0,0:0:0:0:
64,192,3870,1,0,0:0:0:0:
192,192,4042,1,0,0:0:0:0:
64,192,4213,128,0,4556:0:0:0:0:
448,192,4556,1,0,0:0:0:0:
192,192,4727,1,0,0:0:0:0:
320,192,4899,1,0,0:0:0:0:
448,192,5070,1,0,0:0:0:0:
320,192,5413,1,0,0:0:0:0:
448,192,5584,1,0,0:0:0:60:soft-hitclap.wav
64,192,5584,1,0,0:0:0:0:
64,192,5927,1,0,0:0:0:0:
192,192,6270,1,0,0:0:0:0:
320,192,6613,1,0,0:0:0:0:
448,192,6956,1,0,0:0:0:0:
64,192,7299,1,0,0:0:0:0:
192,192,7470,1,0,0:0:0:0:
320,192,7813,1,0,0:0:0:0:
448,192,7984,1,0,0:0:0:0:
192,192,8156,1,0,0:0:0:0:
448,192,8327,128,0,8670:0:0:0:0:
64,192,8670,1,0,0:0:0:0:
192,192,9013,1,0,0:0:0:0:
320,192,9356,1,0,0:0:0:0:
448,192,9699,1,0,0:0:0:0:
64,192,10042,1,0,0:0:0:0:
320,192,10213,1,0,0:0:0:0:
448,192,10556,1,0,0:0:0:0:
192,192,10899,1,0,0:0:0:0:
192,192,11070,128,0,11413:0:0:0:0:
448,192,11413,1,0,0:0:0:0:
320,192,11756,1,0,0:0:0:0:
192,192,12099,1,0,0:0:0:0:
64,192,12442,1,0,0:0:0:0:
192,192,12784,1,0,0:0:0:0:
320,192,12956,1,0,0:0:0:0:
448,192,13299,1,0,0:0:0:0:
192,192,13470,128,0,13813:0:0:0:0:
64,192,13813,1,0,0:0:0:0:
320,192,13984,1,0,0:0:0:0:
448,192,14156,1,0,0:0:0:0:
448,192,14327,1,0,0:0:0:0:
320,192,14499,1,0,0:0:0:0:
320,192,14670,1,0,0:0:0:0:
192,192,14842,1,0,0:0:0:0:
192,192,15013,1,0,0:0:0:0:
64,192,15184,128,0,15527:0:0:0:0:
192,192,15527,1,0,0:0:0:0:
448,192,15699,1,0,0:0:0:0:
320,192,15870,1,0,0:0:0:0:
448,192,16042,128,0,16899:0:0:0:0:
192,192,16556,128,0,16899:0:0:0:0:
64,192,16899,1,0,0:0:0:0:
320,192,16899,1,0,0:0:0:65:soft-hitclap.wav
192,192,17242,1,0,0:0:0:0:
320,192,17413,1,0,0:0:0:0:
448,192,17584,1,0,0:0:0:0:
192,192,18099,1,0,0:0:0:0:
320,192,18270,1,0,0:0:0:0:
64,192,18527,1,0,0:0:0:0:
192,192,18784,1,0,0:0:0:0:
448,192,18956,1,0,0:0:0:0:
320,192,19127,1,0,0:0:0:0:
192,192,19299,1,0,0:0:0:0:
448,192,19470,1,0,0:0:0:0:
64,192,19642,1,0,0:0:0:0:
192,192,19899,1,0,0:0:0:0:
320,192,20156,1,0,0:0:0:0:
448,192,20327,128,0,21013:0:0:0:0:
192,192,21527,1,0,0:0:0:0:
448,192,21699,1,0,0:0:0:0:
320,192,21956,1,0,0:0:0:0:
64,192,22213,1,0,0:0:0:0:
192,192,22384,1,0,0:0:0:0:
320,192,22727,1,0,0:0:0:0:
192,192,23070,1,0,0:0:0:0:
320,192,23413,1,0,0:0:0:0:
192,192,23756,1,0,0:0:0:0:
320,192,24099,1,0,0:0:0:0:
192,192,24442,1,0,0:0:0:0:
320,192,24784,1,0,0:0:0:0:
192,192,25127,1,0,0:0:0:0:
320,192,25470,1,0,0:0:0:0:
192,192,25813,1,0,0:0:0:0:
320,192,25984,1,0,0:0:0:0:
64,192,26156,128,0,26499:0:0:0:0:
320,192,26670,1,0,0:0:0:0:
192,192,26842,1,0,0:0:0:0:
64,192,27013,1,0,0:0:0:0:
64,192,27356,1,0,0:0:0:0:
192,192,27527,1,0,0:0:0:65:soft-hitclap.wav
320,192,27527,1,0,0:0:0:0:
64,192,27870,1,0,0:0:0:0:
192,192,28213,1,0,0:0:0:0:
448,192,28556,1,0,0:0:0:0:
192,192,28899,1,0,0:0:0:0:
64,192,29242,1,0,0:0:0:0:
320,192,29584,1,0,0:0:0:0:
448,192,29927,1,0,0:0:0:0:
320,192,30270,1,0,0:0:0:0:
64,192,30613,1,0,0:0:0:0:
320,192,30956,1,0,0:0:0:0:
64,192,31299,1,0,0:0:0:0:
448,192,31642,1,0,0:0:0:0:
64,192,31813,128,0,33013:0:0:0:0:
192,192,33013,1,0,0:0:0:0:
320,192,33184,1,0,0:0:0:0:
192,192,33356,1,0,0:0:0:0:
448,192,33356,1,0,0:0:0:0:
320,192,33956,1,0,0:0:0:0:
192,192,34213,1,0,0:0:0:0:
192,192,34727,1,0,0:0:0:0:
192,192,35327,1,0,0:0:0:0:
320,192,35584,1,0,0:0:0:0:
192,192,36099,1,0,0:0:0:0:
192,192,36442,1,0,0:0:0:0:
320,192,36784,1,0,0:0:0:0:
64,192,36956,1,0,0:0:0:0:
320,192,37127,128,0,37470:0:0:0:0:
192,192,37470,128,0,38499:0:0:0:0:
448,192,38499,1,0,0:0:0:0:
64,192,38499,1,0,0:0:0:55:soft-hitclap.wav
320,192,38842,1,0,0:0:0:0:
64,192,39184,1,0,0:0:0:0:
320,192,39527,1,0,0:0:0:0:
64,192,39870,1,0,0:0:0:0:
192,192,40213,1,0,0:0:0:0:
448,192,40384,1,0,0:0:0:0:
64,192,40556,1,0,0:0:0:0:
320,192,40727,1,0,0:0:0:0:
64,192,40899,128,0,41242:0:0:0:0:
320,192,41242,1,0,0:0:0:0:
192,192,41413,1,0,0:0:0:0:
448,192,41584,1,0,0:0:0:0:
192,192,41927,1,0,0:0:0:0:
448,192,42270,1,0,0:0:0:0:
192,192,42613,1,0,0:0:0:0:
320,192,42956,1,0,0:0:0:0:
192,192,43127,1,0,0:0:0:0:
448,192,43299,1,0,0:0:0:0:
64,192,43470,1,0,0:0:0:0:
448,192,43642,1,0,0:0:0:0:
64,192,43813,1,0,0:0:0:0:
448,192,43984,1,0,0:0:0:0:
64,192,44156,1,0,0:0:0:0:
192,192,44327,1,0,0:0:0:0:
320,192,44670,1,0,0:0:0:0:
192,192,45013,1,0,0:0:0:0:
320,192,45356,1,0,0:0:0:0:
448,192,45699,1,0,0:0:0:0:
448,192,45870,1,0,0:0:0:0:
448,192,46042,1,0,0:0:0:0:
64,192,46213,1,0,0:0:0:0:
64,192,46556,1,0,0:0:0:0:
64,192,46899,1,0,0:0:0:0:
192,192,47413,1,0,0:0:0:0:
192,192,47756,1,0,0:0:0:0:
320,192,48099,1,0,0:0:0:0:
192,192,48270,1,0,0:0:0:55:soft-hitclap.wav
448,192,48270,1,0,0:0:0:0:
320,192,48613,1,0,0:0:0:0:
64,192,48613,1,0,0:0:0:55:soft-hitclap.wav
192,192,48956,1,0,0:0:0:0:
320,192,48956,1,0,0:0:0:55:soft-hitclap.wav
64,192,49299,1,0,0:0:0:0:
448,192,49299,1,0,0:0:0:55:soft-hitclap.wav
192,192,49470,1,0,0:0:0:0:
320,192,49642,1,0,0:0:0:0:
448,192,49813,1,0,0:0:0:0:
64,192,49813,128,0,50156:0:0:0:0:
320,192,50156,1,0,0:0:0:0:
448,192,50499,1,0,0:0:0:0:
320,192,50842,1,0,0:0:0:0:
192,192,51184,1,0,0:0:0:0:
320,192,51356,1,0,0:0:0:0:
64,192,51527,1,0,0:0:0:0:
448,192,51699,1,0,0:0:0:0:
64,192,51870,1,0,0:0:0:0:
448,192,52042,1,0,0:0:0:0:
64,192,52213,1,0,0:0:0:0:
448,192,52384,1,0,0:0:0:0:
192,192,52556,1,0,0:0:0:0:
320,192,52899,1,0,0:0:0:0:
192,192,53242,1,0,0:0:0:0:
192,192,53584,1,0,0:0:0:0:
64,192,53756,1,0,0:0:0:0:
448,192,53756,1,0,0:0:0:55:soft-hitclap.wav
320,192,54099,1,0,0:0:0:0:
64,192,54099,1,0,0:0:0:55:soft-hitclap.wav
320,192,54442,1,0,0:0:0:55:soft-hitclap.wav
448,192,54442,1,0,0:0:0:0:
192,192,54784,1,0,0:0:0:55:soft-hitclap.wav
64,192,54784,1,0,0:0:0:0:
192,192,55127,1,0,0:0:0:0:
448,192,55299,1,0,0:0:0:0:
64,192,55642,1,0,0:0:0:0:
448,192,55984,1,0,0:0:0:0:
64,192,56327,1,0,0:0:0:0:
320,192,56670,1,0,0:0:0:0:
192,192,56842,1,0,0:0:0:0:
448,192,57013,1,0,0:0:0:0:
64,192,57184,1,0,0:0:0:0:
448,192,57356,1,0,0:0:0:0:
64,192,57527,1,0,0:0:0:0:
448,192,57699,1,0,0:0:0:0:
64,192,57870,1,0,0:0:0:0:
64,192,58042,128,0,59070:0:0:0:0:
448,192,58556,1,0,0:0:0:0:
448,192,58727,128,0,59070:0:0:0:0:
192,192,59070,1,0,0:0:0:0:
320,192,59242,1,0,0:0:0:0:
320,192,59584,1,0,0:0:0:0:
192,192,59756,1,0,0:0:0:0:
64,192,59927,128,0,60270:0:0:0:0:
192,192,60270,1,0,0:0:0:0:
320,192,60442,1,0,0:0:0:65:soft-hitclap.wav
448,192,60613,1,0,0:0:0:0:
192,192,60784,1,0,0:0:0:0:
64,192,60784,1,0,0:0:0:0:
320,192,61813,1,0,0:0:0:0:
448,192,61984,1,0,0:0:0:0:
192,192,62156,1,0,0:0:0:0:
320,192,62413,1,0,0:0:0:0:
64,192,62670,1,0,0:0:0:0:
320,192,62842,1,0,0:0:0:0:
448,192,63099,1,0,0:0:0:0:
192,192,63356,1,0,0:0:0:0:
320,192,63527,1,0,0:0:0:0:
64,192,63784,1,0,0:0:0:0:
192,192,64042,128,0,64899:0:0:0:0:
192,192,65413,1,0,0:0:0:0:
320,192,65584,1,0,0:0:0:0:
448,192,65842,1,0,0:0:0:0:
192,192,66099,128,0,66784:0:0:0:0:
64,192,67299,1,0,0:0:0:0:
320,192,67470,1,0,0:0:0:0:
192,192,67813,1,0,0:0:0:0:
320,192,68156,1,0,0:0:0:0:
64,192,68499,1,0,0:0:0:0:
448,192,68842,1,0,0:0:0:0:
320,192,69013,1,0,0:0:0:0:
64,192,69356,1,0,0:0:0:0:
192,192,69527,128,0,70213:0:0:0:0:
192,192,72784,1,0,0:0:0:0:
320,192,73127,1,0,0:0:0:0:
64,192,73384,1,0,0:0:0:0:
192,192,73642,1,0,0:0:0:0:
448,192,73813,1,0,0:0:0:0:
64,192,74070,1,0,0:0:0:0:
320,192,74327,1,0,0:0:0:0:
192,192,74499,1,0,0:0:0:0:
448,192,74756,1,0,0:0:0:0:
320,192,75013,128,0,75527:0:0:0:0:
192,192,76384,1,0,0:0:0:0:
320,192,76556,1,0,0:0:0:0:
192,192,76813,1,0,0:0:0:0:
448,192,77070,1,0,0:0:0:0:
64,192,77242,1,0,0:0:0:0:
320,192,78270,1,0,0:0:0:0:
448,192,78442,1,0,0:0:0:0:
320,192,78784,1,0,0:0:0:0:
192,192,79127,1,0,0:0:0:0:
320,192,79470,1,0,0:0:0:0:
192,192,79813,1,0,0:0:0:0:
448,192,79984,1,0,0:0:0:0:
320,192,79984,128,0,81356:0:0:0:0:
192,192,80327,128,0,81356:0:0:0:0:
64,192,82384,1,0,0:0:0:0:
320,192,82384,1,0,0:0:0:75:soft-hitclap.wav
192,192,82727,1,0,0:0:0:0:
320,192,83070,1,0,0:0:0:0:
192,192,83242,1,0,0:0:0:0:
448,192,83584,1,0,0:0:0:0:
64,192,83927,128,0,84270:0:0:0:0:
320,192,84270,1,0,0:0:0:0:
448,192,84442,1,0,0:0:0:0:
192,192,84613,128,0,84784:0:0:0:0:
192,192,84956,1,0,0:0:0:0:
192,192,85127,1,0,0:0:0:0:
320,192,85299,1,0,0:0:0:0:
64,192,85470,1,0,0:0:0:0:
320,192,85813,1,0,0:0:0:0:
448,192,85984,128,0,86327:0:0:0:0:
192,192,86327,1,0,0:0:0:0:
64,192,86499,1,0,0:0:0:0:
320,192,86670,1,0,0:0:0:0:
192,192,87013,1,0,0:0:0:0:
448,192,87184,1,0,0:0:0:0:
192,192,87356,128,0,87699:0:0:0:0:
320,192,87699,1,0,0:0:0:0:
320,192,87870,1,0,0:0:0:0:
192,192,88213,1,0,0:0:0:0:
320,192,88556,1,0,0:0:0:0:
192,192,88899,1,0,0:0:0:0:
320,192,89242,1,0,0:0:0:0:
192,192,89584,1,0,0:0:0:0:
320,192,89927,1,0,0:0:0:0:
192,192,90270,1,0,0:0:0:0:
64,192,90613,1,0,0:0:0:0:
320,192,90784,1,0,0:0:0:0:
448,192,90956,1,0,0:0:0:0:
320,192,91127,1,0,0:0:0:0:
192,192,91299,1,0,0:0:0:0:
64,192,91470,1,0,0:0:0:0:
448,192,91642,128,0,92327:0:0:0:0:
192,192,92327,1,0,0:0:0:0:
64,192,92499,1,0,0:0:0:0:
320,192,92670,1,0,0:0:0:0:
64,192,92842,128,0,93184:0:0:0:0:
448,192,93184,128,0,93527:0:0:0:0:
192,192,93527,1,0,0:0:0:0:
320,192,93699,1,0,0:0:0:0:
320,192,93870,1,0,0:0:0:0:
192,192,94042,1,0,0:0:0:70:soft-hitclap.wav
64,192,94042,1,0,0:0:0:0:
192,192,94384,1,0,0:0:0:0:
192,192,94727,1,0,0:0:0:0:
448,192,95070,1,0,0:0:0:0:
320,192,95242,1,0,0:0:0:0:
192,192,95413,1,0,0:0:0:0:
448,192,95584,1,0,0:0:0:0:
192,192,95756,1,0,0:0:0:0:
448,192,95927,1,0,0:0:0:0:
192,192,96099,1,0,0:0:0:0:
448,192,96270,1,0,0:0:0:0:
320,192,96442,1,0,0:0:0:0:
320,192,96784,1,0,0:0:0:0:
320,192,97127,1,0,0:0:0:0:
64,192,97470,1,0,0:0:0:0:
320,192,97642,1,0,0:0:0:0:
448,192,97642,1,0,0:0:0:65:soft-hitclap.wav
192,192,97984,1,0,0:0:0:65:soft-hitclap.wav
64,192,97984,1,0,0:0:0:0:
192,192,98327,1,0,0:0:0:0:
320,192,98327,1,0,0:0:0:65:soft-hitclap.wav
192,192,98670,1,0,0:0:0:0:
64,192,98670,1,0,0:0:0:65:soft-hitclap.wav
320,192,98842,1,0,0:0:0:0:
320,192,99013,1,0,0:0:0:0:
448,192,99184,1,0,0:0:0:0:
64,192,99527,1,0,0:0:0:0:
448,192,99870,1,0,0:0:0:0:
64,192,100213,1,0,0:0:0:0:
320,192,100556,1,0,0:0:0:0:
192,192,100727,1,0,0:0:0:0:
64,192,100899,1,0,0:0:0:0:
320,192,101070,1,0,0:0:0:0:
64,192,101242,1,0,0:0:0:0:
320,192,101413,1,0,0:0:0:0:
64,192,101584,1,0,0:0:0:0:
192,192,101756,1,0,0:0:0:0:
448,192,101927,1,0,0:0:0:0:
192,192,102099,1,0,0:0:0:0:
448,192,102270,1,0,0:0:0:0:
192,192,102442,1,0,0:0:0:0:
448,192,102613,1,0,0:0:0:0:
192,192,102784,1,0,0:0:0:0:
448,192,102956,128,0,103299:0:0:0:0:
64,192,103299,1,0,0:0:0:0:
320,192,103470,1,0,0:0:0:0:
448,192,103813,1,0,0:0:0:0:
320,192,104327,1,0,0:0:0:0:
192,192,104670,1,0,0:0:0:0:
448,192,104670,1,0,0:0:0:0:
320,192,105013,1,0,0:0:0:0:
192,192,105356,1,0,0:0:0:0:
64,192,105699,1,0,0:0:0:0:
320,192,106042,1,0,0:0:0:0:
448,192,106213,1,0,0:0:0:0:
192,192,106556,1,0,0:0:0:0:
320,192,106899,1,0,0:0:0:0:
64,192,107070,1,0,0:0:0:0:
448,192,107070,1,0,0:0:0:65:soft-hitclap.wav
64,192,107413,1,0,0:0:0:0:
192,192,107756,1,0,0:0:0:0:
320,192,108099,1,0,0:0:0:0:
192,192,108442,1,0,0:0:0:0:
448,192,108613,1,0,0:0:0:0:
64,192,108613,1,0,0:0:0:65:soft-hitclap.wav
320,192,108956,1,0,0:0:0:0:
448,192,108956,1,0,0:0:0:65:soft-hitclap.wav
192,192,109299,1,0,0:0:0:65:soft-hitclap.wav
64,192,109299,1,0,0:0:0:0:
320,192,109642,1,0,0:0:0:65:soft-hitclap.wav
192,192,109642,1,0,0:0:0:0:
192,192,109813,128,0,110156:0:0:0:0:
448,192,110156,1,0,0:0:0:0:
320,192,110499,1,0,0:0:0:0:
192,192,110842,1,0,0:0:0:0:
64,192,111184,1,0,0:0:0:0:
448,192,111184,1,0,0:0:0:65:soft-hitclap.wav
192,192,111527,1,0,0:0:0:0:
320,192,111870,1,0,0:0:0:0:
448,192,112213,1,0,0:0:0:0:
320,192,112556,1,0,0:0:0:65:soft-hitclap.wav
64,192,112556,1,0,0:0:0:0:
64,192,112899,128,0,113242:0:0:0:0:
448,192,113242,128,0,113584:0:0:0:0:
192,192,113584,128,0,113927:0:0:0:0:
320,192,113927,128,0,114270:0:0:0:0:
448,192,113927,128,0,114270:0:0:0:0:
64,192,114270,1,0,0:0:0:0:
192,192,114442,1,0,0:0:0:0:
320,192,114613,1,0,0:0:0:0:
448,192,114784,1,0,0:0:0:0:
320,192,115299,128,0,115642:0:0:0:0:
192,192,115299,128,0,115642:0:0:0:0:
448,192,115642,1,0,0:0:0:50:soft-hitclap.wav
64,192,115642,1,0,0:0:0:0:
