osu file format v8

[General]
AudioFilename: Keikenzi_Zyoushou.mp3
AudioLeadIn: 0
PreviewTime: -1
Countdown: 0
SampleSet: Soft
StackLeniency: 0.7
Mode: 0
LetterboxInBreaks: 1

[Editor]
Bookmarks: 1411,40584
DistanceSpacing: 1
BeatDivisor: 4
GridSize: 8

[Metadata]
Title:Keikenchi Zyoushou
Artist:Minamike
Creator:thinkinglf2
Version:TAG2
Source:Minamike
Tags:

[Difficulty]
HPDrainRate:6
CircleSize:6
OverallDifficulty:8
ApproachRate:8
SliderMultiplier:1.5
SliderTickRate:0.5

[Events]
//Background and Video events
0,0,"846395254969078025.jpg"
//Break Periods
2,14047,24393
//Storyboard Layer 0 (Background)
//Storyboard Layer 1 (Fail)
//Storyboard Layer 2 (Pass)
//Storyboard Layer 3 (Foreground)
//Storyboard Sound Samples
//Background Colour Transformations
3,100,163,162,255

[TimingPoints]
1496,352.941176470588,4,2,0,100,1,0
8025,-50,4,2,0,100,0,0
8290,-100,4,2,0,100,0,0
8907,-50,4,2,0,100,0,0
9437,-100,4,2,0,100,0,0
13495,-50,4,2,0,100,0,0
24084,-100,4,2,0,100,0,0
33966,-50,4,2,0,100,0,0
36440,-100,4,2,0,100,0,0
56731,-50,4,2,0,100,0,0
57437,-100,4,2,0,100,0,0
61143,-50,4,2,0,100,0,0
163472,-100,4,2,0,100,0,1
213966,-100,4,2,0,100,0,0

[HitObjects]
56,64,1848,5,0
64,136,2025,1,0
112,192,2201,1,0
184,224,2378,1,0
256,240,2555,5,0
472,40,2554,6,4,L|360:176,1,150
344,232,2907,1,0
344,232,3085,5,0
304,152,3084,6,4,L|416:24,1,150
432,216,3437,1,0
432,216,3791,5,0
264,40,3790,6,4,L|96:40,1,150
120,112,4319,6,0,L|120:208,1,75
480,64,4672,5,0
176,112,4672,2,0,L|176:208,1,75
448,136,4849,1,0
400,192,5025,5,0
232,112,5025,6,0,L|232:208,1,75,0|0
328,224,5202,1,0
256,240,5379,5,0
288,112,5378,6,0,L|288:208,1,75
176,256,5729,1,0
176,256,5907,5,0
344,112,5731,6,0,L|344:200,1,75
96,272,6259,5,0
400,112,6084,6,0,L|400:200,1,75
96,272,6613,5,0
320,336,6613,6,0,C|384:272|456:336,3,187.5
56,40,8290,2,0,C|168:152,1,150
96,200,8907,5,8
232,232,8907,2,0,C|304:360|376:216,1,300
370,230,9437,5,0
160,120,9437,2,0,C|272:88|392:128,1,225
440,80,10143,5,0
256,352,10143,2,4,C|256:264,1,75,0|0
256,192,10672,5,0
368,56,10319,2,0,C|256:24|136:64,1,225
256,192,11025,5,0
80,96,11025,6,0,C|40:160|64:248|24:328,1,225
432,336,11554,2,0,C|432:248,1,75
112,312,11731,5,8
160,208,12260,5,8
376,336,12084,6,0,C|376:256,1,75
176,328,12613,1,0
256,344,12790,1,0
328,320,12966,1,0
384,272,13142,1,8
400,240,13230,1,8
416,208,13318,1,8
432,176,13407,1,8
280,240,13495,6,0,C|16:24,1,300,0|4
448,336,25143,5,0
296,336,25495,5,0
144,336,25848,1,0
440,64,25319,6,0,C|400:72|368:64,4,75
88,296,26025,1,0
48,232,26201,1,0
464,192,26378,5,0
416,256,26554,1,0
360,320,26731,1,0
304,256,26907,1,0
40,160,26378,2,0,C|128:88|224:176,1,225
256,192,27084,1,0
208,224,27260,6,0,C|168:232|136:224,4,75
440,72,28143,5,0
72,328,28319,5,0
352,72,28319,2,0,C|256:72,1,75
224,328,28672,5,0
304,328,28848,1,0
200,72,28672,6,0,C|104:72,1,75
376,328,29025,1,0
56,192,29201,5,0
72,320,29554,1,0
440,328,29201,2,0,C|488:224|432:128,1,225
72,320,29731,1,0
72,320,29907,1,0
433,130,30084,5,0
152,320,30260,6,0,C|216:248,1,75
433,130,30437,5,0
248,208,30613,6,0,C|192:136,1,75
433,130,30790,5,0
104,40,31143,5,0
104,192,31495,1,0
432,32,31143,6,0,C|376:96|304:88,1,150
56,248,31672,1,0
104,304,31848,5,0
184,56,31848,6,0,C|112:48|48:136,1,150
256,304,32201,5,0
408,304,32554,5,0
456,248,32731,1,0
408,192,32907,1,0
200,152,32554,2,0,C|200:232,4,75
400,40,33260,1,0
328,40,33437,5,0
256,40,33613,1,0
288,160,33437,6,0,C|344:216,1,75
464,328,33966,5,0
312,328,34319,1,0
128,64,33966,2,0,L|24:168|136:280,2,300
160,328,34672,1,0
56,224,35025,5,0
88,224,35113,1,0
120,224,35201,1,0
240,224,35378,1,0
240,80,35731,1,0
208,80,35819,1,0
176,80,35907,1,0
56,80,36084,1,0
312,328,35025,2,4,C|392:200|304:72,4,300,4|4|4|4|4
56,80,36437,1,0
448,328,36790,5,0
448,232,37143,1,0
56,152,36613,2,0,L|56:240,4,75
448,200,37319,1,0
448,168,37495,1,0
160,152,37672,5,0
448,80,37672,2,0,L|272:80,1,150
272,216,38025,1,0
352,200,38201,1,0
176,144,38378,5,0
112,192,38554,1,0
112,192,38643,1,0
112,192,38731,1,0
112,192,38819,1,0
112,192,38907,1,0
112,192,38995,1,0
368,272,38378,2,0,C|256:328|96:272,1,262.5,0|2
112,192,39084,1,0
130,285,39260,5,0
256,192,39613,5,0
56,48,39437,6,0,C|144:48,1,75
408,192,39966,5,0
240,48,39966,6,0,C|320:48,1,75
408,264,40143,1,0
408,336,40319,1,0
472,104,40495,5,0
320,336,40495,2,0,C|208:336|168:336,1,150
320,160,40848,1,0
256,160,41025,1,0
192,160,41201,1,0
171,337,41025,6,0,C|113:281,1,75
117,285,41378,2,0,C|176:225,1,75
256,48,41907,5,0
170,232,41731,2,0,C|232:297,1,75
256,48,42084,5,0
72,112,42437,1,0
256,184,42790,1,0
224,288,42084,6,0,C|296:224|360:280,3,150
440,120,43143,1,0
424,336,43495,5,0
256,336,43848,1,0
256,48,43495,2,0,C|256:128,3,75
184,336,44025,1,0
112,336,44201,5,0
112,192,44554,1,0
184,192,44730,1,0
320,48,44201,6,0,C|320:128,3,75
256,192,44907,5,0
384,48,44907,6,0,C|384:224,1,150
256,48,45260,1,0
184,48,45437,5,0
112,48,45613,1,0
384,198,45437,6,0,C|384:360,1,150
304,344,46143,5,0
112,192,45966,2,0,C|112:272,2,75
304,264,46319,1,0
456,264,46672,5,0
456,192,46848,1,0
184,192,46672,6,0,C|184:272,1,75
184,344,47025,5,0
392,72,47201,5,0
312,56,47378,1,0
256,344,47201,2,0,C|256:264,2,75
232,48,47554,1,0
328,344,47731,5,0
400,344,47907,1,0
64,48,48084,5,0
64,192,48437,5,0
64,344,48790,1,0
472,344,48084,2,0,C|472:264,5,75
472,192,49143,1,0
472,192,49319,1,0
472,192,49495,1,0
456,64,49848,5,0
448,136,50025,1,0
400,192,50201,1,0
328,224,50378,1,0
256,240,50555,5,0
40,40,50554,6,4,L|152:176,1,150
168,232,50907,1,0
168,232,51085,5,0
208,152,51084,6,4,L|96:24,1,150
80,216,51437,1,0
80,216,51791,5,0
248,40,51790,6,4,L|416:40,1,150
392,112,52319,6,0,L|392:208,1,75
32,64,52672,5,0
336,112,52672,2,0,L|336:208,1,75
64,136,52849,1,0
112,192,53025,5,0
280,112,53025,6,0,L|280:208,1,75,0|0
184,224,53202,1,0
256,240,53379,5,0
224,112,53378,6,0,L|224:208,1,75
336,256,53729,1,0
336,256,53907,5,0
168,112,53731,6,0,L|168:200,1,75
416,272,54259,5,0
112,112,54084,6,0,L|112:200,1,75
416,272,54613,5,0
256,192,55054,1,0
160,128,55319,1,0
104,80,55495,1,0
96,336,54613,6,0,C|152:288|208:344,3,150
176,56,55672,1,0
248,40,55848,5,0
320,32,56025,1,0
280,336,55848,6,0,C|336:288|392:344,1,150
392,40,56201,2,0,C|312:168,1,150
387,339,56554,5,8
448,296,56731,5,0
400,232,56907,1,8
280,232,56731,6,0,C|208:360|136:216,1,300
464,192,57084,1,0
142,230,57437,5,0
352,120,57437,2,0,C|240:88|120:128,1,225
72,80,58143,5,0
256,352,58143,2,4,C|256:264,1,75,0|0
256,192,58672,5,0
144,56,58319,2,0,C|256:24|376:64,1,225
256,192,59025,5,0
432,96,59025,6,0,C|472:160|448:248|488:328,1,225
256,192,59554,2,0,C|160:192,1,75
471,298,59731,5,8
272,120,60084,5,0
471,297,60260,5,8
336,328,60613,1,0
256,344,60790,1,0
272,120,60260,2,0,C|272:24,4,75
184,320,60966,1,0
128,272,61142,1,8
112,240,61230,5,8
96,208,61318,1,8
80,176,61407,1,8
376,64,61143,6,0,C|480:72|384:224,1,225
64,144,61495,5,8
56,72,61672,1,4
408,192,61495,6,0,C|352:312|456:288,1,225
437,293,61848,5,0
256,192,62201,1,0
