osu file format v7

[General]
AudioFilename: Keikenzi_Zyoushou.mp3
AudioLeadIn: 0
PreviewTime: -1
Countdown: 1
SampleSet: Soft
StackLeniency: 0.7
Mode: 0
LetterboxInBreaks: 1

[Editor]
Bookmarks: 1411
DistanceSpacing: 0.699999988079071
BeatDivisor: 4
GridSize: 8

[Metadata]
Title:Keikenchi Zyoushou
Artist:Minamike
Creator:thinkinglf2
Version:Normal
Source:Minamike
Tags:

[Difficulty]
HPDrainRate:4
CircleSize:4
OverallDifficulty:1
SliderMultiplier:1.5
SliderTickRate:2

[Events]
//Background and Video events
0,0,"846395254969078025.jpg"
//Break Periods
2,13695,23463
2,72990,82933
//Storyboard Layer 0 (Background)
//Storyboard Layer 1 (Fail)
//Storyboard Layer 2 (Pass)
//Storyboard Layer 3 (Foreground)
//Storyboard Sound Samples
//Background Colour Transformations
3,100,163,162,255

[TimingPoints]
1496,352.941176470588,4,2,0,100,1,0

[HitObjects]
80,112,1848,2,0,B|232:24|288:96,1,225
286,93,2554,1,0
376,88,2907,1,0
424,88,3084,1,0
424,176,3437,1,0
424,264,3790,1,0
424,264,4672,6,0,B|272:352|216:280,1,225
217,282,5378,1,0
128,288,5731,1,0
80,288,5908,1,0
80,200,6261,1,0
80,112,6614,1,0
80,112,8201,6,0,B|224:8|376:144,1,300
440,232,9437,6,0,B|320:328|96:376|64:304|96:192|208:184|248:256|176:280,1,487.5
192,272,11025,1,0
272,168,11554,1,0
272,168,11730,1,0
336,104,12084,5,0
336,104,12260,1,0
256,192,12437,12,0,13495
440,192,25143,5,0
360,232,25495,1,0
280,272,25848,1,0
280,272,26025,1,0
192,256,26378,1,0
128,192,26731,1,0
128,192,26907,1,0
128,192,27084,2,0,B|144:168|176:216|200:192,5,75
192,296,28319,6,0,B|304:360|424:288,1,225
368,192,29201,2,0,B|352:168|320:216|296:192,4,75
448,120,30260,2,0,B|448:32,1,75
344,56,30790,2,0,B|120:0|56:128,1,300
64,208,31848,5,0
120,304,32201,1,0
224,336,32554,1,0
264,304,32731,1,0
304,336,32907,1,0
392,328,33260,1,0
440,320,33437,1,0
448,272,33613,1,0
456,176,33966,1,0
416,96,34319,1,0
336,56,34672,1,0
344,144,35025,6,0,B|344:208,6,37.5
344,144,35731,6,0,B|288:144,8,37.5
256,200,36790,5,0
152,216,37143,1,0
152,216,37319,1,0
48,168,37672,2,0,B|144:128|160:40,1,150
152,72,38378,2,0,B|304:0|424:152,1,300
416,144,39260,5,0
448,248,39613,1,0
368,312,39966,1,0
368,312,40143,1,0
280,328,40495,1,0
192,320,40848,1,0
152,288,41025,1,0
112,320,41201,1,0
72,96,42084,6,0,B|120:40|184:24|232:32,1,150
202,30,42790,2,0,B|224:96|264:120|344:88,1,150
400,120,43495,2,0,B|400:208,3,75
256,304,44731,5,0
256,304,44907,1,0
168,296,45260,1,0
120,288,45437,1,0
112,240,45613,1,0
112,136,45966,1,0
136,88,46143,1,0
184,80,46319,1,0
288,64,46672,2,0,B|304:32|328:112|368:40,5,75
256,192,48084,12,0,49495
256,192,49848,6,0,B|256:288,4,75
184,144,50907,1,0
184,248,51260,1,0
328,248,51613,1,0
328,144,51966,1,0
256,192,52319,1,0
256,192,52672,6,0,B|256:96,4,75
368,280,53731,1,0
368,112,54084,1,0
144,112,54437,1,0
152,280,54790,1,0
256,192,55143,1,0
256,192,55319,1,0
256,192,55495,1,0
440,296,56201,5,0
448,192,56554,1,0
448,88,56907,1,0
400,64,57084,1,0
352,88,57260,1,0
248,64,57613,1,0
200,88,57790,1,0
152,64,57966,1,0
88,144,58319,1,0
88,248,58672,1,0
168,312,59025,6,0,B|168:256,5,37.5,0|0|0|0|0|0
168,312,59731,6,0,B|240:312,6,37.5
256,192,60790,5,0
256,192,61143,6,0,B|256:288,4,75
184,144,62202,1,0
184,248,62555,1,0
328,248,62908,1,0
328,144,63261,1,0
256,192,63614,1,0
256,192,63967,6,0,B|256:96,4,75
368,280,65026,1,0
368,112,65379,1,0
152,104,65732,1,0
152,280,66085,1,0
256,192,66438,1,0
256,192,66614,1,0
256,192,66790,1,0
80,304,67495,5,0
136,216,67848,1,0
192,304,68201,1,0
256,216,68554,1,0
256,216,68731,1,0
416,72,69437,1,0
416,72,69613,1,0
416,72,69966,1,0
256,192,70319,12,0,72790
104,64,84613,5,0
208,64,84966,1,0
312,64,85319,1,0
416,64,85672,1,0
256,192,86378,1,0
104,200,86907,5,0
72,240,87084,1,0
104,280,87260,1,0
184,344,87613,1,0
256,272,87966,1,0
256,272,88143,1,0
336,336,88495,1,0
424,272,88848,1,0
464,240,89025,1,0
432,200,89201,1,0
424,104,89554,1,0
424,104,89731,1,0
336,168,90084,2,0,B|136:256|48:104,1,300
64,128,91142,5,0
120,56,91495,1,0
224,48,91848,1,0
264,80,92025,1,0
304,48,92201,1,0
392,56,92554,1,0
440,64,92731,1,0
448,112,92907,1,0
456,208,93260,1,0
416,288,93613,1,0
336,328,93966,1,0
344,240,94319,6,0,B|344:176,6,37.5
344,240,95025,6,0,B|288:240,8,37.5
224,224,96084,5,0
136,168,96437,1,0
136,168,96613,1,0
48,216,96966,2,0,B|144:256|160:344,1,150
152,312,97672,2,0,B|304:384|424:232,1,300
416,240,98554,5,0
408,136,98907,1,0
336,56,99260,1,0
336,56,99437,1,0
256,128,99789,1,0
144,112,100142,1,0
104,80,100319,1,0
64,112,100495,1,0
72,328,101378,6,0,B|152:264|232:344,1,150
312,320,102084,6,0,B|392:256|472:336,1,150
448,216,102790,6,0,B|368:152|288:232,1,150
208,216,103495,6,0,B|128:152|48:232,1,150
112,120,104201,5,0
200,64,104554,1,0
304,64,104907,1,0
392,120,105260,1,0
256,192,105613,12,0,108437
256,192,109143,6,0,B|256:96,4,75
184,240,110202,1,0
184,136,110555,1,0
328,136,110908,1,0
328,240,111261,1,0
256,192,111614,1,0
256,192,111967,6,0,B|256:288,4,75
368,104,113026,1,0
368,272,113379,1,0
152,280,113732,1,0
152,104,114085,1,0
256,192,114438,1,0
256,192,114614,1,0
256,192,114790,1,0
440,88,115495,5,0
448,192,115848,1,0
448,296,116201,1,0
400,320,116378,1,0
352,296,116554,1,0
248,320,116907,1,0
200,296,117084,1,0
152,320,117260,1,0
88,240,117613,1,0
88,136,117966,1,0
168,72,118319,6,0,B|168:128,5,37.5,0|0|0|0|0|0
168,72,119025,6,0,B|240:72,6,37.5
256,192,120084,5,0
256,192,120437,6,0,B|256:96,4,75
184,240,121496,1,0
184,136,121849,1,0
328,136,122202,1,0
328,240,122555,1,0
256,192,122908,1,0
256,192,123261,6,0,B|256:288,4,75
368,104,124320,1,0
368,272,124673,1,0
152,280,125026,1,0
152,104,125379,1,0
256,192,125732,1,0
256,192,125908,1,0
256,192,126084,1,0
80,80,126789,5,0
136,168,127142,1,0
192,80,127495,1,0
256,168,127848,1,0
256,168,128025,1,0
416,312,128731,1,0
416,312,128907,1,0
416,312,129260,1,0
256,192,129613,12,0,132084
