osu file format v7

[General]
AudioFilename: Keikenzi_Zyoushou.mp3
AudioLeadIn: 0
PreviewTime: -1
Countdown: 1
SampleSet: Soft
StackLeniency: 0.7
Mode: 0
LetterboxInBreaks: 1

[Editor]
Bookmarks: 1411
DistanceSpacing: 0.600000023841858
BeatDivisor: 4
GridSize: 8

[Metadata]
Title:Keikenchi Zyoushou
Artist:Minamike
Creator:thinkinglf2
Version:Easy
Source:Minamike
Tags:

[Difficulty]
HPDrainRate:2
CircleSize:3
OverallDifficulty:1
SliderMultiplier:3.1
SliderTickRate:4

[Events]
//Background and Video events
0,0,"846395254969078025.jpg"
//Break Periods
2,11225,23816
2,72989,82932
//Storyboard Layer 0 (Background)
//Storyboard Layer 1 (Fail)
//Storyboard Layer 2 (Pass)
//Storyboard Layer 3 (Foreground)
//Storyboard Sound Samples
//Background Colour Transformations
3,100,163,162,255

[TimingPoints]
1496,705.882352941176,4,2,0,100,1,0

[HitObjects]
160,80,1848,2,0,B|256:80,4,77.5
216,192,4672,2,2,B|320:192,4,77.5
408,96,8201,5,0
336,232,8907,1,0
240,296,9437,1,0
56,296,10143,6,0,B|56:56,1,232.5
152,64,11025,1,0
88,80,25496,5,0
168,80,25848,1,0
288,80,26378,2,0,B|384:80|384:80,5,77.5
408,160,27966,5,0
408,280,28672,5,0
288,280,29201,1,0
104,272,30084,1,0
104,192,30437,1,0
104,112,30790,1,0
256,112,31496,5,0
256,272,32201,1,0
408,272,32907,1,0
408,192,33260,1,0
408,112,33613,1,0
256,112,34319,1,0
104,112,35025,1,0
104,192,35378,1,0
104,272,35731,1,0
256,192,36613,6,0,B|256:104,4,77.5
256,320,37848,1,0
336,320,38201,1,0
416,320,38554,1,0
128,184,39260,6,0,B|232:104|280:248|424:224|432:104,1,310
256,64,40672,1,0
176,64,41025,1,0
96,64,41378,1,0
96,192,42084,5,0
96,328,42790,1,0
264,328,43496,1,0
344,328,43848,1,0
424,328,44201,1,0
416,176,44907,1,0
416,96,45260,1,0
336,96,45613,1,0
256,192,46319,12,0,48084
64,72,49848,6,0,B|64:160,4,77.5
216,72,51260,1,0
296,72,51613,1,0
376,72,51966,1,0
384,192,52672,6,0,B|384:280,4,77.5
232,192,54084,1,0
152,192,54437,1,0
72,192,54790,1,0
256,344,55848,6,0,B|408:288,1,155
256,256,56553,2,0,B|64:200,1,155
256,176,57259,2,0,B|424:128,1,155
248,96,57965,2,0,B|80:32,1,155,0|0
80,128,58671,5,0
152,192,59025,1,0
72,240,59378,1,0
152,288,59731,1,0
248,288,60083,2,0,B|336:288,1,77.5
256,192,61144,6,0,B|256:104,4,77.5
256,320,62554,1,0
336,320,62907,1,0
416,320,63260,1,0
368,192,63965,6,0,B|368:112,4,77.5
296,192,65024,2,0,B|216:192,1,77.5
152,192,65553,2,0,B|152:96,3,77.5
80,112,66437,1,0
80,112,66613,1,0
256,72,67495,6,8,B|256:240,1,155,4|4
256,288,68200,1,4
256,288,68554,1,4
256,288,68730,1,4
256,192,69436,12,4,72789
424,64,84612,6,0,B|96:64,1,310
112,144,85671,2,0,B|456:144,1,310
416,264,86906,2,0,B|416:344,2,77.5
336,264,87612,1,0
256,264,87965,1,0
144,272,88495,2,0,B|208:144|352:168|448:208,1,310
424,120,89553,2,0,B|208:32|80:88|32:176,1,387.5
72,216,90789,5,0
80,296,91142,1,0
160,296,91495,1,0
240,296,91847,1,0
320,296,92200,2,0,B|400:296,2,77.5
328,216,92906,6,0,B|448:240|488:128,1,155
464,96,93612,2,0,B|368:16|272:80,1,155
248,72,94318,1,0
96,88,95024,1,0
96,280,95906,2,0,B|96:200,4,77.5
176,280,96965,1,0
256,280,97318,1,0
336,280,97671,1,0
416,280,98024,2,0,B|416:192,3,77.5
384,168,98730,6,0,B|240:61|96:184,1,310
80,272,99788,2,0,B|264:304|336:176,1,232.5
424,160,100847,2,0,B|424:48,3,77.5
336,80,101730,1,0
256,80,102083,1,0
176,80,102436,1,0
96,72,102789,2,0,B|96:152,3,77.5
96,264,103847,5,0
168,296,104200,1,0
248,304,104553,2,0,B|384:312|464:280|480:136,1,310
472,80,105612,2,0,B|360:232|160:-56|-8:168,1,465
256,192,107024,12,4,108259
256,192,109142,6,0,B|256:288,4,77.5
256,112,110200,2,0,B|160:40|72:160,1,155
256,112,110906,2,0,B|352:40|440:160,1,155
344,168,111612,1,0
256,192,111965,6,0,B|256:96,4,77.5
256,272,113023,2,0,B|160:344|72:224,1,155
256,272,113729,2,0,B|352:344|440:224,1,155
392,192,114436,2,0,B|392:112,2,77.5
400,288,115493,6,0,B|240:384|16:280,2,387.5
464,224,117611,1,0
456,128,117964,1,0
368,96,118316,2,0,B|224:24|56:96,2,310
368,96,120081,1,0
448,72,120434,6,0,B|448:160,4,77.5
296,72,121846,1,0
216,72,122199,1,0
136,72,122552,1,0
128,192,123258,6,0,B|128:280,4,77.5
224,192,124316,2,0,B|224:272,1,77.5
312,192,124846,2,0,B|312:280,3,77.5
400,192,125728,2,0,B|400:272,1,77.5
256,48,126787,6,0,B|416:104,1,155
256,128,127492,2,0,B|80:176,1,155
256,208,128198,2,0,B|416:256,1,155
248,288,128904,2,0,B|88:352,1,155
256,192,129610,12,4,131552
