osu file format v7

[General]
AudioFilename: Keikenzi_Zyoushou.mp3
AudioLeadIn: 0
PreviewTime: -1
Countdown: 0
SampleSet: Soft
StackLeniency: 0.7
Mode: 0
LetterboxInBreaks: 1

[Editor]
Bookmarks: 1411,40584
DistanceSpacing: 1
BeatDivisor: 4
GridSize: 8

[Metadata]
Title:Keikenchi Zyoushou
Artist:Minamike
Creator:thinkinglf2
Version:Double
Source:Minamike
Tags:

[Difficulty]
HPDrainRate:7
CircleSize:5
OverallDifficulty:5
SliderMultiplier:1.5
SliderTickRate:0.5

[Events]
//Background and Video events
0,0,"846395254969078025.jpg"
//Break Periods
2,72637,82531
2,131931,139707
2,156990,162295
//Storyboard Layer 0 (Background)
//Storyboard Layer 1 (Fail)
//Storyboard Layer 2 (Pass)
//Storyboard Layer 3 (Foreground)
//Storyboard Sound Samples
//Background Colour Transformations
3,100,163,162,255

[TimingPoints]
1496,352.941176470588,4,2,0,100,1,0
163472,-100,4,2,0,100,0,1
213966,-100,4,2,0,100,0,0

[HitObjects]
192,80,2201,1,0
48,80,1848,2,0,B|376:80,1,300
456,80,2907,1,0
456,80,3084,1,0
456,184,3437,1,0
456,288,3790,1,0
304,288,5025,1,0
456,288,4672,6,0,B|128:288,1,300
48,288,5731,1,0
48,288,5908,1,0
48,184,6261,1,0
56,80,6613,2,0,B|72:32|72:32|88:112|88:112|120:48|120:48|136:104|136:104|152:80|152:80|216:80|216:80|392:80,1,525
456,168,8201,5,0
360,224,8554,1,0
456,272,8907,2,0,B|296:360|192:304,1,262.5
64,184,10143,2,0,B|64:72,1,75
168,96,10672,1,0
296,72,11113,1,0
424,56,11554,1,0
424,56,11731,1,0
416,160,12084,1,0
416,160,12260,1,0
400,264,12613,1,0
400,264,12790,1,0
400,264,12966,1,0
328,224,13231,5,0
304,208,13319,1,0
280,208,13407,1,0
256,216,13495,1,0
240,232,13584,1,0
256,312,13848,5,0
56,320,14201,1,0
56,56,14554,1,0
456,56,14907,1,0
456,56,15084,1,0
456,320,15437,1,0
456,320,15613,1,0
456,320,15790,1,0
256,192,16143,1,0
256,192,16319,1,0
256,56,16672,5,0
456,56,17025,1,0
456,320,17378,1,0
56,320,17731,1,0
56,320,17907,1,0
56,56,18260,1,0
56,56,18437,1,0
56,56,18613,1,0
256,192,18966,1,0
256,192,19143,1,0
216,320,19495,6,4,B|56:320,1,150,0|4
64,216,20201,2,0,B|64:56,1,150,0|4
184,64,20907,2,0,B|336:64,1,150,0|4
448,64,21613,2,0,B|448:224,1,150,0|4
448,320,22319,2,0,B|288:320,1,150,0|4
368,184,23025,5,0
320,128,23201,1,0
256,88,23378,1,0
184,80,23554,1,0
208,232,23907,1,8
208,232,23995,1,8
208,232,24084,1,8
72,304,24437,1,2
72,304,24790,1,4
72,152,25143,6,0,B|224:80|368:160,1,300
360,155,26025,1,0
464,256,26378,1,0
325,312,26731,1,0
254,336,26907,1,0
184,312,27084,1,0
50,310,27437,5,0
50,270,27525,1,0
50,230,27613,1,0
53,154,27790,1,0
53,79,27966,1,0
128,80,28143,2,0,B|128:176,2,75
200,80,28672,2,0,B|200:160,1,75
336,88,29201,2,0,B|432:112|400:208,1,150
352,248,29731,5,0
352,248,29907,1,0
256,192,30260,2,0,B|168:136,1,75
56,56,30790,5,0
464,56,31143,5,0
456,320,31495,5,0
56,320,31848,5,0
72,168,32201,5,0
96,136,32290,1,0
136,128,32378,1,0
200,168,32554,1,0
208,200,32643,1,0
240,216,32731,1,0
264,288,32907,1,0
408,320,33260,1,0
346,185,33966,1,0
339,124,34319,1,0
392,168,33613,2,0,B|392:144|392:144|376:128|376:128|344:128|344:128|328:144|328:144|328:168|328:168|344:184|344:184|376:184|376:184|400:168|400:168|400:144|400:144|376:120|376:120|344:120|344:120|320:144|320:144|320:168|320:168|344:192|344:192|376:192|376:192|400:160,1,450
256,104,35025,5,0
224,88,35113,1,0
184,88,35201,1,0
152,104,35290,1,0
128,136,35378,1,0
192,272,35731,1,0
216,296,35819,1,0
248,312,35907,1,0
288,312,35995,1,0
328,304,36084,1,0
440,168,36437,5,0
360,40,36790,1,0
272,160,37143,1,0
272,160,37319,1,0
28,140,38025,1,0
152,72,37672,2,0,B|-16:80|32:248,1,225
48,288,38378,2,0,B|72:344|192:328,1,150
256,328,38907,6,0,B|256:248,2,75
408,336,39613,1,0
376,200,39966,5,0
376,200,40143,1,0
254,55,40848,1,0
178,61,41025,1,0
108,86,41201,1,0
402,74,40495,2,0,B|114:18|50:82|58:194|66:250,1,450
256,344,42084,5,0
405,332,42437,1,0
460,203,42790,1,0
463,52,43143,1,0
312,48,43495,1,0
240,48,43672,1,0
168,56,43848,1,0
104,88,44025,1,0
88,160,44201,2,0,B|88:240,3,75
152,272,44907,5,0
304,296,45260,1,0
304,296,45437,1,0
448,240,45790,1,0
384,200,45966,1,0
440,144,46143,1,0
376,112,46319,1,0
232,88,46672,5,0
232,88,46848,1,0
120,184,47201,1,0
144,256,47378,1,0
200,304,47554,1,0
256,192,47731,12,0,49143
256,192,49495,5,0
320,304,50201,1,0
464,304,49848,6,0,B|136:304,1,300
56,304,50907,1,0
56,304,51084,1,0
56,200,51437,1,0
56,96,51790,1,0
208,96,53025,1,0
56,96,52672,6,0,B|384:96,1,300
464,96,53731,1,0
464,96,53908,1,0
472,248,54261,1,0
397,326,55054,1,0
347,305,55319,1,0
272,304,55495,1,0
456,304,54613,2,0,B|440:352|440:352|424:272|424:272|392:336|392:336|376:280|376:280|360:304|360:304|296:304|296:304|120:304,1,525
56,320,56201,5,0
56,56,56554,1,0
456,56,56907,1,0
456,320,57260,1,0
456,320,57613,5,0
456,56,57966,1,0
56,56,58319,1,0
56,320,58672,1,0
256,128,59378,1,0
96,128,59025,6,0,B|416:128,1,300
256,240,60437,1,0
408,240,60084,2,0,B|104:240,1,300
64,96,61143,6,0,B|144:128,1,75
128,200,61495,2,0,B|48:232,1,75
56,304,61848,2,0,B|136:336,1,75
353,296,62553,1,0
436,192,62907,1,0
403,127,63084,1,0
200,320,62201,6,0,B|520:328|520:64|184:64,1,600
64,96,63966,6,0,B|144:128,1,75
128,200,64318,2,0,B|48:232,1,75
56,304,64671,2,0,B|136:336,1,75
410,258,65554,1,0
438,192,65731,1,0
402,128,65907,1,0
340,89,66084,1,0
200,320,65024,6,0,B|520:328|520:64|184:64,1,600
128,104,66613,6,0,B|24:200|136:304,1,225
456,320,67495,5,0
456,56,67848,1,0
56,56,68201,1,0
56,320,68554,1,0
56,320,68731,1,0
256,192,69437,1,0
256,192,69613,1,0
256,192,69966,1,0
256,192,70319,12,0,72437
264,192,83731,5,0
264,192,84084,1,0
192,56,84966,1,0
320,56,85319,1,0
56,56,84613,6,0,B|480:56,1,412.5
440,200,86025,1,0
400,264,86201,1,0
344,312,86378,1,0
256,192,86731,2,0,B|232:232|288:224|256:272,3,75
63,161,87966,1,0
208,312,87437,6,0,B|48:280|56:64,1,300
208,80,88495,1,0
360,80,88848,1,0
408,136,89025,1,0
400,208,89201,1,0
256,192,89554,2,0,B|312:248,1,75
456,320,90084,5,0
48,328,90437,5,0
56,64,90789,5,0
456,64,91142,5,0
440,216,91495,5,0
416,248,91584,1,0
376,256,91672,1,0
312,216,91848,1,0
304,184,91937,1,0
272,168,92025,1,0
248,96,92201,1,0
104,64,92554,1,0
165,200,93260,1,0
173,260,93613,1,0
120,216,92907,2,0,B|120:240|120:240|136:256|136:256|168:256|168:256|184:240|184:240|184:216|184:216|168:200|168:200|136:200|136:200|112:216|112:216|112:240|112:240|136:264|136:264|168:264|168:264|192:240|192:240|192:216|192:216|168:192|168:192|136:192|136:192|112:224,1,450
256,280,94319,5,0
288,296,94407,1,0
328,296,94495,1,0
360,280,94584,1,0
384,248,94672,1,0
320,112,95025,1,0
296,88,95113,1,0
264,72,95201,1,0
224,72,95289,1,0
184,80,95378,1,0
72,216,95731,5,0
152,344,96084,1,0
240,224,96437,1,0
240,224,96613,1,0
484,244,97319,1,0
360,312,96966,2,0,B|528:304|480:136,1,225
456,104,97672,2,0,B|432:48|320:56,1,150
256,56,98201,6,0,B|256:136,2,75
112,80,98907,1,0
136,184,99260,5,0
136,184,99437,1,0
258,329,100142,1,0
334,323,100319,1,0
404,298,100495,1,0
110,310,99789,2,0,B|398:366|462:302|454:190|446:134,1,450
256,40,101378,5,0
107,52,101731,1,0
52,181,102084,1,0
49,332,102437,1,0
200,336,102789,1,0
272,336,102966,1,0
344,328,103142,1,0
408,296,103319,1,0
424,224,103495,2,0,B|424:144,3,75
360,112,104201,5,0
208,88,104554,1,0
208,88,104731,1,0
64,144,105084,1,0
128,184,105260,1,0
72,240,105437,1,0
136,272,105613,1,0
280,296,105966,5,0
280,296,106142,1,0
416,240,106495,1,0
440,168,106672,1,0
186,108,107378,1,0
223,261,107731,1,0
364,248,108084,1,0
408,104,106848,2,0,B|184:104|184:104|224:264|224:264|368:248|368:248|408:88,1,675
408,104,108613,1,0
408,104,108790,1,0
192,80,109496,1,0
48,80,109143,6,0,B|376:80,1,300
456,80,110202,1,0
456,80,110379,1,0
456,184,110732,1,0
456,288,111085,1,0
456,288,111613,1,0
304,288,112320,1,0
456,288,111967,6,0,B|128:288,1,300
48,288,113026,1,0
48,288,113203,1,0
40,136,113556,1,0
115,58,114349,1,0
165,79,114614,1,0
240,80,114790,1,0
56,80,113908,2,0,B|72:32|72:32|88:112|88:112|120:48|120:48|136:104|136:104|152:80|152:80|216:80|216:80|392:80,1,525
456,56,115495,5,0
456,328,115848,1,0
56,328,116201,1,0
56,64,116554,1,0
56,64,116907,5,0
56,328,117260,1,0
456,328,117613,1,0
456,64,117966,1,0
248,248,118672,1,0
408,248,118319,6,0,B|88:248,1,300
256,136,119731,1,0
104,136,119378,2,0,B|408:136,1,300
448,288,120437,6,0,B|368:256,1,75
384,184,120789,2,0,B|464:152,1,75
456,80,121142,2,0,B|376:48,1,75
159,88,121847,1,0
76,192,122201,1,0
109,257,122378,1,0
312,64,121495,6,0,B|-8:56|-8:320|328:320,1,600
448,288,123260,6,0,B|368:256,1,75
384,184,123612,2,0,B|464:152,1,75
456,80,123965,2,0,B|376:48,1,75
102,126,124848,1,0
74,192,125025,1,0
110,256,125201,1,0
172,295,125378,1,0
312,64,124318,6,0,B|-8:56|-8:320|328:320,1,600
384,280,125907,6,0,B|488:184|376:80,1,225
56,64,126789,5,0
56,328,127142,1,0
456,328,127495,1,0
456,64,127848,1,0
456,64,128025,1,0
256,192,128731,1,0
256,192,128907,1,0
256,192,129260,1,0
256,192,129613,12,0,131731
56,56,140907,5,0
456,56,141437,1,0
456,320,141966,1,0
56,320,142495,1,0
456,56,143819,5,0
368,128,144084,1,0
328,64,144260,1,0
288,128,144437,1,0
248,64,144613,1,0
208,128,144790,1,0
168,192,144966,1,0
240,208,145143,2,0,B|240:296,2,75
312,208,145672,2,0,B|312:320,2,75
431,176,146554,1,0
412,104,146731,1,0
351,59,146907,1,0
279,57,147084,1,0
216,93,147260,1,0
191,161,147437,1,0
222,229,147613,1,0
369,257,146290,6,0,B|457:257|457:81|465:33|289:-23|46:-29|124:316|300:261|300:261,1,637.5
65,313,148319,1,0
65,313,148407,1,0
65,313,148495,1,0
68,237,148672,1,0
70,86,149025,1,0
70,86,149201,1,0
257,89,149643,1,0
257,89,149731,1,0
257,89,149819,1,0
368,96,150084,1,0
432,232,150437,1,0
318,317,150966,5,0
243,318,151143,1,0
171,295,151319,1,0
113,249,151495,1,0
87,179,151672,1,0
111,108,151848,1,0
165,60,152025,1,0
432,232,150613,6,0,B|408:304|352:344|128:368|56:272|-5:95|241:32,1,675
384,72,152554,5,0
472,192,152907,1,0
384,312,153260,1,0
296,192,153613,1,0
200,80,153966,1,0
200,80,154143,1,0
104,192,154495,1,0
104,192,154672,1,0
200,312,155025,5,0
240,248,155201,1,0
272,312,155378,1,0
312,248,155554,1,0
344,312,155731,1,0
384,248,155907,1,0
424,312,156084,1,0
456,248,156260,1,0
424,176,156437,5,0
256,176,156613,1,0
88,176,156790,1,0
56,320,163495,5,0
56,56,163848,1,0
456,56,164201,1,0
456,320,164554,1,0
456,320,164907,5,0
456,56,165260,1,0
56,56,165613,1,0
56,320,165966,1,0
104,136,166319,5,0
144,136,166407,1,0
184,136,166495,1,0
248,96,166672,1,0
304,144,166848,1,0
368,104,167025,1,0
400,248,167378,1,0
368,248,167466,1,0
328,248,167554,1,0
264,288,167731,1,0
200,248,167907,1,0
136,288,168084,1,0
80,168,168437,5,0
112,104,168613,1,0
144,80,168701,1,0
184,72,168789,1,0
256,72,168966,1,0
256,144,169142,1,0
432,168,169495,5,0
400,104,169671,1,0
368,80,169759,1,0
328,72,169847,1,0
256,72,170024,1,0
256,144,170200,1,0
256,144,170378,2,0,B|256:200,6,37.5
64,96,171260,5,0
64,168,171436,1,0
72,200,171524,1,0
96,232,171612,1,0
144,288,171789,1,0
216,320,171965,1,0
448,96,172319,5,0
448,168,172495,1,0
440,200,172583,1,0
416,232,172671,1,0
368,288,172848,1,0
296,320,173024,1,0
256,256,173201,1,0
256,256,173378,1,0
136,216,173731,5,0
160,152,173907,5,0
184,120,173995,1,0
216,104,174084,1,0
256,96,174172,1,0
296,104,174260,1,0
328,120,174348,1,0
352,152,174437,1,0
456,320,174789,5,0
456,56,175142,1,0
56,56,175495,1,0
56,320,175848,1,0
224,254,176731,1,0
56,320,176025,2,0,B|152:16|256:336,1,375
422,258,177966,1,0
251,325,177260,2,0,B|347:21|451:333,1,375
447,174,178672,1,0
448,324,178319,2,0,B|448:64,1,225
192,80,180084,1,0
48,80,179731,6,0,B|376:80,1,300
456,80,180790,1,0
456,80,180967,1,0
456,184,181320,1,0
456,288,181673,1,0
456,288,182201,1,0
304,288,182908,1,0
456,288,182555,6,0,B|128:288,1,300
48,288,183614,1,0
48,288,183791,1,0
40,136,184144,1,0
115,58,184937,1,0
165,79,185202,1,0
240,80,185378,1,0
56,80,184496,2,0,B|72:32|72:32|88:112|88:112|120:48|120:48|136:104|136:104|152:80|152:80|216:80|216:80|392:80,1,525
456,56,186083,5,0
456,328,186436,1,0
56,328,186789,1,0
56,64,187142,1,0
56,64,187495,5,0
56,328,187848,1,0
456,328,188201,1,0
456,64,188554,1,0
416,248,188907,5,0
376,248,188995,1,0
336,248,189083,1,0
264,280,189260,1,0
200,240,189436,1,0
136,280,189613,1,0
96,136,189966,5,0
136,136,190054,1,0
176,136,190142,1,0
240,96,190319,1,0
304,144,190495,1,0
368,104,190672,1,0
432,216,191025,5,0
400,280,191201,1,0
368,304,191289,1,0
328,312,191377,1,0
256,312,191554,1,0
256,240,191730,1,0
80,216,192083,5,0
112,280,192259,1,0
144,304,192347,1,0
184,312,192435,1,0
256,312,192612,1,0
256,240,192788,1,0
256,240,192966,2,0,B|256:184,6,37.5
448,288,193848,5,0
448,216,194024,1,0
440,184,194112,1,0
416,152,194200,1,0
368,96,194377,1,0
296,64,194553,1,0
64,288,194907,5,0
64,216,195083,1,0
72,184,195171,1,0
96,152,195259,1,0
144,96,195436,1,0
208,80,195613,1,0
256,128,195789,1,0
256,128,195966,1,0
256,192,196319,1,0
256,192,196495,1,0
256,192,196848,2,0,B|312:248,1,75
456,320,197378,5,0
48,328,197731,5,0
56,64,198083,5,0
456,64,198436,5,0
456,64,198613,1,0
256,288,199319,1,0
256,216,199495,1,0
256,64,199848,1,0
256,192,200201,12,0,201966
64,96,202319,6,0,B|144:128,1,75
128,200,202671,2,0,B|48:232,1,75
56,304,203024,2,0,B|136:336,1,75
353,296,203729,1,0
436,192,204083,1,0
403,127,204260,1,0
200,320,203377,6,0,B|520:328|520:64|184:64,1,600
64,96,205142,6,0,B|144:128,1,75
128,200,205494,2,0,B|48:232,1,75
56,304,205847,2,0,B|136:336,1,75
410,258,206730,1,0
438,192,206907,1,0
402,128,207083,1,0
340,89,207260,1,0
200,320,206200,6,0,B|520:328|520:64|184:64,1,600
128,104,207789,6,0,B|24:200|136:304,1,225
456,320,208671,5,0
456,56,209024,1,0
56,56,209377,1,0
56,320,209730,1,0
56,320,209907,1,0
256,192,210613,1,0
256,192,210789,1,0
256,192,211142,1,0
256,192,211495,12,0,213613
