osu file format v5

[General]
AudioFilename: 04_sly.mp3
AudioLeadIn: 0
PreviewTime: -1
Countdown: 1
SampleSet: Normal
StackLeniency: 0.7
Mode: 0
LetterboxInBreaks: 1
SkinPreference:grungosu
EditorBookmarks: 6884,11134,14789,19889,22693,27793,33148,35698,38588,43857,46747,49212,51762,56522,61451,72926,78026,80660,85165,96725

[Metadata]
Title:SLY
Artist:Minami Maho
Creator:Niero
Version:Normal
Source:BECK
Tags:beck mongolian chop squad

[Difficulty]
HPDrainRate:3
CircleSize:5
OverallDifficulty:6
SliderMultiplier:2.6
SliderTickRate:4

[Events]
//Background and Video events
0,0,"maho-minami.jpg"
//Break Periods
2,6403,10424
2,14393,19263
2,58506,61251
2,64455,69241
2,84854,85220
//Storyboard Layer 0 (Background)
//Storyboard Layer 1 (Failing)
//Storyboard Layer 2 (Passing)
//Storyboard Layer 3 (Foreground)
//Storyboard Sound Samples
//Background Colour Transformations
3,100,136,119,119

[TimingPoints]
0,509.974576271186,4,1,0,71,1,0

[Colours]
Combo1 : 130,72,72
Combo2 : 91,92,35
Combo3 : 255,128,0
Combo4 : 209,194,86
Combo5 : 191,96,0

[HitObjects]
224,160,3314,1,0
288,224,3824,1,0
384,96,4249,5,2
192,64,4717,1,2
128,256,5184,1,2
256,192,5694,2,6,B|480:352,1,260
416,320,11474,6,0,B|288:256|384:192|224:160|352:96,1,260
384,96,12239,5,2
192,64,12707,1,2
128,256,13174,1,2
256,192,13684,2,6,B|480:352,1,260
64,160,20313,5,0
128,224,20823,1,0
224,256,21248,2,0,B|224:96|32:96|32:64,1,260
57,83,22098,1,4
416,96,23288,5,0
384,128,23373,1,0
352,224,23713,1,0
288,160,24138,2,0,B|256:256|128:256|64:160,1,260
256,192,26093,12,0,27283
320,192,28303,5,0
384,224,28813,1,0
448,256,29238,2,0,B|448:128|256:128|256:96,1,260
256,96,30258,1,4
96,96,31278,5,0
128,64,31363,1,0
192,160,31703,1,0
288,160,32043,2,0,B|288:320|160:160|64:160,1,260
64,256,33658,5,0
96,224,33828,1,0
288,288,34253,1,0
192,192,36208,5,0
256,256,36718,1,0
288,352,37143,2,0,B|288:192|96:192|96:160,1,260
192,192,38163,1,4
64,64,39183,5,0
96,64,39268,1,0
81,127,39608,1,0
192,160,39948,2,0,B|32:256|160:32|288:128,1,260
256,192,42072,12,0,42837
256,64,44367,5,0
224,96,44792,1,0
384,224,45302,2,0,B|384:64|192:64|192:32,1,260
288,96,46237,1,4
224,192,47257,5,0
256,160,47427,1,0
224,64,47767,1,0
384,192,48107,2,0,B|192:128,1,260
96,160,49722,5,4
160,192,49892,1,4
224,160,50232,2,4,B|480:256,1,260
96,96,52527,5,4
192,128,52782,1,4
128,224,53037,1,4
256,224,53292,2,4,B,1,173.333333333333
416,224,53802,1,4
448,352,54227,2,4,B|352:288|416:224|320:160|224:288,1,303.333333333333
160,288,55247,1,4
64,224,55757,2,4,B|160:192|224:224|256:288|320:224,1,260
256,192,56522,5,0
320,192,56777,1,0
192,192,57032,1,0
128,192,57287,1,0
128,128,57542,1,0
128,256,57797,2,0,B|288:256,2,130
384,96,62301,5,2
192,64,62769,1,2
128,256,63236,1,2
256,192,63746,2,6,B|480:352,1,260
96,128,70291,5,2
384,160,70759,1,2
256,256,71226,1,2
160,192,71736,2,6,B|384:352,1,260
416,96,73266,5,0
384,128,73351,1,0
352,224,73691,1,0
288,160,74116,2,0,B|256:256|128:256|64:160,1,260
256,192,76071,12,0,77261
448,224,78281,5,0
384,256,78791,1,0
320,288,79216,2,0,B|320:128|128:128|128:96,1,260
96,96,80066,1,4
416,96,81255,5,0
384,128,81340,1,0
352,224,81680,1,0
288,160,82105,2,0,B|256:256|128:256|64:160,1,260
256,128,83635,5,4
192,224,83805,1,4
160,128,84145,2,4,B|416:224,1,260
96,96,86440,5,4
192,128,86695,1,4
128,224,86950,1,4
256,224,87205,2,4,B|384:192,1,130
416,224,87715,1,4
448,352,88140,2,4,B|352:288|416:224|320:160|224:288,1,303.333333333333
160,288,89160,1,4
64,224,89670,2,4,B|160:192|224:224|256:288|320:224,1,260
320,192,90435,5,0
256,192,90690,1,0
384,192,90945,1,0
320,128,91200,1,0
320,64,91455,1,0
256,128,91710,2,0,B|416:128,2,130
256,192,97915,12,0,100549
