osu file format v5

[General]
AudioFilename: ChrnoCrusadeOpening.ogg
AudioLeadIn: 0
PreviewTime: -1
Countdown: 0
SampleSet: Soft
StackLeniency: 0.7
Mode: 0
LetterboxInBreaks: 1

[Metadata]
Title:Tsubasa wa Pleasure Line (TV size)
Artist:Minami Kuribayashi
Creator:supergarlic
Version:Rosette Style
Source:
Tags:

[Difficulty]
HPDrainRate:5
CircleSize:4
OverallDifficulty:4
SliderMultiplier:1.3
SliderTickRate:1

[Events]
//Background and Video events
0,0,"chrnocrusade.png"
1,-1000,"ChrnoCrusadeOpening.avi"
//Break Periods
2,18122,21516
2,42934,43579
//Storyboard Layer 0 (Background)
//Storyboard Layer 1 (Failing)
//Storyboard Layer 2 (Passing)
//Storyboard Layer 3 (Foreground)
//Storyboard Sound Samples
//Background Colour Transformations
3,100,163,162,255

[TimingPoints]
1563,334.261838440111,4,2,0,100,1
12259,333.148250971682,4,2,0,100,1
22891,333.137152565711,4,2,0,100,1

[Colours]
Combo1 : 255,0,0
Combo2 : 255,255,0
Combo3 : 192,192,192
Combo4 : 255,255,255

[HitObjects]
224,128,685,1,0
224,128,852,1,0
128,224,1228,1,0
224,224,1562,1,0
320,128,1897,1,0
320,128,2064,1,0
320,224,2398,1,0
320,320,2732,2,0,B|96:320|96:256,1,195
96,288,3401,1,0
192,192,3902,5,0
96,128,4237,2,0,B|188:-72|441:-18|448:128,1,455
256,96,6911,5,0
256,192,7245,1,0
256,192,7412,1,0
256,288,7746,1,0
160,288,8081,1,0
160,288,8248,1,0
64,288,8582,1,0
64,288,8749,1,0
64,192,9083,5,0
64,192,9418,2,0,B|224:64,1,195
288,64,10420,2,0,B|448:224,1,195
256,192,11590,12,0,17922
96,0,22891,6,0,B|320:0|448:160,1,390
384,224,24223,6,0,B|160:192|32:64,1,390
128,32,25556,5,0
224,96,25889,1,0
288,96,26055,1,0
288,192,26388,1,0
288,192,26722,1,0
96,128,27888,5,0
96,128,28054,1,0
160,128,28221,2,0,B|256:128,3,65
256,64,29553,5,0
256,160,29886,1,0
256,256,30220,1,0
160,256,30553,1,0
160,352,30886,2,0,B|160:64,1,260
160,93,31885,1,0
161,93,32052,1,0
96,96,33551,6,0,B|384:96,1,260
352,192,34883,6,0,B|64:192,1,260
64,288,35883,5,0
160,288,36216,1,0
160,288,36383,1,0
160,288,36549,1,0
160,288,36716,1,0
256,288,37049,1,0
352,288,37382,2,0,B|416:160|320:96,1,195
288,128,38048,1,0
160,288,38881,6,0,B|160:0,1,260
256,96,40214,1,0
320,160,40547,1,0
256,224,40880,1,0
160,224,41213,1,0
160,224,41380,2,0,B|160:64|288:32|384:96,1,325
384,192,42546,5,0
384,192,42712,1,0
256,96,44878,5,0
192,160,45211,1,0
256,224,45544,1,0
320,160,45877,1,0
256,96,46210,1,0
256,192,46543,5,2
160,224,46876,1,2
160,128,47210,2,2,L|160:32,1,65
256,64,47709,1,2
320,64,47876,2,2,B|320:160,1,65
320,224,48375,2,2,B|192:224,1,65
96,128,49208,5,0
96,256,49541,2,0,B|256:160|352:160|416:0,1,390
320,32,50874,1,0
320,128,51207,1,0
224,128,51540,1,0
224,128,51873,1,0
224,128,52040,1,0
256,192,52207,12,0,56371
352,128,56704,5,0
352,128,56870,1,0
352,224,57204,1,0
352,320,57537,1,0
256,320,57870,1,0
256,320,58036,1,0
224,224,58370,1,0
128,288,58703,1,0
96,160,59202,2,0,B|97:116|93:113|116:116|128:96,1,65
224,64,59869,5,0
352,32,60202,2,0,B|347:245|149:158|43:145|16:352,1,520
128,64,62867,5,0
128,160,63200,2,0,B|128:256,1,65
224,128,63700,1,0
320,64,64033,1,0
416,160,64533,2,0,B|416:256,1,65
320,224,65032,1,0
128,128,65532,5,0
192,128,65699,2,2,B|288:128,4,65
288,128,66698,1,2
352,224,67031,1,2
352,224,67198,1,2
288,224,67364,5,0
288,224,67531,1,0
192,256,67864,1,0
192,256,68031,1,0
192,256,68197,1,0
224,160,68530,1,0
224,160,68697,2,2,B|224:0|320:-64|384:0|384:192,1,390
383,158,69863,1,2
384,160,70029,1,2
320,288,70529,5,0
224,288,70862,2,0,B|220:72|131:77|42:81|48:256,1,390
128,224,72195,5,4
128,224,72417,1,4
128,224,72639,2,4,B|128:118,1,86.6666666666667
128,137,73083,1,4
128,137,73305,1,4
128,137,73527,1,4
224,64,74360,6,2,B|224:224,1,130
224,320,75693,6,2,B|224:224,2,65
160,128,77692,2,2,B|160:224,2,65
160,64,78191,1,2
224,64,78358,2,4,B|320:64,4,65
256,192,79191,12,0,83855
