osu file format v5

[General]
AudioFilename: ChrnoCrusadeOpening.ogg
AudioLeadIn: 0
PreviewTime: -1
Countdown: 1
SampleSet: Soft
StackLeniency: 0.8
Mode: 0
LetterboxInBreaks: 1
EditorBookmarks: 1535,12260,21252,57471

[Metadata]
Title:Tsubasa wa Pleasure Line (TV size)
Artist:Minami Kuribayashi
Creator:supergarlic
Version:Chrno Style
Source:
Tags:

[Difficulty]
HPDrainRate:7
CircleSize:5
OverallDifficulty:7
SliderMultiplier:1.4
SliderTickRate:1

[Events]
//Background and Video events
0,0,"chrnocrusade.png"
1,-1000,"ChrnoCrusadeOpening.avi"
//Break Periods
2,16290,21296
//Storyboard Layer 0 (Background)
//Storyboard Layer 1 (Failing)
//Storyboard Layer 2 (Passing)
//Storyboard Layer 3 (Foreground)
//Storyboard Sound Samples
//Background Colour Transformations
3,100,163,162,255

[TimingPoints]
1563,334.261838440111,4,2,0,100,1
12259,333.148250971682,4,2,0,100,1
22891,333.137152565711,4,2,0,100,1

[Colours]
Combo1 : 255,0,0
Combo2 : 255,255,0
Combo3 : 192,192,192
Combo4 : 255,255,255

[HitObjects]
192,64,685,1,2
192,64,852,1,2
320,96,1228,1,2
267,204,1562,1,2
265,315,1897,1,0
208,310,2064,2,0,B|208:150|240:118,1,140
260,66,2732,1,0
356,178,3234,1,2
356,234,3401,2,0,B|370:354|228:346,1,140
242,314,3902,5,0
128,297,4237,2,0,B|116:49|456:44|512:256,1,560
256,96,6911,5,2
258,208,7245,1,0
258,208,7412,1,0
146,206,7746,1,0
146,93,8081,1,0
258,32,8582,1,0
258,32,8749,2,2,B|256:192,1,140
205,325,9418,6,2,B|143:249|147:117,1,210
307,325,10420,2,2,B|369:249|365:117,1,210
256,192,12259,12,0,16256
320,160,22211,5,2
320,160,22378,1,2
272,152,22544,5,0
224,224,22891,2,2,B|121:348|393:372,1,280
452,113,23890,1,0
450,28,24223,2,2,B|281:24|320:224,1,280
136,149,25222,5,0
136,261,25556,1,0
235,210,25889,1,2
293,211,26055,1,2
204,146,26388,2,0,B|300:146,2,70
256,128,27888,5,2
256,128,28054,1,2
256,128,28221,2,0,B|256:296,1,140
256,268,28720,1,0
37,288,29553,1,0
160,288,29886,2,0,B|160:96,1,140
96,40,30553,1,0
154,40,30719,1,0
212,42,30886,2,0,B|372:202|244:298,1,280
149,280,31885,2,2,B|85:216,1,70
97,95,33218,5,2
194,149,33551,2,0,B|322:277|226:373,1,210
254,334,34217,1,0
128,320,34550,5,2
211,289,34883,2,0,B|339:225|339:65,1,210
333,128,35550,1,0
374,291,35883,5,0
299,207,36216,1,0
187,205,36549,1,2
185,148,36716,1,2
186,91,36882,1,2
240,93,37049,1,2
294,94,37215,1,2
294,95,37382,2,2,B|358:223|292:322,1,210
245,295,38048,1,2
64,192,38881,5,2
136,106,39214,1,2
198,199,39547,1,0
264,108,39880,1,0
320,204,40214,1,2
416,147,40547,1,0
416,147,40713,1,0
416,147,40880,1,0
312,103,41213,1,2
312,103,41380,2,0,B|120:103|120:199,1,210
327,286,42546,2,2,B|236:286,1,70
128,128,43045,5,2
128,128,43212,1,2
209,201,43545,5,2
209,201,43712,1,2
288,128,44045,5,2
288,128,44544,1,6
96,96,44878,5,2
208,96,45211,1,2
205,207,45544,1,2
92,207,45877,1,2
92,318,46210,1,2
204,319,46543,1,2
310,284,46876,6,2,B|438:252|374:188,1,140
320,192,47376,1,2
259,126,47709,1,2
259,126,47876,1,2
259,125,48042,1,2
191,193,48375,1,2
191,193,48542,1,2
96,64,49208,5,2
90,176,49541,2,2,B|90:336|250:368,1,210
235,319,50208,2,2,B|363:255,1,140
320,128,50874,1,0
192,192,51207,1,0
64,192,51540,1,2
64,320,51873,1,2
64,320,52039,1,2
256,192,52123,12,0,54872
256,192,55205,5,2
256,192,55371,1,2
199,190,55538,1,2
199,190,55705,1,2
198,133,55871,1,2
198,133,56038,1,2
254,132,56204,1,2
254,132,56371,1,2
331,51,56704,5,2
332,51,56870,1,2
334,107,57204,1,2
335,218,57537,2,0,B|261:256|153:260|128:224,1,210
71,118,58370,2,0,B|199:54,1,140
288,192,59202,1,4
288,192,59369,1,4
416,96,59869,5,0
417,208,60202,1,2
367,182,60368,1,2
322,147,60535,1,2
278,111,60702,1,2
228,83,60868,1,2
172,79,61035,1,2
108,156,61368,2,0,B|108:229|245:228|339:230|339:373,1,280
128,96,62867,5,2
239,99,63200,1,2
239,99,63367,1,2
239,210,63700,1,2
327,141,64033,1,2
327,141,64200,1,2
333,250,64533,1,2
333,250,64699,1,2
221,252,65032,1,0
128,224,65365,2,2,B|128:58|128:58,1,140
192,96,65865,5,2
192,32,66032,1,2
96,64,66365,1,2
192,96,66698,2,2,B|192:256,1,140
224,192,67198,1,2
255,148,67364,5,0
303,175,67531,1,0
341,215,67697,1,0
314,265,67864,1,0
258,263,68031,1,2
249,211,68197,2,0,B|89:147,1,140
128,216,68697,1,2
174,322,69030,1,0
287,275,69363,2,4,B|244:147|139:128|139:128,1,210
148,130,70029,1,4
204,218,70529,5,2
84,291,70862,2,2,B|276:355|372:195|352:96,1,373.333333333333
160,128,72195,5,4
161,127,72417,1,4
244,129,72639,1,4
244,129,72861,1,4
244,203,73083,1,4
244,203,73305,1,4
315,221,73527,2,2,B|411:285|283:349|155:349,1,280
108,324,74360,5,2
108,267,74527,1,2
112,208,74693,1,2
256,192,75693,5,2
256,192,75859,1,2
256,192,76026,1,2
379,217,77692,5,2
346,171,77858,1,2
312,216,78025,1,2
281,168,78191,1,2
252,215,78358,1,2
222,166,78524,1,4
193,214,78691,1,4
166,164,78858,1,4
140,213,79024,1,4
106,164,79191,1,4
256,192,79524,12,2,82522
