osu file format v5

[General]
AudioFilename: Tsubasa%20wa%20Pleasure%20Line%20(Minami%20Kuribayashi).mp3
AudioLeadIn: 0
PreviewTime: -1
Countdown: 0
SampleSet: Soft
StackLeniency: 0.6
Mode: 0
LetterboxInBreaks: 1
SkinPreference:taiko

[Metadata]
Title:Tsubasa wa Pleasure Line
Artist:Minami Kuribayashi
Creator:AnGelL
Version:Insane
Source:
Tags:

[Difficulty]
HPDrainRate:7
CircleSize:6
OverallDifficulty:6
SliderMultiplier:1.4
SliderTickRate:2

[Events]
//Background and Video events
//Break Periods
//Storyboard Layer 0 (Background)
//Storyboard Layer 1 (Failing)
//Storyboard Layer 2 (Passing)
//Storyboard Layer 3 (Foreground)
//Storyboard Sound Samples
//Background Colour Transformations
3,100,172,218,244

[TimingPoints]
1917.26103861091,333.704115684093,4,2,0,100,1,0
11260,333.704115684093,4,2,0,0,1,0
12928,333.704115684093,4,2,0,100,1,0
13263,333.704115684093,4,1,0,100,1,0
13930,-100,4,2,0,100,0,1
24108,-100,4,2,0,100,0,0
31283,333.704115684093,4,2,0,100,1,1
32450,333.704115684093,4,2,0,100,1,0
33951,333.704115684093,4,2,0,100,1,1
35285,333.704115684093,4,2,0,100,1,0
43127,333.704115684093,4,2,0,100,1,1
45963,333.704115684093,4,2,0,100,1,0
46630,333.704115684093,4,1,0,100,1,0
58309,333.704115684093,4,1,0,100,1,0
58476,333.704115684093,4,2,0,100,1,1
78997,333.704115684093,4,2,0,100,1,0
79664,333.704115684093,4,2,0,0,1,1

[Colours]
Combo1 : 147,108,119
Combo2 : 73,111,171
Combo3 : 57,187,148
Combo4 : 187,57,138

[HitObjects]
256,128,2417,1,0
256,128,2584,1,0
256,192,2918,1,0
256,256,3252,5,8
384,256,3585,1,0
384,256,3752,1,0
384,192,4086,5,8
384,128,4420,1,0
384,128,4586,1,0
320,128,4920,1,0
320,128,5087,1,0
256,128,5421,1,0
256,128,5588,1,8
256,192,5921,5,0
256,192,6088,1,8
256,192,6255,1,4
320,192,6422,1,4
320,128,6755,5,0
320,128,6922,1,8
256,192,7256,1,0
256,192,7423,1,8
320,192,7590,1,4
320,192,7757,1,4
314,65,8591,5,0
250,71,8925,1,0
250,71,9091,1,0
200,107,9425,1,8
315,124,9759,5,0
262,161,9926,1,8
360,162,10259,1,8
311,209,10426,1,0
311,165,10760,1,0
309,63,10927,1,8
311,165,11094,1,4
256,192,11260,12,4,12929
256,189,13263,5,0
279,173,13374,1,0
280,148,13485,1,0
266,122,13596,1,0
252,100,13708,1,0
259,78,13819,1,0
262,53,13930,1,6
317,54,14264,5,0
372,65,14431,1,0
381,120,14598,1,0
349,164,14764,1,0
298,183,14931,1,0
244,182,15098,1,0
201,148,15265,1,0
148,164,15432,1,0
134,218,15599,5,0
151,266,15765,1,0
191,305,15932,1,0
244,311,16099,1,0
294,287,16266,1,0
316,236,16433,1,8
330,183,16600,6,8,B|294:105|229:83|175:99|162:142|169:191|195:220|223:222|230:210,1,280
220,215,17434,1,4
275,219,17601,1,8
328,213,17768,1,8
320,159,17935,1,0
274,128,18101,1,0
221,127,18268,5,8
211,179,18435,5,0
264,195,18602,1,8
290,149,18769,5,8
321,103,18936,1,8
287,88,19103,1,0
272,82,19186,1,0
256,81,19269,1,8
222,92,19436,5,8
184,132,19603,1,0
164,181,19770,1,0
218,175,19937,1,0
195,224,20104,1,0
140,231,20270,1,0
108,182,20437,1,0
128,129,20604,5,8
259,129,20938,5,0
257,75,21105,1,8
258,232,21438,5,0
257,179,21605,1,8
257,155,21772,5,4
256,192,21939,12,4,23941
254,187,24108,5,6
257,133,24275,5,8
311,188,24609,2,0,B|309:139|309:147,1,35
356,187,24859,2,0,B|355:130,1,35
355,152,25109,5,8
256,134,25443,5,8
256,184,25610,1,0
200,188,25943,5,0
200,164,26027,1,0
164,190,26194,1,0
164,162,26277,1,0
183,142,26444,5,8
256,64,26778,5,8
256,64,26945,1,8
256,64,27111,1,8
257,97,27278,5,0
244,113,27362,1,0
262,121,27445,1,0
243,147,27529,1,8
242,184,27612,5,0
262,202,27779,5,0
282,230,28113,5,0
315,264,28279,1,8
380,266,28613,5,0
432,266,28780,1,0
406,225,28947,1,8
408,170,29114,1,0
411,95,29614,5,8
398,66,29698,1,8
379,95,29781,1,8
353,57,29948,5,0
316,89,30115,1,0
278,53,30282,1,0
242,91,30448,1,0
209,54,30615,1,0
257,191,30949,5,8
257,191,31116,1,8
257,191,31283,6,0,B|161:166,1,70
189,173,31616,6,0,B|267:134,1,70
251,141,31950,2,0,B|214:224,1,70
222,204,32284,2,8,B|205:125|204:126,1,70
202,108,32618,5,0
134,105,32951,1,8
81,106,33118,1,8
109,152,33452,1,0
55,155,33619,1,8
256,190,33951,5,0
256,190,34118,1,8
256,190,34285,1,8
286,209,34452,1,0
306,183,34535,1,0
331,157,34619,1,8
331,157,34785,1,8
358,130,34952,1,8
358,130,35119,1,8
358,130,35286,1,8
359,97,35453,6,0,B|352:60|313:44|270:37|240:38|209:46|178:70|160:101|160:124|162:145|163:168|158:186,1,280
161,152,36287,6,8,B|248:152,1,70
231,152,36621,2,8,B|231:270|250:291|302:311|328:306|353:305|394:285|400:276|411:248|415:211|415:191|415:173|394:173,1,350
411,193,37622,6,0,B|411:112,1,70
411,123,37956,2,8,B|315:125|308:168|308:193|258:205|243:198|225:184|217:176|212:163|205:150|205:137|206:122|216:113|236:91|268:73|293:61|304:63|322:64|366:64|403:65|423:66|448:66|473:68|486:69|470:64|469:112|470:152|461:177|457:192|459:210|459:217|459:227|463:263|463:266|460:272,1,630
456,262,39624,1,0
411,226,39791,1,0
256,192,39956,12,0,40290
258,63,40624,5,6
258,190,40957,1,0
258,190,41124,1,0
258,190,41291,1,0
251,318,41541,1,8
206,293,41708,1,0
205,345,41875,1,8
159,320,42042,1,0
158,270,42209,5,8
115,295,42376,1,0
118,245,42543,1,8
164,218,42709,1,0
208,244,42876,1,8
256,271,43043,5,0
256,219,43210,1,0
211,190,43377,1,0
259,166,43544,1,8
215,136,43710,1,0
166,158,43877,5,0
171,104,44044,1,8
220,83,44211,1,0
265,112,44378,1,0
308,146,44545,1,8
305,171,44628,1,8
334,165,44712,1,8
335,139,44795,5,0
313,118,44878,5,0
295,71,45045,1,8
348,76,45212,1,0
387,116,45379,1,8
266,111,45546,1,0
248,65,45713,1,0
217,103,45880,5,4
259,351,46213,5,6
353,288,46546,5,8
413,227,46880,1,0
413,290,47213,1,8
354,222,47547,1,0
294,161,47881,1,8
353,161,48215,1,0
412,160,48548,5,0
412,95,48882,1,0
383,96,49049,5,8
259,92,49383,1,8
190,91,49716,1,8
193,156,50050,1,0
226,175,50217,5,0
385,294,50551,5,8
401,270,50717,1,8
352,222,50884,5,0
332,200,51051,1,8
393,160,51218,5,0
390,86,51552,5,8
290,85,51885,1,0
195,88,52219,1,8
121,160,52553,1,0
124,288,52886,1,8
258,255,53220,1,0
381,220,53554,1,8
387,126,53888,1,4
321,124,54054,1,8
261,124,54221,1,4
193,125,54388,1,4
381,186,54722,5,8
322,189,54889,1,8
257,190,55056,1,4
322,259,55389,5,8
263,256,55556,1,8
195,255,55723,1,12
129,193,56057,5,14
66,126,56223,1,14
452,131,56557,5,4
390,196,56724,5,4
320,260,56891,5,4
215,256,57058,5,4
129,309,57225,5,4
68,255,57391,5,4
129,195,57558,5,4
198,137,57725,5,4
261,88,57892,5,4
323,55,58059,5,6
263,31,58392,5,8
232,38,58559,1,0
185,77,58892,1,0
143,118,59225,2,0,B|272:201,1,140
260,193,59726,1,0
357,194,60060,1,0
399,153,60393,2,0,B|339:94,1,70
349,103,60727,2,0,B|297:154,1,70
299,152,61061,1,14
216,92,61561,5,0
155,153,61895,2,0,B|102:175|81:193|80:229|88:246|116:277|187:300|261:312|306:312|271:300,1,280
246,304,62729,1,0
269,303,62896,1,0
269,303,63063,6,0,B|317:297|344:292|358:285|380:276|398:266|414:254|439:242|447:222|446:205|434:192|426:178|419:173|401:168|393:162|376:156|366:155|355:151|343:145|334:144|324:144|316:145|307:145|281:144,1,350
267,109,64064,5,0
220,145,64231,1,0
210,87,64398,1,0
160,125,64565,1,0
171,186,64732,5,0
233,205,64898,1,0
284,165,65065,1,0
348,164,65399,1,0
319,225,65733,1,0
265,258,65900,5,0
313,305,66233,2,0,B|383:245,1,70
414,212,66734,6,0,B|329:141,2,70
451,170,67401,6,0,B|375:113,2,70
414,212,68069,5,0
369,171,68402,1,8
286,165,68736,1,0
231,165,68903,1,0
229,97,69070,5,0
285,97,69237,1,0
339,110,69403,1,0
363,161,69570,1,0
354,217,69737,1,0
304,245,69904,1,0
249,235,70071,1,0
228,180,70238,1,0
288,183,70405,5,0
291,93,70738,5,8
291,291,71072,5,8
244,266,71239,1,0
301,230,71573,5,8
351,267,71739,1,0
297,347,72073,1,0
301,230,72240,1,8
301,167,72574,5,0
250,111,72740,1,8
212,166,72907,1,4
156,166,73074,1,0
116,115,73241,1,6
73,165,73408,1,0
113,214,73575,1,0
260,257,73937,5,0
312,286,74160,1,0
357,245,74382,1,0
316,196,74605,1,0
370,169,74827,1,0
414,204,75049,1,0
425,141,75272,1,0
371,106,75411,5,0
320,106,75578,1,0
291,150,75745,1,0
248,113,75912,1,8
218,159,76078,1,0
245,207,76245,5,0
284,235,76412,1,0
331,246,76579,1,0
367,209,76746,1,0
412,188,76913,1,0
416,143,77080,5,0
406,123,77163,1,0
394,102,77246,1,8
339,96,77413,1,0
339,96,77580,1,0
339,96,77747,5,0
258,131,78081,5,0
207,91,78247,1,0
159,133,78414,1,0
208,184,78581,1,8
207,132,78748,1,4
252,86,78915,1,0
160,82,79082,1,0
256,178,79165,1,0
256,178,79249,1,0
256,178,79415,1,8
256,192,79666,12,0,90845
