osu file format v14

[General]
AudioFilename: Patria.mp3
AudioLeadIn: 0
PreviewTime: 79
Countdown: 0
SampleSet: Soft
StackLeniency: 0.7
Mode: 0
LetterboxInBreaks: 0
WidescreenStoryboard: 1

[Editor]
Bookmarks: 57728
DistanceSpacing: 1.2
BeatDivisor: 4
GridSize: 4
TimelineZoom: 1

[Metadata]
Title:Patria
TitleUnicode:Patria
Artist:Minami
ArtistUnicode:Minami
Creator:Rizia
Version:Hard
Source:レガリア The Three Sacred Stars
Tags:Regalia anime ending kawaiwkyik thzz regraz pata-mon
BeatmapID:1073200
BeatmapSetID:495886

[Difficulty]
HPDrainRate:6
CircleSize:4
OverallDifficulty:7
ApproachRate:8
SliderMultiplier:1.6
SliderTickRate:1

[Events]
//Background and Video events
0,0,"bg.jpg",0,0
//Break Periods
//Storyboard Layer 0 (Background)
//Storyboard Layer 1 (Fail)
//Storyboard Layer 2 (Pass)
//Storyboard Layer 3 (Foreground)
//Storyboard Sound Samples

[TimingPoints]
661,480,4,2,1,70,1,0
35221,324.324324324324,4,2,1,70,1,0
35221,-125,4,2,1,70,0,0
40085,-100,4,2,1,70,0,0
50788,-133.333333333333,4,2,1,50,0,0
59869,-100,4,2,1,60,0,0
72842,-142.857142857143,4,2,1,50,0,0
74139,-142.857142857143,4,2,1,60,0,0
76734,-100,4,2,1,60,0,0
82410,-125,4,2,1,60,0,0
87112,-100,4,2,1,60,0,0
93599,-200,4,2,1,60,0,0
94410,-100,4,2,1,70,0,0
94896,-100,4,2,1,70,0,1
119545,-100,4,2,1,70,0,0
121004,-200,4,2,1,70,0,0
122139,-133.333333333333,4,2,1,70,0,0
122788,-100,4,2,1,70,0,0

[Colours]
Combo1 : 255,0,0
Combo2 : 248,220,157
Combo3 : 79,56,98
Combo4 : 0,128,255

[HitObjects]
84,116,35221,5,0,1:0:0:0:
84,116,35383,1,0,1:0:0:0:
256,356,36518,1,0,1:0:0:0:
256,356,36680,1,0,1:0:0:0:
428,116,37815,5,0,1:0:0:0:
428,116,37977,2,0,P|416:160|400:252,1,128,0|2,1:0|0:0,0:0:0:0:
376,340,38464,2,0,P|436:320|496:312,2,96,2|2|2,0:0|0:0|0:0,0:0:0:0:
292,368,39112,1,4,0:0:0:0:
36,340,40085,6,0,L|32:292,3,40,8|8|8|8,0:0|0:0|0:0|0:0,0:0:0:0:
12,268,40410,6,0,P|4:220|48:112,1,160,4|8,0:0|0:0,0:0:0:0:
64,32,40896,1,0,0:0:0:0:
64,32,41058,2,0,P|108:48|236:60,1,160,0|8,0:0|0:0,0:0:0:0:
392,24,41707,6,0,P|428:64|404:168,1,160,0|8,0:0|0:0,0:0:0:0:
348,100,42193,1,0,0:0:0:0:
324,192,42356,2,0,P|320:236|344:284,1,80,0|0,0:0|0:0,0:0:0:0:
388,336,42680,1,8,0:0:0:0:
388,336,42842,1,0,0:0:0:0:
308,376,43004,6,0,L|224:368,2,80,0|0|8,0:0|0:0|0:0,0:0:0:0:
388,336,43491,1,0,0:0:0:0:
368,252,43653,2,0,L|452:244,2,80,0|0|8,0:0|0:0|0:0,0:0:0:0:
288,288,44139,1,0,0:0:0:0:
228,224,44302,6,0,P|202:258|198:307,2,80,0|0|8,0:0|0:0|0:0,0:0:0:0:
272,148,44788,1,0,0:0:0:0:
360,164,44950,2,0,P|404:176|504:100,2,160,0|8|4,0:0|0:0|0:0,0:0:0:0:
360,164,45761,5,0,0:0:0:0:
300,100,45923,2,0,P|296:60|295:20,1,80,8|0,0:0|0:0,0:0:0:0:
232,156,46248,2,0,P|180:144|60:136,1,160,0|8,0:0|0:0,0:0:0:0:
16,200,46734,1,0,0:0:0:0:
48,312,46896,6,0,P|100:324|220:332,1,160,0|8,0:0|0:0,0:0:0:0:
268,272,47383,1,0,0:0:0:0:
352,300,47545,2,0,P|359:339|363:379,1,80,0|0,0:0|0:0,0:0:0:0:
408,232,47869,2,0,P|434:262|457:294,1,80,8|0,0:0|0:0,0:0:0:0:
412,144,48193,6,0,P|449:157|486:173,1,80,4|0,0:0|0:0,0:0:0:0:
416,52,48518,2,0,P|379:68|341:81,1,80,8|0,0:0|0:0,0:0:0:0:
280,144,48842,2,0,P|242:130|205:114,1,80,0|0,0:0|0:0,0:0:0:0:
120,88,49166,2,0,P|127:127|131:167,1,80,8|0,0:0|0:0,0:0:0:0:
80,240,49491,6,0,P|112:204|232:220,1,160,4|8,0:0|0:0,0:0:0:0:
268,276,49977,1,8,0:0:0:0:
268,276,50058,1,8,0:0:0:0:
268,276,50139,2,0,L|260:332,4,40,8|8|8|8|8,0:0|0:0|0:0|0:0|0:0,0:0:0:0:
412,144,50788,5,4,0:0:0:0:
412,144,51437,2,0,P|360:160|280:168,1,120.000004577637,2|0,0:0|0:0,0:0:0:0:
216,164,51923,1,2,0:0:0:0:
216,164,52085,6,0,P|209:104|192:47,2,120.000004577637,0|2|0,0:0|0:0|0:0,0:0:0:0:
156,308,53058,1,0,0:0:0:0:
156,308,53220,1,2,0:0:0:0:
156,308,53383,6,0,P|108:332|48:192,1,240.000009155274,0|2,0:0|0:0,0:0:0:0:
168,124,54356,1,0,0:0:0:0:
292,220,54680,6,0,L|284:356,1,120.000004577637,2|0,0:0|0:0,0:0:0:0:
428,280,55329,2,0,L|435:160,1,120.000004577637,2|0,0:0|0:0,0:0:0:0:
440,84,55815,1,0,0:0:0:0:
440,84,55977,1,2,0:0:0:0:
284,100,56302,6,0,L|272:28,1,60.0000022888184,0|0,0:0|0:0,0:0:0:0:
196,28,56626,2,0,L|205:87,1,60.0000022888184,2|0,0:0|0:0,0:0:0:0:
224,164,56950,1,0,0:0:0:0:
120,284,57275,6,0,P|76:280|44:272,1,60.0000022888184,2|0,0:0|0:0,0:0:0:0:
12,216,57599,2,0,P|16:172|24:140,1,60.0000022888184,0|0,0:0|0:0,0:0:0:0:
56,88,57923,2,0,P|115:90|174:104,1,120.000004577637,2|0,0:0|0:0,0:0:0:0:
288,212,58572,6,0,P|347:209|406:195,1,120.000004577637,2|0,0:0|0:0,0:0:0:0:
472,264,59058,2,0,P|413:249|353:247,1,120.000004577637,2|0,0:0|0:0,0:0:0:0:
292,296,59545,2,0,P|296:340|304:364,1,60.0000022888184,0|0,0:0|0:0,0:0:0:0:
200,312,59869,6,0,P|208:256|212:140,1,160,8|0,0:0|0:0,0:0:0:0:
212,152,60356,2,0,P|256:172|348:96,1,160,8|0,0:0|0:0,0:0:0:0:
343,118,60842,2,0,P|292:100|260:92,1,80,8|0,0:0|0:0,0:0:0:0:
415,178,61166,6,0,P|466:159|498:151,2,80,4|0|8,0:0|0:0|0:0,0:0:0:0:
336,220,61653,1,0,0:0:0:0:
336,220,61815,2,0,B|320:272|320:272|352:316|328:376,1,160,0|8,0:0|0:0,0:0:0:0:
252,328,62302,1,0,0:0:0:0:
252,328,62464,6,0,P|208:312|100:368,2,160,0|8|0,0:0|0:0|0:0,0:0:0:0:
328,372,63275,1,0,0:0:0:0:
328,372,63437,2,0,L|436:360,1,80,8|0,0:0|0:0,0:0:0:0:
496,284,63761,6,0,P|504:240|416:180,1,160,0|8,0:0|0:0,0:0:0:0:
340,212,64248,1,0,0:0:0:0:
340,212,64410,2,0,P|328:168|336:112,1,80,0|0,0:0|0:0,0:0:0:0:
400,16,64734,2,0,P|412:60|404:116,1,80,8|0,0:0|0:0,0:0:0:0:
256,84,65058,6,0,L|92:72,2,160,0|8|0,0:0|0:0|0:0,0:0:0:0:
329,134,65869,1,0,0:0:0:0:
280,208,66031,2,0,P|268:252|268:308,1,80,8|0,0:0|0:0,0:0:0:0:
372,364,66356,6,0,P|408:332|332:272,1,160,4|8,0:0|0:0,0:0:0:0:
288,328,66842,1,0,0:0:0:0:
208,364,67004,2,0,P|168:376|116:372,1,80,0|0,0:0|0:0,0:0:0:0:
48,348,67329,1,8,0:0:0:0:
48,348,67491,1,0,0:0:0:0:
20,264,67653,6,0,B|32:204|32:204|12:168|12:168|24:104,1,160,0|8,0:0|0:0,0:0:0:0:
188,44,68302,2,0,B|176:104|176:104|196:140|196:140|184:204,1,160,0|8,0:0|0:0,0:0:0:0:
204,284,68788,1,0,0:0:0:0:
324,248,68950,5,4,0:0:0:0:
324,248,69112,2,0,L|500:232,1,160,0|0,0:0|0:0,0:0:0:0:
483,233,69599,2,0,L|464:336,1,80,2|0,0:0|0:0,0:0:0:0:
304,328,69923,2,0,L|392:320,1,80,2|0,0:0|0:0,0:0:0:0:
344,168,70248,6,0,L|184:153,2,160,4|12|4,0:0|0:0|0:0,0:0:0:0:
416,116,71058,1,0,0:0:0:0:
416,116,71139,1,0,0:0:0:0:
416,116,71220,1,8,0:0:0:0:
356,52,71383,1,0,0:0:0:0:
284,104,71545,5,8,0:0:0:0:
360,184,71707,1,8,0:0:0:0:
176,112,71869,1,8,0:0:0:0:
176,112,72842,6,0,L|180:188,1,55.9999982910157,0|0,0:0|0:0,0:0:0:0:
164,244,73166,2,0,L|284:224,1,111.999996582031,0|0,0:0|0:0,0:0:0:0:
352,240,73653,1,0,0:0:0:0:
336,316,73815,1,0,0:0:0:0:
128,352,74139,5,8,0:0:0:0:
52,272,74301,1,8,0:0:0:0:
236,344,74463,1,8,0:0:0:0:
100,192,75437,6,0,L|84:12,1,167.999994873047,4|0,0:0|0:0,0:0:0:0:
85,24,76085,2,0,L|160:40,1,55.9999982910157,2|0,0:0|0:0,0:0:0:0:
200,84,76410,2,0,L|254:72,1,55.9999982910157,4|0,0:0|0:0,0:0:0:0:
352,16,76734,6,0,P|396:8|500:88,1,160,4|8,0:0|0:0,0:0:0:0:
508,152,77220,1,0,0:0:0:0:
508,152,77383,2,0,L|488:244,1,80,0|0,0:0|0:0,0:0:0:0:
412,272,77707,2,0,L|392:364,1,80,8|0,0:0|0:0,0:0:0:0:
316,272,78031,6,0,P|332:216|440:180,2,160,0|8|0,0:0|0:0|0:0,0:0:0:0:
264,344,78842,1,0,0:0:0:0:
264,344,79004,2,0,P|224:360|176:360,1,80,8|0,0:0|0:0,0:0:0:0:
104,336,79329,6,0,P|94:297|73:263,1,80,0|0,0:0|0:0,0:0:0:0:
12,200,79653,2,0,P|21:161|42:127,1,80,8|0,0:0|0:0,0:0:0:0:
108,68,79977,1,0,0:0:0:0:
108,68,80139,2,0,P|144:83|184:85,1,80,0|8,0:0|0:0,0:0:0:0:
256,136,80464,1,0,0:0:0:0:
256,136,80626,6,0,P|324:120|404:116,1,120,4|0,0:0|0:0,0:0:0:0:
396,120,80950,2,0,P|402:180|402:216,1,80,8|0,0:0|0:0,0:0:0:0:
276,224,81275,2,0,P|269:284|269:320,1,80,8|8,0:0|0:0,0:0:0:0:
444,280,81599,2,0,P|450:340|450:376,1,80,8|8,0:0|0:0,0:0:0:0:
312,384,81923,5,4,0:0:0:0:
84,264,82248,1,0,0:0:0:0:
84,264,82410,1,0,0:0:0:0:
84,264,82572,2,0,P|76:216|120:136,1,128,8|0,0:0|0:0,0:0:0:0:
196,104,83058,2,0,P|204:152|160:232,2,128,0|0|0,0:0|0:0|0:0,0:0:0:0:
120,56,83869,2,0,L|52:64,1,64,8|0,0:0|0:0,0:0:0:0:
196,104,84193,2,0,L|323:89,1,128,0|0,0:0|0:0,0:0:0:0:
448,152,84842,5,0,0:0:0:0:
448,152,85004,1,0,0:0:0:0:
448,152,85166,2,0,P|468:192|456:284,1,128,8|0,0:0|0:0,0:0:0:0:
396,328,85653,2,0,L|328:344,1,64,2|0,0:0|0:0,0:0:0:0:
228,288,85977,2,0,L|290:273,1,64,2|0,0:0|0:0,0:0:0:0:
168,360,86302,2,0,P|124:356|36:340,1,128,8|0,0:0|0:0,0:0:0:0:
16,260,86788,2,0,L|8:216,3,32,8|8|8|8,0:0|0:0|0:0|0:0,0:0:0:0:
36,276,87112,6,0,P|72:288|168:212,1,160,4|8,0:0|0:0,0:0:0:0:
104,160,87599,1,0,0:0:0:0:
48,92,87761,2,0,P|100:34|177:41,1,160,0|8,0:0|0:0,0:0:0:0:
256,80,88248,1,0,0:0:0:0:
334,41,88410,2,0,P|411:34|464:92,1,160,0|8,0:0|0:0,0:0:0:0:
408,160,88896,1,0,0:0:0:0:
346,225,89059,2,0,P|398:282|476:276,1,160,0|12,0:0|0:0,0:0:0:0:
484,188,89545,1,0,0:0:0:0:
392,304,89707,6,0,P|344:328|216:320,1,160,4|8,0:0|0:0,0:0:0:0:
120,80,90356,2,0,P|168:56|296:64,1,160,0|8,0:0|0:0,0:0:0:0:
484,188,91004,5,0,0:0:0:0:
464,272,91166,1,0,0:0:0:0:
396,328,91329,1,8,0:0:0:0:
308,336,91491,1,0,0:0:0:0:
232,240,91653,5,0,0:0:0:0:
252,156,91815,1,0,0:0:0:0:
320,100,91978,1,8,0:0:0:0:
408,92,92140,1,0,0:0:0:0:
364,200,92302,6,0,L|228:184,2,120,8|8|8,0:0|0:0|0:0,0:0:0:0:
388,308,92950,2,0,L|524:292,2,120,2|2|2,0:0|0:0|0:0,0:0:0:0:
288,360,93599,6,0,B|190:396|190:300|91:357,1,200,2|2,0:0|0:0,0:0:0:0:
32,304,94572,2,0,L|36:248,3,40,8|0|0|0,0:0|0:0|0:0|0:0,0:0:0:0:
34,264,94896,6,0,P|76:236|204:248,1,160,4|8,0:0|0:0,0:0:0:0:
260,276,95383,2,0,P|304:272|352:264,1,80,2|0,0:0|0:0,0:0:0:0:
424,292,95707,2,0,P|442:251|459:206,1,80,2|8,0:0|0:0,0:0:0:0:
357,106,96031,6,0,P|365:145|376:184,1,80,2|0,0:0|0:0,0:0:0:0:
268,107,96356,2,0,P|278:69|286:30,1,80,2|8,0:0|0:0,0:0:0:0:
196,156,96680,2,0,P|156:164|32:168,1,160,2|2,0:0|0:0,0:0:0:0:
76,88,97166,1,8,0:0:0:0:
84,252,97329,1,0,0:0:0:0:
84,252,97410,1,0,0:0:0:0:
84,252,97491,6,0,P|124:244|248:240,1,160,0|8,0:0|0:0,0:0:0:0:
324,272,97977,2,0,P|340:316|324:364,1,80,2|0,0:0|0:0,0:0:0:0:
242,239,98302,2,0,P|226:195|242:147,1,80,2|8,0:0|0:0,0:0:0:0:
336,88,98626,6,0,P|376:108|376:236,1,160,2|2,0:0|0:0,0:0:0:0:
332,296,99112,1,8,0:0:0:0:
332,296,99275,1,2,0:0:0:0:
220,248,99437,1,0,0:0:0:0:
220,248,99599,1,2,0:0:0:0:
128,336,99761,1,8,0:0:0:0:
128,336,99923,1,2,0:0:0:0:
12,288,100085,6,0,P|4:244|16:184,1,80,4|2,0:0|0:0,0:0:0:0:
48,128,100410,2,0,P|82:99|140:79,1,80,8|2,0:0|0:0,0:0:0:0:
196,112,100734,2,0,P|240:128|344:84,1,160,0|8,0:0|0:0,0:0:0:0:
392,16,101220,6,0,L|372:192,1,160,2|2,0:0|0:0,0:0:0:0:
364,264,101707,1,8,0:0:0:0:
364,264,101869,1,2,0:0:0:0:
408,340,102031,2,0,P|372:352|324:344,1,80,0|2,0:0|0:0,0:0:0:0:
276,276,102356,2,0,P|238:263|198:269,1,80,8|2,0:0|0:0,0:0:0:0:
124,316,102680,6,0,P|112:276|196:184,2,160,4|8|0,0:0|0:0|0:0,0:0:0:0:
48,360,103491,1,0,0:0:0:0:
32,272,103653,1,8,0:0:0:0:
199,268,103815,1,2,0:0:0:0:
199,268,104139,6,0,L|184:172,2,80,2|0|2,0:0|0:0|0:0,0:0:0:0:
268,324,104626,1,0,0:0:0:0:
352,300,104788,2,0,P|361:261|367:204,2,80,0|8|8,0:0|0:0|0:0,0:0:0:0:
424,352,105275,6,0,P|440:304|456:184,1,160,4|8,0:0|0:0,0:0:0:0:
512,128,105761,2,0,P|472:108|424:112,1,80,2|0,0:0|0:0,0:0:0:0:
356,140,106085,2,0,P|322:119|301:85,1,80,2|8,0:0|0:0,0:0:0:0:
232,32,106410,6,0,P|211:65|177:86,1,80,2|0,0:0|0:0,0:0:0:0:
92,112,106734,2,0,P|110:146|112:186,1,80,2|8,0:0|0:0,0:0:0:0:
48,248,107058,2,0,P|40:304|144:364,1,160,2|2,0:0|0:0,0:0:0:0:
192,332,107545,2,0,P|244:324|288:320,1,80,8|2,0:0|0:0,0:0:0:0:
352,292,107869,5,0,0:0:0:0:
440,304,108031,2,0,P|448:356|452:400,1,80,2|8,0:0|0:0,0:0:0:0:
352,292,108356,2,0,P|347:252|341:212,1,80,2|0,0:0|0:0,0:0:0:0:
276,156,108680,2,0,P|312:132|384:136,1,80,2|8,0:0|0:0,0:0:0:0:
432,96,109004,6,0,P|396:56|280:64,1,160,2|2,0:0|0:0,0:0:0:0:
212,84,109491,2,0,L|32:72,1,160,8|0,0:0|0:0,0:0:0:0:
52,160,109977,1,2,0:0:0:0:
112,223,110139,2,0,P|133:190|138:151,1,80,8|2,0:0|0:0,0:0:0:0:
28,248,110464,5,4,0:0:0:0:
92,312,110626,1,2,0:0:0:0:
176,288,110788,1,8,0:0:0:0:
244,344,110950,2,0,P|284:368|392:312,1,160,2|2,0:0|0:0,0:0:0:0:
416,248,111437,1,8,0:0:0:0:
376,168,111599,1,2,0:0:0:0:
376,168,111680,1,0,0:0:0:0:
376,168,111761,6,0,P|388:112|404:64,1,80,0|2,0:0|0:0,0:0:0:0:
436,12,112085,1,8,0:0:0:0:
312,104,112248,2,0,P|264:112|124:124,1,160,2|2,0:0|0:0,0:0:0:0:
84,68,112734,1,8,0:0:0:0:
112,208,112896,1,2,0:0:0:0:
112,208,112977,1,0,0:0:0:0:
112,208,113058,6,0,P|160:200|300:188,2,160,4|8|0,0:0|0:0|0:0,0:0:0:0:
68,284,113869,2,0,L|20:304,2,40,2|0|8,0:0|0:0|0:0,0:0:0:0:
124,352,114193,1,0,0:0:0:0:
212,332,114356,6,0,P|248:288|224:172,2,160,0|8|0,0:0|0:0|0:0,0:0:0:0:
156,264,115166,1,2,0:0:0:0:
112,188,115329,2,0,L|108:132,3,40,8|0|0|0,0:0|0:0|0:0|0:0,0:0:0:0:
80,112,115653,5,8,0:0:0:0:
132,32,115815,1,8,0:0:0:0:
228,44,115977,1,8,0:0:0:0:
228,44,116302,6,0,L|248:212,1,160,0|0,3:0|3:0,0:0:0:0:
440,208,116950,5,8,0:0:0:0:
436,304,117112,1,8,0:0:0:0:
352,256,117274,1,8,0:0:0:0:
352,256,117599,6,0,P|308:264|248:280,1,80,0|0,3:0|0:0,0:0:0:0:
276,192,117923,2,0,P|232:184|172:168,1,80,0|0,0:0|0:0,0:0:0:0:
136,252,118248,5,8,0:0:0:0:
136,252,118410,1,8,0:0:0:0:
52,300,118572,5,8,0:3:0:0:
52,300,118734,1,8,3:0:0:0:
48,204,118896,5,2,0:0:0:0:
92,116,119058,1,2,0:0:0:0:
168,60,119220,1,0,0:0:0:0:
264,44,119383,1,2,0:0:0:0:
356,68,119545,5,4,0:0:0:0:
256,192,120842,12,4,123437,1:0:0:0:
