osu file format v6

[General]
AudioFilename: kiss kiss - mina.mp3
AudioLeadIn: 0
PreviewTime: 16257
Countdown: 0
SampleSet: Normal
StackLeniency: 0.7
Mode: 0
LetterboxInBreaks: 1

[Editor]
Bookmarks: 11532,66132
DistanceSpacing: 0.800000011920929
BeatDivisor: 4
GridSize: 8

[Metadata]
Title:Kiss Kiss
Artist:Mina
Creator:osu_CN_yaya
Version:Another
Source:
Tags:

[Difficulty]
HPDrainRate:7
CircleSize:5
OverallDifficulty:8
SliderMultiplier:2.6
SliderTickRate:2

[Events]
//Background and Video events
0,0,"2008121953824_2.jpg"
//Break Periods
2,66332,75882
2,116732,125982
2,156332,164382
//Storyboard Layer 0 (Background)
//Storyboard Layer 1 (Fail)
//Storyboard Layer 2 (Pass)
//Storyboard Layer 3 (Foreground)
//Storyboard Sound Samples
//Background Colour Transformations
3,100,0,0,0

[TimingPoints]
132,600,4,1,0,71,1,0
43782,-100,4,1,0,41,0,0
44532,-100,4,1,0,51,0,0
45132,-100,4,1,0,61,0,0
45732,-100,4,1,0,70,0,0
56682,-100,4,1,0,70,0,0
94182,-100,4,1,0,49,0,0
94932,-100,4,1,0,60,0,0
95532,-100,4,1,0,70,0,0
115632,-200,4,1,0,71,0,0
116532,-100,4,1,0,71,0,0
127032,-200,4,1,0,71,0,0
127482,-100,4,1,0,71,0,0
145032,-200,4,1,0,70,0,0
145332,-100,4,1,0,70,0,0
145482,-100,4,2,0,100,0,0
154182,-100,4,1,0,71,0,0

[Colours]
Combo1 : 145,145,145
Combo2 : 193,9,193

[HitObjects]
96,112,11532,2,0,C|232:112|232:112,1,130,0|0
192,192,11982,2,0,C|288:192|288:192,1,65
328,192,12282,1,0
408,192,12432,1,0
448,336,12732,6,0,C|336:336|336:336,1,65
304,296,13032,1,0
304,296,13182,1,0
224,336,13332,2,0,C|224:256,2,65
136,336,13782,1,0
48,336,13932,6,0,C|48:168|48:168,1,130
120,152,14382,1,0
56,96,14532,2,0,C|160:56,2,65
256,96,15132,5,0
256,288,15432,1,0
160,192,15732,1,0
352,192,16032,1,0
440,48,16332,6,0,C|440:264|440:264,1,195,4|0
440,320,16932,1,0
360,272,17082,1,0
360,352,17232,1,0
256,280,17532,6,0,C|160:280|160:280,1,65
256,200,17832,2,0,C|328:200|328:200,1,65
256,120,18132,1,0
256,120,18282,1,0
256,120,18432,1,0
184,120,18582,1,0
112,120,18732,2,0,C|112:280|112:280,1,130
112,328,19182,1,0
112,328,19482,1,0
192,328,19632,1,0
192,328,19932,5,0
400,328,20232,1,0
400,128,20532,1,0
192,128,20832,1,0
32,192,21132,6,0,C|184:192,1,130,4|0
120,264,21582,2,0,C|224:264|224:264,2,65
40,264,22032,1,0
448,192,22332,6,0,C|448:112,2,65
448,280,22782,1,0
376,240,22932,2,0,C|232:240|232:240,1,130
256,80,23532,6,0,C|328:120|328:120,1,65,2|0
256,168,23832,2,0,C|184:208|184:208,1,65,2|0
256,256,24132,2,2,C|256:344,2,65,2|2|2
256,80,24732,5,0
96,312,25032,1,2
416,312,25332,1,2
448,72,25932,6,0,C|312:72|312:72,1,130,0|2
256,128,26382,1,0
320,184,26532,2,0,C|464:184|464:184,1,130,2|0
496,248,26982,1,0
456,312,27132,2,0,C|456:384,2,65,2|0|0
392,248,27582,1,2
328,304,27732,2,2,C|192:304|192:304,1,130,2|2
88,80,28332,6,0,C|88:160|88:160,1,65,2|0
32,208,28632,1,2
88,272,28782,1,0
144,208,28932,1,2
216,96,29232,2,0,C|288:96|288:96,1,65
352,96,29532,5,2
352,336,29832,1,2
352,96,30132,1,2
56,344,30732,6,0,C|56:192|56:192,1,130,2|0
128,216,31182,2,0,C|128:104|128:104,1,65,0|2
184,96,31482,1,0
264,96,31632,1,2
272,296,31932,2,0,C|352:296|352:296,1,65,2|0
416,296,32232,2,2,C|416:200|416:200,1,65
416,152,32532,1,2
336,160,32682,1,0
264,200,32832,1,2
152,312,33132,6,0,L|64:312,1,65,2|0
8,240,33432,2,2,L|96:240|96:240,1,65
152,168,33732,2,0,L|80:168|80:168,1,65,2|0
0,96,34032,2,2,L|80:96|80:96,1,65
152,96,34332,5,2
464,96,34632,1,2
320,328,34932,1,2
88,72,35532,6,2,L|232:72|232:72,1,130,2|0
176,144,35982,2,2,L|328:144|328:144,1,130,2|2
368,216,36432,2,0,L|280:216|280:216,1,65,2|0
328,288,36732,2,2,L|192:288|192:288,1,130,2|0
232,360,37182,2,2,L|136:360|136:360,1,65,2|0
96,360,37482,1,2
16,360,37632,2,0,L|16:232|16:232,1,65
16,208,37932,6,2,L|160:208|160:208,1,130,2|0
496,208,38532,2,2,L|344:208|344:208,1,130,2|0
256,296,39132,2,2,L|256:368,2,65
256,208,39582,1,0
256,120,39732,1,2
440,56,40032,5,0
440,144,40182,1,0
440,232,40332,2,2,L|376:288|312:280|312:280,1,130,2|0
320,208,40782,1,0
312,128,40932,2,2,L|224:144|184:192|184:192,1,130,2|0
208,256,41382,1,0
224,336,41532,2,2,L|136:336|136:336,1,65
88,336,41832,2,0,L|16:264|16:200|16:200,1,130,2|0
16,152,42282,1,0
88,200,42432,1,2
88,120,42582,1,0
152,64,42732,6,2,L|296:64|296:64,1,130,2|0
360,320,43332,2,2,L|216:320|216:320,1,130,2|0
448,72,43932,6,2,B|296:72|296:72,1,130
318,72,44382,1,0
232,152,44532,2,2,B|408:152|408:152,1,130
362,152,44982,1,0
448,240,45132,2,2,B|296:240|296:240,1,130
318,240,45582,1,0
256,288,45732,1,2
200,240,45882,1,0
144,288,46032,1,2
88,240,46182,1,0
256,192,46332,12,0,47232
48,96,47532,6,2,L|232:96|232:96,1,130,2|2
256,96,47982,1,0
336,96,48132,1,2
424,232,48432,1,0
376,168,48582,1,0
336,96,48732,2,0,L|336:24,4,65,2|0|2|2|2
168,352,49632,5,0
104,296,49782,1,0
40,240,49932,2,2,L|40:104|40:104,1,130,2|2
104,56,50382,1,0
176,104,50532,2,2,L|304:104|320:104|320:104,1,130,2|2
384,104,50982,1,0
352,184,51132,1,2
416,240,51282,1,0
360,304,51432,1,2
416,368,51582,1,2
472,304,51732,1,2
408,72,52032,5,0
320,72,52182,1,0
224,72,52332,2,2,L|160:96|96:72|96:72,1,130,2|2
32,136,52782,1,0
104,200,52932,2,2,L|168:176|232:200|232:200,1,130,2|2
280,136,53382,1,0
344,200,53532,2,0,L|448:200,4,65,2|0|2|2|2
344,336,54432,6,0,L|264:336|264:336,1,65
200,336,54732,2,2,L|192:328|184:344|176:328|168:344|160:328|152:344|144:328|136:344|128:328|120:344|112:328|104:344|96:328|88:344|80:328|80:328,1,260
80,329,55632,1,2
424,192,56232,5,0
88,192,56532,1,0
432,64,56832,5,0
352,96,56982,1,0
272,64,57132,2,2,L|136:64|136:64,1,130,2|2
80,128,57582,1,0
144,192,57732,2,2,L|288:192|288:192,1,130,2|2
336,256,58182,1,0
280,320,58332,2,0,L|200:320|200:320|208:328,1,65,2|0
136,320,58632,2,2,L|72:288|32:224|32:224,1,130,2|2
88,168,59082,5,0
40,96,59232,1,2
88,24,59382,1,0
168,64,59532,1,2
248,24,59682,1,0
304,96,59832,1,2
248,168,59982,1,0
168,232,60132,1,2
240,344,60432,6,0,L|328:344|328:344,1,65,2|0
384,344,60732,2,0,B|344:304|400:264|400:264,1,65,2|0
464,280,61032,2,2,B|452:285|508:245|440:200,1,65
416,152,61332,1,2
120,64,61632,6,0,B|40:64,2,65,0|0|2
184,120,62082,1,0
256,176,62232,2,2,B|256:104,2,65
88,272,62832,2,0,B|176:272|176:272,1,65,2|0
224,320,63132,2,0,B|272:352|328:288|328:288,1,65,2|0
280,240,63432,2,2,B|328:208|384:272|384:272,1,65
416,272,63732,1,2
408,96,64032,6,0,L|336:96|336:96,1,65,2|0
264,96,64332,2,2,L|208:136|136:80|136:80,1,130,2|0
96,152,64782,2,2,L|32:184|88:280|88:280,1,130,2|0
120,296,65232,1,2
256,352,65532,5,0
56,40,65832,1,0
456,40,66132,1,0
256,64,76632,6,0,L|112:64,2,130,0|0|0
256,192,77532,2,0,L|336:192,4,65
256,328,78432,1,0
120,328,78732,1,0
72,256,78882,1,0
24,184,79032,1,0
184,248,79332,1,0
136,176,79482,1,0
88,104,79632,1,0
248,168,79932,2,0,L|200:96|200:96,1,65
256,56,80232,2,0,L|344:184|344:184,1,130
392,256,80832,1,0
448,352,81132,6,2,L|352:352|352:352|360:352,1,65,6|2
304,352,81432,2,2,L|216:328|176:280|176:280,1,130,0|2
120,200,82032,1,2
64,48,82332,6,2,L|144:48|144:48|152:80,1,65,2|2
112,120,82632,2,2,L|272:120|272:120,1,130,0|2
320,120,83082,1,0
400,120,83232,1,2
440,256,83532,6,0,L|360:256,1,65,2|0
392,328,83832,2,0,L|312:328|312:328,1,65,2|0
288,264,84132,2,2,L|240:224|184:272|184:272,1,130,2|0
200,344,84582,2,2,L|120:344|56:280|56:280,1,130
56,232,85032,1,2
56,232,85332,1,2
456,64,85932,6,2,L|304:64|304:64,1,130,2|0
360,136,86382,2,2,L|208:136,1,130,2|0
256,208,86832,2,2,L|112:208|112:208,1,130,2|0
64,160,87282,1,0
56,240,87432,2,2,L|8:296|8:296,1,65
64,352,87732,1,2
256,312,88032,1,0
448,352,88332,6,2,L|448:216|448:216,1,130,2|0
376,264,88782,2,2,L|376:112|376:112,1,130,2|2
304,176,89232,2,2,L|304:40|304:40,1,130,2|0
224,48,89682,2,2,L|152:48|152:48,1,65
72,48,89982,1,0
112,112,90132,1,2
48,280,90432,6,0,L|136:280|136:280,1,65
192,280,90732,2,2,L|248:336|360:336|360:336,1,130,2|0
400,328,91182,2,2,L|344:272|232:272|232:272,1,130,2|0
240,208,91632,2,0,L|152:208|152:208,1,65,2|0
96,208,91932,1,2
96,208,92232,1,2
96,120,92382,1,0
96,120,92682,1,0
184,120,92832,1,2
408,288,93132,6,2,L|272:288|272:288,1,130,2|0
216,232,93582,1,0
280,168,93732,2,2,L|440:168|440:168,1,130,2|0
40,248,94332,6,2,L|104:272|168:248|168:248,1,130,2|0
104,192,94782,1,0
40,136,94932,2,2,L|104:112|168:136|168:136,1,130,2|0
104,192,95382,1,2
104,192,95532,6,2,L|248:192|248:192,1,130
234,192,95982,1,0
304,192,96132,1,2
376,192,96282,1,0
304,192,96432,1,2
376,192,96582,1,0
256,192,96732,12,0,97632
488,104,97932,6,2,L|416:168|352:176|352:176,1,130,2|2
295,173,98382,1,0
211,172,98532,2,2,L|164:172|80:248|80:248,1,130
56,304,98982,1,0
144,304,99132,1,2
232,304,99282,1,0
144,304,99432,1,2
232,304,99582,1,2
320,304,99732,1,2
456,248,100032,6,0,L|456:176|456:176,1,65
448,96,100332,2,2,L|392:128|328:96|328:96,1,130
296,168,100782,1,0
232,120,100932,2,2,L|176:104|128:168|128:168,1,130
96,240,101382,1,0
128,320,101532,1,2
216,320,101682,1,0
128,320,101832,1,2
216,320,101982,1,2
304,320,102132,1,2
400,320,102282,5,0
368,240,102432,1,0
336,160,102582,1,0
248,160,102732,6,2,L|104:160|104:160,1,130,2|0
160,80,103182,2,2,L|296:80,1,130
384,80,103632,2,0,L|504:80|504:80,1,65,2|0
432,160,103932,1,0
488,224,104082,2,2,L|376:296|376:296,1,130
304,320,104532,1,2
152,320,104832,6,2,L|64:320|64:320,1,65,2|0
24,320,105132,1,2
152,216,105432,2,0,L|80:216|80:216,1,65,2|0
32,144,105732,2,2,L|112:144|112:144,1,65
152,96,106032,1,2
256,32,106332,5,0
256,360,106632,1,0
256,32,106932,1,0
352,88,107232,5,0
448,88,107382,1,0
400,160,107532,2,2,L|456:208|416:288|416:288,1,130
400,328,107982,1,0
328,288,108132,2,2,L|280:352|176:320|176:320,1,130
152,336,108582,1,0
88,280,108732,1,2
152,224,108882,1,0
88,168,109032,1,2
152,112,109182,1,2
88,56,109332,1,2
440,72,109632,6,2,L|304:72|304:72,1,130,2|0
224,72,110082,2,0,L|224:0,2,65,2|2|0
267,135,110532,2,2,L|267:271|267:271,1,130
269,353,110982,1,0
200,312,111132,2,0,L|120:312|120:312,1,65,2|0
96,240,111432,2,2,L|168:240|168:240,1,65,2|2
200,176,111732,1,2
312,40,112032,6,0,L|392:40|392:40,1,65,0|0
440,40,112332,1,2
312,136,112632,2,0,L|392:136,1,65,2|0
440,208,112932,2,2,L|368:208|368:208,1,65
312,280,113232,2,0,L|392:280|392:280,1,65,2|0
440,352,113532,2,2,L|368:352|368:352,1,65,2|0
288,360,113832,1,2
192,344,113982,1,2
96,360,114132,1,2
88,56,114432,6,2,L|88:144|88:144,1,65,2|0
24,176,114732,2,0,B|-8:208|24:248|24:248,1,65,2|0
128,224,115032,2,0,B|160:256|128:296|128:296,1,65,2|0
24,312,115332,2,0,B|-8:344|24:384|24:384,1,65,2|0
128,368,115632,2,2,B|336:368|336:368,1,195,2|0
72,80,126732,6,0,B|184:80,1,65,0|0
120,160,127032,2,0,B|248:160|248:160,1,97.5,0|0
304,160,127632,1,0
448,304,127932,6,0,B|312:304,1,130,0|0
368,376,128382,2,0,B|168:376|168:376,1,195,0|0
128,72,129132,6,0,L|32:120|8:216|8:216,1,195,0|0
96,352,129882,1,0
48,280,130032,1,0
96,64,130332,5,0
416,64,130782,1,0
256,320,131232,1,0
312,56,131532,6,0,L|224:56|224:56,1,65
184,112,131832,1,0
120,184,131982,2,0,L|280:184|280:184,1,130
320,240,132432,1,0
424,336,132732,6,0,L|272:336|272:336,1,130
208,336,133182,1,0
256,264,133332,2,0,L|256:176,2,65
176,56,133932,6,0,B|80:96|56:216|56:216,1,195
272,280,134532,2,0,B|152:328|32:224|32:224,1,195
240,64,135132,2,0,B|320:104|312:240|312:240,1,195
200,176,135732,1,0
200,176,136032,1,0
256,344,136332,5,4
48,40,136782,1,0
464,40,137232,1,0
440,192,137532,5,0
256,192,137832,1,0
72,192,138132,1,0
256,344,138732,5,4
176,344,138882,1,0
256,344,139032,1,0
336,344,139182,1,0
256,40,139632,1,0
256,288,140232,1,0
256,96,140532,1,0
456,128,141132,6,0,B|320:128,1,130,4|0
360,200,141582,2,0,B|192:200|192:200,1,130
144,200,142032,1,0
88,272,142182,1,0
144,344,142332,1,0
256,192,142632,12,0,143532
56,192,143982,5,0
464,192,144432,1,0
256,160,145032,6,0,B|256:240|256:240,1,65
400,56,145632,5,2
448,128,145782,1,0
408,200,145932,1,2
112,56,146232,5,2
64,128,146382,1,0
104,200,146532,1,2
256,344,146832,6,0,B|256:264|256:264,1,65,2|0
56,96,148032,5,2
136,56,148182,1,0
216,96,148332,1,2
456,96,148632,5,2
376,56,148782,1,0
296,96,148932,1,2
256,344,149232,6,0,B|256:264|256:264,1,65,2|0
120,336,150432,5,2
48,296,150582,1,0
112,264,150732,1,2
392,336,151032,5,2
464,296,151182,1,0
400,264,151332,1,2
256,40,151632,6,0,B|256:136|256:136,1,65,2|0
256,192,152082,12,0,152832
256,192,153132,12,0,154032
32,192,154482,5,0
480,192,154932,1,0
256,192,155232,12,0,156132
136,160,165132,5,2
96,80,165282,1,0
176,80,165432,1,2
224,160,165582,1,0
176,240,165732,1,2
88,240,165882,1,0
48,160,166032,1,2
440,336,166332,5,2
440,256,166482,1,0
440,176,166632,1,2
440,96,166782,1,0
368,136,166932,1,2
368,224,167082,1,0
368,304,167232,1,2
208,264,167532,6,2,L|104:304|16:264|16:264,1,195,2|0
88,192,168132,2,2,L|8:192|8:192,1,65,2|2
24,112,168432,1,2
304,264,168732,6,2,L|408:304|496:264|496:264,1,195,2|0
424,192,169332,2,2,L|504:192|504:192,1,65
488,112,169632,1,2
256,40,169932,5,2
256,192,170232,2,2,L|256:120|256:120,1,65
192,88,170532,1,2
120,40,170682,1,0
48,88,170832,1,2
256,344,171132,5,2
256,192,171432,1,0
256,192,171582,2,2,L|256:264|256:264,1,65
320,304,171882,1,2
400,344,172032,1,2
472,304,172182,1,0
472,208,172332,5,2
472,136,172482,1,0
424,72,172632,1,2
352,72,172782,1,0
304,136,172932,1,2
304,208,173082,1,2
392,248,173232,1,2
56,80,174732,6,2,L|200:80,1,130,2|0
144,152,175182,2,2,L|280:152|280:152,1,130,2|0
360,152,175632,1,2
320,224,175782,1,0
408,224,175932,2,2,L|408:312,1,65
336,336,176232,2,2,L|200:336|200:336,1,130,0|2
128,336,176682,5,0
64,256,176832,1,2
128,176,176982,1,0
128,96,177132,6,2,L|216:56|296:80|296:80,1,130,2|0
312,128,177582,1,2
408,112,177732,2,2,L|456:112|488:240|488:240,1,130,2|2
416,256,178182,1,0
320,256,178332,2,2,L|232:256|232:256,1,65,2|0
368,336,178632,2,2,L|288:336|288:336,1,65,2|0
208,336,178932,1,2
120,336,179082,6,0,L|32:336,2,65
120,248,179532,6,2,L|72:192|96:96|96:96,1,130
208,192,179982,1,0
288,248,180132,2,2,L|336:192|312:96|312:96,1,130
208,192,180582,1,0
208,104,180732,2,0,L|208:24,4,65,2|0|2|2|2
424,56,181632,5,2
424,144,181782,1,0
424,232,181932,2,2,L|424:312|376:360|376:360,1,130
232,232,182382,2,2,L|232:312|280:360|280:360,1,130,2|0
328,296,182832,1,2
256,192,182982,12,0,183732
48,72,184032,5,0
136,72,184182,1,0
88,136,184332,2,2,L|40:192|72:272|72:272,1,130
128,288,184782,1,0
216,296,184932,2,2,L|296:296|296:296,1,65,2|0
336,232,185232,1,2
392,296,185382,1,0
424,224,185532,2,0,L|504:184,4,65,2|0|2|2|2
424,72,186432,6,0,L|344:72|344:72,1,65,2|0
376,144,186732,2,2,L|240:144|240:144,1,130
256,216,187182,2,2,L|168:216|168:216,1,65,0|2
208,288,187482,2,0,L|72:288|72:288,1,130,2|2
32,224,187932,1,2
80,152,188082,1,0
32,80,188232,1,2
80,8,188382,1,2
128,80,188532,1,2
256,32,188832,6,2,L|360:32,2,65,2|0|2
256,112,189282,1,0
256,192,189432,2,2,L|168:192,2,65
256,272,189882,1,0
256,352,190032,2,2,L|344:352|344:352,1,65,2|0
408,352,190332,2,0,L|408:272,1,65,2|0
480,248,190632,2,2,L|480:168|480:168,1,65,2|2
408,128,190932,1,2
160,144,191232,6,0,L|64:176,1,65,2|0
56,56,191532,2,2,L|0:128|40:216|40:216,1,130
40,240,191982,2,2,L|72:272|184:256|184:256,1,130,2|0
232,248,192432,1,2
256,192,192582,12,0,193632
88,48,193932,6,0,L|160:48,1,65,0|0
128,128,194232,2,0,L|280:128|280:128,1,130,0|2
256,272,194832,1,0
424,336,196332,6,0,L|352:336,1,65
384,256,196632,2,0,L|232:256|232:256,1,130,0|2
256,104,197232,1,0
256,72,198732,5,0
256,312,199032,1,0
256,232,199182,1,0
256,152,199332,1,2
256,152,199632,1,0
376,192,201132,5,0
376,192,201432,1,0
296,192,201582,1,0
296,192,201882,1,0
216,192,202032,1,0
136,192,202182,1,0
256,192,202332,12,0,202932
192,40,203532,6,2,L|160:96|192:160|192:160,1,130
256,104,203982,1,0
320,40,204132,2,2,L|352:96|320:160|320:160,1,130
256,104,204582,1,0
256,248,204732,2,0,L|256:176,4,65,2|0|2|2|2
440,208,205632,5,2
440,120,205782,1,0
376,168,205932,2,2,L|240:168|240:168,1,130
160,168,206382,1,0
208,232,206532,2,2,L|208:368|208:368,1,130
288,360,206982,1,0
368,360,207132,6,0,L|368:272|368:272,1,65,2|0
440,200,207432,2,2,L|440:288|440:288,1,65
368,200,207732,1,2
80,72,208032,5,2
80,72,208182,1,0
80,72,208332,2,2,L|224:72|224:72,1,130
264,136,208782,1,0
328,200,208932,2,2,L|152:200|152:200,1,130
136,248,209382,1,0
72,304,209532,2,2,L|80:312|88:296|96:312|104:296|112:312|120:296|128:312|136:296|144:312|152:296|160:312|168:296|176:312|184:296|192:312|192:312,1,260
424,112,210432,5,2
464,192,210582,1,0
424,272,210732,1,2
88,112,211032,5,2
48,192,211182,1,0
88,272,211332,1,2
256,320,211632,6,0,B|256:184|256:184,1,130
256,190,212232,5,0
256,190,212532,1,0
