osu file format v9

[General]
AudioFilename: Mimu - Kimi ijou, Boku miman.mp3
AudioLeadIn: 0
PreviewTime: 57714
Countdown: 0
SampleSet: Soft
StackLeniency: 0.7
Mode: 0
LetterboxInBreaks: 0

[Editor]
Bookmarks: 15066,28781,42066,59209,59214,66071,86653,100367,117500,124357,138071,144929,158643,165500,172357,179214,186071,192929
DistanceSpacing: 1.1
BeatDivisor: 4
GridSize: 4

[Metadata]
Title:Kimi ijou, Boku miman
Artist:Mimu
Creator:Fuuko
Version:Daisuki!!
Source:DECO*27
Tags:VOCALOID Cover Hatsune Miku More Than You Less Than Me Garven Sanjenin Nagi -U

[Difficulty]
HPDrainRate:5
CircleSize:3
OverallDifficulty:6
ApproachRate:5
SliderMultiplier:1
SliderTickRate:1

[Events]
//Background and Video events
0,0,"Background.jpg"
//Break Periods
2,73130,85016
//Storyboard Layer 0 (Background)
//Storyboard Layer 1 (Fail)
//Storyboard Layer 2 (Pass)
//Storyboard Layer 3 (Foreground)
Sprite,Foreground,Centre,"SB\Fuuko.png",275,138 F,0,9502,9702,0,1 S,0,9702,12502,0.9 F,0,12502,12702,1,0
//Storyboard Sound Samples
//Background Colour Transformations
3,100,255,255,255

[TimingPoints]
931,428.571428571429,4,2,1,40,1,0
21403,-100,4,2,1,15,0,0
21617,-100,4,2,1,35,0,0
28581,-100,4,2,1,40,0,0
38429,-100,4,2,1,50,0,0
41657,-100,4,2,1,40,0,0
52357,-100,4,2,1,50,0,0
56107,-100,4,1,2,30,0,0
56321,-100,4,2,1,40,0,0
56964,-100,4,1,2,30,0,0
57179,-100,4,2,1,40,0,0
57403,-100,4,2,1,20,0,0
57617,-100,4,2,0,40,0,0
59010,-100,4,2,1,45,0,0
59209,-100,4,2,1,45,0,1
63821,-100,4,1,2,40,0,1
64036,-100,4,2,1,45,0,1
64679,-100,4,1,2,40,0,1
64893,-100,4,2,1,45,0,1
66065,-100,4,2,1,45,0,0
66066,-100,4,2,1,45,0,1
72924,-100,4,2,1,45,0,0
72940,-100,4,2,0,45,0,1
72943,-100,4,2,0,45,0,0
86010,-100,4,2,1,40,0,0
93403,-100,4,2,0,35,0,0
93617,-100,4,2,1,50,0,0
114393,-100,4,1,2,35,0,0
114607,-100,4,2,1,50,0,0
115250,-100,4,1,2,35,0,0
115464,-100,4,2,1,50,0,0
115679,-100,4,2,1,20,0,0
115893,-100,4,2,0,50,0,0
117286,-100,4,2,1,50,0,0
117500,-100,4,2,1,50,0,1
120823,-100,4,2,1,40,0,1
121038,-100,4,2,1,50,0,1
122964,-100,4,1,2,40,0,1
123179,-100,4,2,1,50,0,1
124356,-100,4,2,1,50,0,0
124357,-100,4,2,1,50,0,1
129821,-100,4,1,2,40,0,1
130036,-100,4,2,1,50,0,1
131214,-100,4,2,1,50,0,0
131215,-100,4,2,1,50,0,1
131216,-100,4,2,1,50,0,0
131321,-100,4,2,1,45,0,0
138071,-100,4,2,1,45,0,1
138072,-100,4,2,1,45,0,0
145143,-100,4,2,1,25,0,0
146536,-100,4,2,1,10,0,0
146750,-100,4,2,1,25,0,0
153393,-100,4,2,1,10,0,0
153607,-100,4,2,1,25,0,0
158643,-100,4,2,1,35,0,0
165393,-100,4,2,1,50,0,0
172357,-100,4,2,1,50,0,1
175681,-100,4,2,1,40,0,1
175895,-100,4,2,1,50,0,1
177821,-100,4,1,2,40,0,1
178036,-100,4,2,1,50,0,1
179213,-100,4,2,1,50,0,0
179214,-100,4,2,1,50,0,1
186070,-100,4,2,1,50,0,0
186071,-100,4,2,1,50,0,1
189395,-100,4,2,1,40,0,1
189609,-100,4,2,1,50,0,1
191536,-100,4,1,2,40,0,1
191750,-100,4,2,1,50,0,1
192928,-100,4,2,1,50,0,0
192929,-100,4,2,1,50,0,1
198393,-100,4,1,2,40,0,1
198607,-100,4,2,1,50,0,1
199785,-100,4,2,1,50,0,0
199786,-100,4,2,1,50,0,1
203214,-100,4,2,1,50,0,0

[Colours]
Combo1 : 255,138,255
Combo2 : 255,128,64

[HitObjects]
408,136,14645,1,4
336,192,15073,2,0,B|296:144|336:80|336:80,2,100,2|0|2
424,232,16359,1,0
352,288,16788,2,0,B|304:320|256:288,1,100,2|0
216,208,17645,2,0,B|144:296,1,100,2|0
88,352,18502,5,2
16,280,18931,2,0,B|16:168,1,100,0|2
88,120,19788,1,0
104,224,20216,2,0,B|160:216|184:160,1,100,2|0
256,96,21073,1,2
320,168,21502,1,4
256,232,21931,6,0,B|256:336|256:336,1,100,2|0
344,368,22788,2,0,B|408:368|432:304,1,100,2|0
352,280,23645,1,2
424,232,24073,2,0,B|448:216|448:144|408:128,1,100,0|2
352,96,24931,1,0
304,168,25359,6,0,B|256:200|200:168|200:168,1,100,2|0
152,104,26216,2,0,B|112:200|112:200,1,100,2|0
88,280,27073,1,2
88,280,27502,2,0,B|136:312|184:280,1,100,0|2
216,320,28145,2,0,B|248:368|248:368,1,50,2|4
344,320,28788,6,0,B|392:352|448:312,1,100,2|0
512,256,29645,1,8
440,192,30073,1,0
504,120,30502,2,0,B|504:48,2,50,2|0|0
440,192,31359,2,0,B|400:216|376:184|336:200,1,100,8|0
264,144,32216,6,0,B|224:192|272:256,1,100,2|0
328,304,33073,1,8
256,352,33502,1,0
176,304,33931,2,0,B|128:264|80:304,1,100,2|0
32,224,34788,2,0,B|0:272,2,50,8|0|4
80,144,35645,6,0,B|101:137|112:189|168:176,1,100,2|0
240,120,36502,1,8
304,184,36931,1,0
240,248,37359,2,0,B|208:256|210:303|160:304,1,100,2|0
80,280,38216,1,8
24,208,38645,5,4
80,128,39073,2,0,B|120:160|120:160,1,50,2|4
224,160,39716,2,0,B|264:128,2,50,2|4|0
176,240,40573,2,0,B|176:304,1,50,2|0
272,256,41216,2,8,B|300:254|300:301|340:297,2,75
272,256,42073,5,4
224,328,42502,2,0,B|192:352|160:352,1,50,8|8
96,304,43145,1,2
96,304,43359,2,0,B|64:360,2,50,0|8|0
144,224,44216,2,0,B|200:224|192:176|256:184,1,100,2|0
328,168,45073,2,0,B|304:120,2,50,2|8|0
280,264,45930,6,0,B|264:320,1,50,8|8
312,357,46359,2,0,B|352:373|408:333,1,100,2|0
360,256,47216,2,0,B|352:208|392:160,2,100,2|2|0
456,240,48502,2,0,B|513:274|513:274,2,50,2|8|4
488,152,49359,6,0,B|512:96,1,50,8|8
467,39,49788,2,0,B|404:51|408:121,1,100,2|0
352,184,50645,2,0,B|328:192|328:240|256:224,1,100,2|0
224,264,51288,2,0,B|194:301|192:368,1,100,2|0
136,352,51930,2,0,B|88:384,2,50,8|8|4
32,256,52788,6,0,B|0:216|32:160,1,100,8|2
104,208,53645,1,8
104,120,54073,2,0,B|160:128|184:184,1,100,2|8
168,264,54930,1,2
248,312,55359,1,8
304,240,55788,6,0,B|344:312|464:304|496:232|512:152|480:80|416:56,1,400,2|4
352,144,57930,5,8
352,144,58145,1,8
160,144,58573,1,0
160,144,58788,1,8
208,280,59216,6,0,B|264:320|312:272|312:272,1,100,6|8
256,200,60073,1,2
344,192,60502,2,0,B|376:152|376:152,2,50,8|0|2
392,272,61359,1,8
328,352,61788,5,4
256,288,62216,1,8
184,352,62645,1,4
256,208,63288,1,0
256,208,63502,2,0,B|176:208|224:272|112:240|112:240,1,150,2|0
88,314,64359,2,0,B|32:298|16:226|32:170|104:162|104:162,1,200,2|0
172,96,65645,2,0,B|204:136,1,50,8|8
162,203,66073,6,0,B|210:235|258:195,1,100,4|8
312,128,66930,1,2
368,208,67359,2,0,B|317:258,2,50,8|0|2
416,128,68216,2,0,B|471:140|450:178|520:160,1,100,8|4
456,248,69073,1,8
512,320,69502,1,4
456,248,69930,6,0,B|422:217|382:227|359:245,1,100,8|0
400,320,70788,1,8
304,352,71216,2,0,B|288:352|256:336|256:336|232:350|176:352,1,100,2|8
144,272,72073,5,2
256,224,72502,1,8
368,272,72930,1,4
256,192,86216,5,8
184,240,86645,2,0,B|152:208|160:152|184:136,2,100,4|8|2
256,304,87930,1,8
312,376,88359,1,2
256,304,88788,1,8
192,368,89216,1,2
256,304,89645,1,8
328,248,90073,6,0,B|360:216|352:160|328:144,2,100,2|8|2
256,192,91359,1,8
176,136,91788,1,2
208,48,92216,1,8
312,48,92645,1,2
344,136,93073,1,8
256,192,93502,6,0,B|272:240|240:240|264:304,2,100,4|8|2
176,208,94788,2,0,B|160:152|213:110,1,100,8|2
336,208,95645,2,0,B|352:152|298:110,1,100,8|2
256,40,96502,1,8
256,40,96930,2,0,B|144:88,1,100,2|8
152,168,97788,2,0,B|184:184|184:240|168:256|128:280,1,100,2|8
80,304,98645,6,0,B|80:368,1,50,2|2
8,384,99073,2,0,B|8:328,1,50,8|2
8,168,99930,1,8
8,168,100145,2,0,B|-23:136,2,25,8|8|4
112,112,100788,6,0,B|160:144|216:104,1,100,8|0
288,64,101645,1,8
352,144,102073,2,0,B|304:184|352:248,1,100,2|8
424,192,102930,1,0
424,192,103359,2,0,B|496:192,2,50,8|0|2
368,272,104216,1,8
304,197,104645,6,0,B|278:166|230:169|208:200,1,100,2|8
256,264,105502,2,0,B|256:368,2,100,2|8|0
312,184,106788,1,8
200,184,107216,1,4
256,104,107645,1,8
304,24,108073,6,0,B|352:48|344:112,1,100,2|8
432,136,108930,2,0,B|344:216,1,100,2|8
336,280,109788,2,0,B|296:280|272:240|280:208,1,100,2|8
256,120,110645,5,4
256,120,111073,1,8
304,40,111502,2,0,B|352:64|352:128,2,100,2|8|4
208,40,112788,2,0,B|160:64|160:128,1,100,8|2
256,120,113645,1,8
154,207,114073,6,0,B|215:169|309:217|386:287|225:358|162:287|187:209|318:163|362:213,1,400,4|4
400,296,116216,5,8
400,296,116430,1,8
272,368,116859,1,0
272,368,117073,1,8
232,280,117502,6,0,B|176:304|176:360,1,100,4|8
88,384,118359,1,2
24,312,118788,2,0,B|0:208,1,100,8|2
96,256,119645,1,8
88,168,120073,6,0,B|48:120|-8:128,2,100,4|8|4
184,216,121359,1,8
184,216,121573,1,0
184,216,121788,2,0,B|228:251|284:211,1,100,2|8
312,288,122645,2,0,B|368:272|384:200|368:144|296:136|296:136,1,200,2|0
224,96,123930,2,0,B|256:48,2,50,8|8|4
182,178,124788,6,0,B|134:146|134:90,1,100,8|2
64,32,125645,2,0,B|32:136,1,100,8|2
88,200,126502,1,8
24,272,126930,1,4
88,344,127359,2,0,B|136:312|192:352,1,100,8|4
256,280,128216,5,8
296,368,128645,2,0,B|352:344|352:280,1,100,2|8
310,201,129502,2,0,B|320:160|288:116|243:112|189:140|196:188|204:207,1,200,2|0
256,280,130788,2,0,B|272:304|232:320|256:376,1,100,8|4
336,336,131645,6,0,B|416:256,1,100,8|2
496,240,132502,1,8
432,176,132930,1,2
496,104,133359,2,0,B|496:48,2,50,8|0|2
432,176,134216,6,0,B|408:168|368:208|320:184,1,100,8|2
312,272,135073,2,0,B|256:256|240:184,1,100,8|0
240,112,135930,2,0,B|280:64,2,50,8|0|2
160,168,136788,1,8
184,264,137216,1,0
128,344,137645,2,0,B|32:280,1,100,8|4
0,192,138502,6,0,B|0:128|40:104,1,100,8|2
88,176,139359,1,8
88,176,139788,2,0,B|152:176|136:224|200:200,1,100,2|8
264,256,140645,1,2
264,152,141073,1,8
352,176,141502,6,0,B|384:136,2,50,2|2|8
416,232,142359,2,0,B|392:336,1,100,2|8
304,353,143216,2,0,B|256:321|208:352,3,100,2|8|2|8
256,192,144930,5,4
112,352,145788,6,0,B|128:296|192:272,1,100,2|0
200,368,146645,1,0
400,352,147502,6,0,B|384:296|320:272,1,100,2|0
312,368,148359,1,2
256,200,149216,6,0,B|248:160|280:144|248:88,2,100,2|0|0
210,311,150931,2,0,B|230:285|281:284|304:316,1,100,2|0
256,376,151788,1,2
112,272,152645,5,2
56,200,153073,1,0
112,272,153502,1,0
208,112,154359,5,2
304,112,154788,1,0
256,32,155216,5,2
256,192,156073,1,2
256,368,156931,1,2
208,296,157359,1,0
304,296,157788,1,2
352,368,158216,6,0,B|403:341|390:270,1,100,0|4
336,216,159073,1,0
424,200,159502,2,0,B|496:120,1,100,2|8
400,104,160359,2,0,B|352:72|304:104,2,100,2|2|0
352,176,161645,5,8
264,184,162073,2,0,B|272:248|328:264,1,100,2|0
400,304,162931,1,2
336,368,163359,1,8
256,320,163788,2,0,B|184:248,2,100,2|0|0
336,368,165073,1,8
400,304,165502,6,0,B|432:256|400:208,1,100,4|8
320,256,166359,2,0,B|288:208|320:160,1,100,2|8
400,128,167216,2,0,B|368:72|312:80,1,100,2|8
240,144,168073,1,2
240,144,168288,2,0,B|192:104,2,50,2|8|2
256,312,169359,6,0,B|200:336|144:320,1,100,8|2
96,256,170216,1,8
16,296,170645,2,0,B|72:392,2,100,2|8|2
16,176,171931,1,8
16,176,172145,1,8
16,176,172359,6,0,B|64:104|120:96,1,100,4|8
120,192,173216,1,2
176,120,173645,2,0,B|152:32,2,50,8|0|2
272,176,174502,6,0,B|304:224|272:288|256:288,1,100,8|4
200,224,175359,1,8
200,224,175788,1,4
200,328,176216,1,8
200,328,176431,6,0,B|232:368|298:379|344:312,1,150,2|8
432,360,177502,2,0,B|496:328|504:232|424:200,1,200,2|0
328,224,178788,2,0,B|296:264,2,50,8|8|4
384,144,179645,5,8
344,64,180073,2,0,B|296:88|296:168,1,100,2|8
232,216,180931,2,0,B|192:104,2,100,2|8|4
280,304,182216,1,8
216,368,182645,1,4
176,280,183073,6,0,B|132:311|123:378,1,100,8|2
56,304,183931,1,8
88,224,184359,2,0,B|32:208|-16:248,2,100,2|8|0
168,168,185645,2,0,B|208:120,1,50,8|8
256,184,186073,6,0,B|304:216|296:288,1,100,4|8
200,264,186931,1,2
256,336,187359,2,0,B|288:384,2,50,8|0|2
168,360,188216,1,8
120,280,188645,6,0,B|72:320|80:368,2,100,4|8|4
216,296,189931,1,8
216,296,190145,1,0
216,296,190359,2,0,B|208:224|160:192,1,100,2|8
88,216,191216,2,0,B|32:200|16:152|24:80|96:72,1,200,2|0
184,144,192502,6,0,B|128:144,2,50,8|8|4
288,120,193359,2,0,B|256:240,1,100,8|2
208,296,194216,1,8
168,216,194645,2,0,B|112:256|120:320,1,100,2|8
208,296,195502,2,0,B|256:320|312:296,2,100,4|8|4
256,224,196788,6,0,B|384:192,1,100,8|2
416,264,197645,1,8
456,184,198073,2,0,B|496:200|528:248|512:312|456:344,1,200,2|0
360,348,199359,1,8
296,272,199788,6,0,B|360:208|360:208|432:128|352:24|272:80|272:80|256:107|240:80|240:80|160:24|80:128|152:208|152:208|216:272,1,700,4|0
256,380,203216,1,2
