osu file format v9

[General]
AudioFilename: Mimu - Kimi ijou, Boku miman.mp3
AudioLeadIn: 0
PreviewTime: 57714
Countdown: 0
SampleSet: Soft
StackLeniency: 0.3
Mode: 0
LetterboxInBreaks: 0

[Editor]
Bookmarks: 28781,42066,52359,59209,66073,72931,86224,93502,100359,107216,117502,124359,131216,138073,144931,158645,165502,172359,179216,186073
DistanceSpacing: 1.1
BeatDivisor: 4
GridSize: 4

[Metadata]
Title:Kimi ijou, Boku miman
Artist:Mimu
Creator:Fuuko
Version:Choosuki!!!
Source:DECO*27
Tags:VOCALOID Cover Hatsune Miku More Than You Less Than Me Garven Sanjenin Nagi -U

[Difficulty]
HPDrainRate:6
CircleSize:4
OverallDifficulty:7
ApproachRate:7
SliderMultiplier:1.4
SliderTickRate:1

[Events]
//Background and Video events
0,0,"Background.jpg"
//Break Periods
2,75273,85316
//Storyboard Layer 0 (Background)
//Storyboard Layer 1 (Fail)
//Storyboard Layer 2 (Pass)
//Storyboard Layer 3 (Foreground)
Sprite,Foreground,Centre,"SB\Fuuko.png",275,138 F,0,9502,9702,0,1 S,0,9702,12502,0.9 F,0,12502,12702,1,0
//Storyboard Sound Samples
//Background Colour Transformations
3,100,255,255,255

[TimingPoints]
931,428.571428571429,4,2,1,40,1,0
21403,-100,4,2,1,15,0,0
21617,-100,4,2,1,35,0,0
49038,-100,4,2,1,39,0,0
56109,-100,4,1,2,35,0,0
56323,-100,4,2,1,39,0,0
57403,-100,4,2,1,20,0,0
57617,-100,4,2,0,35,0,0
59109,-100,4,2,1,45,0,0
59209,-100,4,2,1,45,0,1
62538,-100,4,2,1,35,0,1
62752,-100,4,2,1,45,0,1
66065,-100,4,2,1,45,0,0
66066,-100,4,2,1,45,0,1
72924,-100,4,2,1,35,0,0
72940,-100,4,2,1,35,0,1
75073,-100,4,2,1,35,0,0
100895,-100,4,2,1,40,0,0
113966,-142.857142857143,4,2,1,40,0,0
114395,-142.857142857143,4,1,2,25,0,0
114609,-142.857142857143,4,2,1,40,0,0
115252,-142.857142857143,4,1,2,25,0,0
115466,-142.857142857143,4,2,1,40,0,0
115681,-100,4,2,1,15,0,0
116002,-100,4,2,0,30,0,0
117395,-100,4,2,1,40,0,0
117502,-100,4,2,1,40,0,1
120823,-100,4,2,1,30,0,1
121038,-100,4,2,1,40,0,1
124359,-100,4,2,1,40,0,0
124360,-100,4,2,1,40,0,1
126823,-100,4,2,1,30,0,1
127038,-100,4,2,1,40,0,1
131216,-100,4,2,1,40,0,0
131217,-100,4,2,1,40,0,1
131218,-100,4,2,1,40,0,0
138073,-100,4,2,1,40,0,1
138074,-100,4,2,1,40,0,0
144823,-100,4,2,1,25,0,0
146538,-100,4,2,1,5,0,0
146752,-100,4,2,1,25,0,0
153395,-100,4,2,1,5,0,0
153609,-100,4,2,1,25,0,0
158538,-100,4,2,1,40,0,0
171609,-100,4,2,1,50,0,0
172359,-100,4,2,1,50,0,1
174823,-100,4,2,1,35,0,1
175038,-100,4,2,1,50,0,1
175681,-100,4,2,1,40,0,1
175895,-100,4,2,1,50,0,1
179216,-100,4,2,1,50,0,0
179217,-100,4,2,1,50,0,1
186073,-100,4,2,1,50,0,0
186074,-100,4,2,1,50,0,1
188538,-100,4,2,1,40,0,1
188752,-100,4,2,1,50,0,1
189395,-100,4,2,1,40,0,1
189609,-100,4,2,1,50,0,1
192931,-100,4,2,1,50,0,0
192932,-100,4,2,1,50,0,1
199788,-100,4,2,1,50,0,0
199789,-100,4,2,1,50,0,1
199790,-100,4,2,1,50,0,0
202573,-100,4,2,1,40,0,0

[Colours]
Combo1 : 255,159,255
Combo2 : 255,140,85

[HitObjects]
256,192,14645,1,4
320,328,15073,2,0,B|248:392|176:312,1,140,2|0
320,240,15931,1,0
256,280,16145,1,2
192,240,16359,1,0
320,56,16788,6,0,B|248:-8|176:72,1,140,2|0
320,144,17646,1,0
256,104,17860,1,2
192,144,18074,1,0
336,240,18502,6,0,B|336:288|336:288|336:312|360:336|408:336|416:296,1,140,2|0
504,192,19359,1,0
456,256,19573,1,2
408,192,19788,1,0
176,240,20216,6,0,B|176:288|176:288|176:312|152:336|104:336|96:296,1,140,2|0
8,192,21073,1,0
56,256,21287,1,2
104,192,21502,1,4
312,192,21931,5,2
404,132,22359,2,0,B|452:156|452:228|404:252,1,140
388,320,23002,1,2
336,264,23216,1,0
200,192,23645,5,2
108,132,24073,2,0,B|60:156|60:228|108:252,1,140
124,320,24716,1,2
176,264,24930,1,0
384,312,25359,6,0,B|432:312|416:232|456:232|496:240,2,140,2|0|0
312,256,26431,1,2
312,256,26645,1,0
128,312,27073,6,0,B|80:312|96:232|56:232|16:240,2,140,2|0|0
200,256,28145,1,2
200,256,28359,1,4
176,64,28788,5,2
336,64,29216,1,0
208,144,29645,1,8
256,80,29859,1,2
304,144,30073,1,0
164,296,30502,6,0,B|172:344|228:344,1,70,2|0
304,344,30931,2,0,B|352:344|360:288,1,70,0|0
304,224,31359,1,8
256,288,31573,1,2
208,224,31787,1,0
208,24,32216,5,2
208,24,32431,1,0
304,24,32645,2,0,B|376:80,1,70
320,152,33073,1,8
256,104,33287,1,2
200,152,33501,1,0
176,320,33931,5,2
256,376,34145,1,0
336,320,34359,1,0
256,232,34573,1,0
256,232,34788,2,0,B|256:312,2,70,8|0|4
296,80,35645,6,0,B|320:64|320:128|416:64,1,70,2|0
216,80,36073,2,0,B|192:64|192:128|96:64,1,70
256,144,36502,1,8
256,144,36716,1,2
256,144,36931,1,0
296,304,37359,6,0,B|320:320|320:256|416:320,1,70,2|0
216,304,37787,2,0,B|192:320|192:256|96:320,1,70
256,240,38216,1,8
256,240,38645,5,4
184,144,39073,1,0
184,144,39288,1,4
328,144,39716,1,0
328,144,39931,1,4
328,144,40145,2,0,B|400:160|400:280|328:312,1,210,0|2
256,376,41216,5,8
176,288,41538,1,8
256,192,41859,1,8
256,192,42073,6,0,B|184:144|208:112,1,70,4|0
168,72,42502,1,8
168,72,42716,1,8
80,168,43145,2,0,B|32:240|96:304,1,140,2|8
208,232,44002,5,2
136,232,44216,1,0
208,232,44431,2,0,B|264:232|288:184,1,70,0|2
376,136,45073,1,0
432,88,45288,1,8
488,136,45502,1,2
488,264,45716,6,0,B|488:326|436:338,1,70,0|8
392,368,46145,1,8
400,288,46359,2,0,B|376:240|296:240|280:304,1,140,2|0
248,352,47002,1,8
192,288,47216,2,0,B|144:277|144:197|192:173,2,140,2|0|2
352,232,48502,1,0
304,288,48716,1,8
256,232,48931,1,4
136,160,49145,6,0,B|72:216,1,70,2|8
32,256,49573,1,8
96,304,49788,2,0,B|104:256|157:244|208:272|192:320,1,140,2|0
256,360,50431,1,8
312,304,50645,2,0,B|320:256|368:248|424:272|408:320,1,140,2|0
464,360,51288,2,0,B|480:320|512:328|512:328|472:256|464:232,1,140,2|0
440,192,51931,1,8
440,192,52145,1,8
376,112,52359,6,0,B|336:120|336:168|400:216|272:208|272:200,1,140,4|8
224,232,53002,1,0
176,288,53216,2,0,B|128:272|128:184|192:168,1,140,2|8
240,136,53859,1,0
240,136,54073,2,0,B|224:96|192:104|192:104|232:32|240:8,1,140,2|8
293,80,54716,1,0
293,80,54931,2,0,B|341:96|341:184|277:200,1,140,2|8
148,232,55788,2,0,B|103:362|247:418|407:370|367:226,1,420,2|8
256,152,57502,5,4
388,64,57930,5,8
480,64,58145,1,8
488,264,58573,1,2
432,208,58788,1,8
376,264,59002,1,0
312,336,59216,6,0,B|296:280|200:288|208:360,1,140,4|8
144,384,59859,1,0
64,352,60073,2,0,B|16:352|-8:312,1,70,2|0
0,248,60502,2,0,B|0:160,1,70,8|0
72,216,60931,2,0,B|72:296,2,70,2|0|8
184,88,61788,5,4
328,88,62216,1,8
256,192,62645,1,4
328,160,62859,2,0,B|352:192|328:232,1,70,0|8
272,272,63288,1,2
256,192,63502,2,0,B|184:184|232:240|112:216|112:216,1,135,2|8
64,264,64145,1,0
8,200,64359,6,0,B|8:128,1,70,2|0
80,80,64788,1,8
144,136,65002,1,0
80,184,65216,1,0
152,224,65431,2,0,B|136:304,1,70,2|8
192,360,65859,1,8
200,344,65966,1,8
208,328,66073,6,0,B|248:336|288:296,1,70,4|0
224,256,66502,2,0,B|248:224|312:240,1,70,8|0
344,288,66931,2,0,B|384:208,1,70,2|0
448,192,67359,2,0,B|448:264,1,70,8|0
392,144,67788,2,0,B|408:96|496:96|512:160,2,140,2|8|4
224,152,69073,6,0,B|144:152,1,70,8|0
112,224,69502,2,0,B|208:224,1,70,4|0
256,224,69931,1,8
312,168,70145,2,0,B|358:189|353:276|288:288,1,140,2|2
256,224,70788,1,8
256,224,71002,1,0
200,168,71216,2,0,B|153:189|158:276|224:288,1,140,2|8
112,312,72073,5,2
256,104,72502,1,8
400,312,72931,1,4
256,192,73145,12,8,75073
16,192,86216,5,8
16,104,86431,1,0
32,96,86538,1,8
48,88,86645,2,0,B|136:88|72:136|232:112|232:112,1,140,4|8
256,136,87288,2,0,B|312:192,1,70,0|2
433,294,87930,6,0,B|433:358|365:356|365:356,1,70,8|0
363,288,88359,2,0,B|323:296|324:264|268:274|268:274,1,70,2|0
216,276,88788,2,0,B|184:272|177:300|121:290|121:290,1,70,8|0
80,296,89216,2,0,B|80:360|148:358|148:358,2,70,2|0|8
112,224,89859,1,0
112,224,90073,2,0,B|208:240|152:144|240:152,1,140,2|8
272,96,90716,2,0,B|304:168,1,70,0|2
216,344,91359,6,0,C|176:280,1,70,8|0
296,344,91788,2,0,C|336:280,1,70,2|0
144,224,92216,2,0,C|96:136,1,70,8|0
368,224,92645,2,0,C|416:136,2,70,2|0|8
312,160,93288,1,0
264,104,93502,2,0,B|240:112|224:128|215:169|232:200|248:216|280:216,1,140,6|8
312,272,94145,2,0,B|272:328,1,70,0|2
120,336,94788,6,0,B|120:256,1,70,8|0
48,336,95216,2,0,B|48:256,1,70,2|0
88,192,95645,1,8
48,48,96073,2,0,B|48:118,1,70,2|0
120,48,96501,2,0,B|120:118,1,70,8|0
208,136,96931,6,0,B|194:140|170:156|161:179|170:220|186:236|210:244,1,140,2|8
256,192,97573,1,0
304,136,97788,2,0,B|327:143|345:155|352:200|343:223|319:239|305:243,1,140,2|8
256,80,98645,1,2
200,16,98859,1,2
312,16,99073,1,8
256,80,99288,1,2
256,192,99930,5,8
323,124,100145,1,8
336,112,100252,1,8
349,100,100359,2,0,B|424:127|364:173|488:184,1,140,4|8
512,232,101002,2,0,B|464:264|464:328|520:360,1,140,2|0
432,376,101645,1,8
392,312,101859,1,0
392,312,102073,2,0,B|344:296|296:312|320:360|312:336|312:336|264:328,1,140,2|8
224,384,102716,2,0,B|210:380|186:364|177:341|184:296|202:284|226:276,1,140,2|0
256,208,103359,5,8
200,136,103573,1,0
312,136,103788,1,2
256,320,104216,1,8
72,360,104645,6,0,B|80:280,1,70,2|0
13,248,105073,2,0,B|6:319,1,70,8|0
83,221,105502,2,0,B|88:152,1,70,2|0
21,105,105931,2,0,B|16:180,1,70,8|0
96,81,106359,2,0,B|125:36|194:37|224:89,1,140,2|8
256,184,107216,1,4
312,320,107645,5,8
256,264,107859,1,0
200,320,108073,1,2
256,368,108288,1,0
200,320,108502,2,0,B|160:331|144:288|128:304,1,70,8|0
96,240,108931,2,0,B|104:184|192:176|200:248,1,140,2|8
256,180,109573,1,0
300,240,109788,2,0,B|344:222|358:148|297:120,1,140,2|8
256,32,110645,5,4
256,32,111073,1,8
152,104,111502,2,0,B|104:120|152:136|128:208|80:208,1,140,2|8
24,264,112145,1,0
64,336,112359,2,0,B|88:288|160:288|188:342,1,140,4|8
256,368,113002,1,0
328,336,113216,2,0,B|344:352|373:356|397:332|397:308|397:308|397:260,1,140,2|8
336,208,113859,1,0
256,240,114073,6,0,B|144:273|79:195|88:72|172:17|269:71,1,391.999990653992,4|4
388,64,116216,5,8
480,64,116431,1,8
480,264,116859,1,2
432,208,117074,1,8
384,264,117288,1,0
312,352,117502,6,0,B|248:360|272:288|160:312|160:312,1,140,4|8
112,280,118145,1,0
56,336,118359,1,2
160,224,118788,2,0,B|224:160,1,70,8|0
244,243,119217,2,0,B|272:302|377:280|351:204,1,140,2|8
352,96,120074,5,4
160,96,120502,1,8
256,192,120931,2,0,B|256:264,1,70,4|0
216,328,121359,1,8
296,328,121574,1,2
328,248,121788,6,0,B|400:240|352:296|472:272|472:272,1,135,2|8
432,200,122431,1,0
504,160,122645,2,0,B|523:124|501:87,1,70,2|0
432,56,123074,1,8
376,120,123288,1,0
320,64,123502,1,0
232,56,123716,6,0,B|192:112,1,70,2|8
224,176,124145,1,8
216,184,124252,1,8
208,192,124359,2,0,B|120:200|120:112|56:136,1,140,4|8
16,96,125002,1,0
0,176,125216,2,0,B|32:231|84:206,1,70,2|0
120,256,125645,6,0,B|152:288|112:336,1,70,8|0
48,320,126073,2,0,B|56:376|96:384,1,70,2|0
160,384,126502,2,0,B|204:360|197:313,1,70,8|0
256,264,126931,2,0,B|293:286|304:360|252:388,2,140,4|8|4
256,128,128216,5,8
304,72,128431,2,0,B|344:96|336:184|280:168|368:184,1,140,2|2
429,178,129073,1,8
502,176,129288,1,0
256,192,129502,12,2,130788
200,344,131216,6,0,B|128:288,1,70,4|0
88,248,131645,1,8
32,304,131859,1,0
88,248,132073,2,0,B|136:192,1,70,2|0
192,136,132502,1,8
136,80,132716,1,0
192,136,132931,2,0,B|248:192,1,70,2|0
296,240,133359,1,8
248,304,133573,1,0
328,336,133788,6,0,B|376:336|408:296,1,70,2|0
432,256,134216,2,0,B|432:168,1,70,8|0
400,112,134645,1,2
344,168,134859,1,0
288,112,135073,1,8
240,176,135288,2,0,B|191:134|210:87,1,70,0|0
216,40,135716,6,0,B|168:32|128:80,1,70,2|8
104,120,136145,2,0,B|136:136|152:192|136:224|96:248,1,140,2|0
56,184,136788,1,8
8,248,137002,1,0
56,312,137216,1,0
128,360,137431,6,0,B|176:368|216:320,1,70,2|8
248,280,137859,1,0
296,344,138073,2,0,B|328:328|344:272|328:240|288:216,1,140,4|8
248,168,138716,1,0
192,224,138930,2,0,B|162:205|150:148|168:118|209:96,1,140,2|8
256,56,139573,2,0,B|305:55|337:109,1,70,0|2
360,296,140216,6,0,B|304:240,1,70,8|0
152,296,140645,2,0,B|208:240,1,70,2|0
152,88,141073,2,0,B|208:144,1,70,8|0
360,88,141502,2,0,B|304:144,1,70,2|2
256,288,141931,6,0,B|256:360,1,70,8|0
160,192,142359,2,0,B|88:192,1,70,2|0
256,96,142788,2,0,B|256:24,1,70,8|0
352,192,143216,2,0,B|424:192,1,70,2|0
336,112,143645,5,8
176,112,143859,1,0
176,272,144073,1,2
336,272,144288,1,0
256,192,144502,1,8
256,192,144716,1,8
256,328,144931,5,6
408,256,145788,5,2
424,352,146216,1,0
504,288,146645,1,0
368,192,147502,1,2
312,112,147931,5,0
256,192,148359,1,2
160,272,149216,5,2
104,344,149644,1,0
48,272,150073,1,0
200,128,150931,5,2
312,128,151359,1,0
256,56,151788,1,2
400,192,152645,5,2
512,192,153073,1,0
456,272,153502,1,0
200,280,154359,5,2
312,280,154787,1,0
256,352,155216,5,2
256,192,156073,1,0
256,40,156931,1,2
104,296,157359,1,0
408,296,157788,1,2
472,176,158216,5,0
448,104,158431,1,0
368,104,158645,2,0,B|344:104|328:144|352:176|240:168,1,140,4|0
104,200,159502,1,2
32,168,159716,1,0
96,120,159931,1,8
200,256,160359,2,0,B|224:296|304:304|328:240,2,140,2|2|0
256,168,161645,5,0
324,141,161860,1,0
366,202,162073,2,0,B|406:226|398:314|342:298|430:314,1,140,2|0
488,288,162716,1,0
496,208,162931,2,0,B|496:128,1,70,2|0
416,160,163359,2,0,B|416:72,1,70,8|0
338,72,163788,2,0,B|341:120|330:159|244:225|170:137|160:118|176:54,1,280,2|0
256,8,165073,1,8
256,368,165502,5,4
232,232,165931,1,8
168,280,166145,2,0,B|96:328|32:272,1,140,2|0
24,200,166788,1,8
88,160,167002,1,0
104,232,167216,2,0,B|144:224|168:176,1,70,2|0
224,232,167645,2,0,B|259:182|213:117|166:116,1,140,8|2
112,80,168288,2,0,B|40:40,2,70,2|8|2
336,104,169145,6,0,B|432:104,2,70,2|8|0
272,64,169788,2,0,B|236:113|282:178|329:179,1,140,2|8
384,224,170431,1,0
376,304,170645,2,0,B|335:300|307:251,1,70,2|0
240,248,171073,2,0,L|250:326,1,70,8|0
176,344,171502,1,2
136,272,171716,2,0,B|80:328,1,70,0|8
16,280,172145,1,8
16,264,172252,1,8
16,248,172359,6,0,B|16:112|16:96,1,140,4|8
64,40,173002,1,0
96,112,173216,2,0,B|96:192,1,70,2|0
152,240,173645,2,0,B|200:248|224:200,1,70,8|0
196,146,174074,2,0,B|262:120|320:205|266:241,1,140,2|8
344,312,174931,5,4
168,312,175359,1,8
256,192,175788,1,4
312,136,176002,2,0,B|344:168|328:208,1,70,0|8
288,264,176431,1,2
344,312,176645,2,0,B|376:352|456:352|480:296,1,140,2|8
408,264,177288,1,0
408,264,177502,6,0,B|408:192,1,70,2|0
472,152,177931,1,8
408,104,178145,1,0
352,152,178359,1,0
296,104,178574,2,0,B|328:40,2,70,2|8|8
288,120,179109,1,8
280,136,179216,6,0,B|232:128|216:80,1,70,4|0
160,48,179645,2,0,B|96:96,1,70,8|0
160,136,180073,2,0,B|96:184,1,70,2|0
32,192,180502,2,0,B|32:240|96:256,1,70,8|0
144,240,180931,2,0,B|176:192|243:198|272:256,2,140,2|8|4
208,320,182216,6,0,B|272:376,1,70,8|0
304,296,182645,1,4
352,368,182859,1,0
400,296,183074,1,8
456,352,183288,2,0,B|502:331|497:244|432:232,1,140,2|2
392,184,183931,1,8
344,240,184145,1,0
288,184,184359,2,0,B|270:232|183:233|166:168,1,140,2|8
232,64,185216,5,0
160,112,185431,1,2
96,64,185645,1,8
32,120,185859,1,8
32,136,185966,1,8
32,152,186073,6,0,B|32:240,1,70,4|0
32,296,186502,1,8
96,352,186716,1,0
104,272,186931,2,0,B|152:272|168:320,1,70,2|0
216,360,187359,2,0,B|276:309,1,70,8|0
344,344,187788,2,0,B|382:404|479:371|451:305,1,140,2|8
392,256,188645,5,4
120,256,189073,1,8
256,56,189502,2,0,L|256:126,1,70,4|0
208,192,189931,1,8
304,192,190145,1,2
344,120,190359,6,0,B|416:112|368:168|488:144|488:144,1,135,2|8
512,216,191002,1,0
432,248,191216,2,0,B|408:288|432:320,1,70,2|0
504,288,191645,1,8
496,360,191859,1,0
416,384,192073,1,0
352,320,192287,5,2
296,256,192501,1,8
248,328,192716,1,8
240,344,192823,1,8
232,360,192930,2,0,B|144:368|152:288|80:320,1,140,4|8
32,344,193573,1,0
0,272,193788,2,0,B|-15:228|13:201,1,70,2|0
80,240,194216,6,0,B|136:168,1,70,8|0
56,152,194644,2,0,B|79:115|129:109,1,70,2|0
179,231,195073,2,0,B|208:217|200:168,1,70,8|0
184,96,195502,2,0,B|200:56|240:48|280:56|296:104,2,140,4|8|4
280,200,196787,5,8
336,152,197002,2,0,B|360:107|408:104|453:132|456:168,1,140,2|2
504,208,197645,2,0,L|440:272,1,70,8|0
392,200,198073,2,0,B|352:216|344:256|352:296|400:312,2,140,2|8|0
256,192,199359,5,2
256,192,199788,1,4
256,192,200002,12,0,202359
256,192,202788,5,0
256,192,203002,1,2
