osu file format v12

[General]
AudioFilename: Univer Page.mp3
AudioLeadIn: 0
PreviewTime: 51824
Countdown: 0
SampleSet: Soft
StackLeniency: 0.7
Mode: 3
LetterboxInBreaks: 0
SpecialStyle: 0
WidescreenStoryboard: 1

[Editor]
DistanceSpacing: 0.3
BeatDivisor: 4
GridSize: 4

[Metadata]
Title:Univer Page (TV Size)
TitleUnicode:ユニバーページ (TV Size)
Artist:Mimori Suzuko
ArtistUnicode:三森すずこ
Creator:victorica_db
Version:4K NM
Source:Outbreak Company
Tags:アウトブレイク・カンパニー opening richardfeder -_r_u_m_i_a_-
BeatmapID:323955
BeatmapSetID:127789

[Difficulty]
HPDrainRate:7
CircleSize:4
OverallDifficulty:7
ApproachRate:5
SliderMultiplier:1.4
SliderTickRate:1

[Events]
//Background and Video events
Video,0,"Outbreak Company Op.avi"
0,0,"Outbreak-Company.png",0,0
//Break Periods
//Storyboard Layer 0 (Background)
//Storyboard Layer 1 (Fail)
//Storyboard Layer 2 (Pass)
//Storyboard Layer 3 (Foreground)
//Storyboard Sound Samples
//Background Colour Transformations
3,100,163,162,255

[TimingPoints]
488,315.789473684211,4,2,2,30,1,0
2856,397.350993377483,4,2,2,30,1,0
3054,320.855614973262,4,2,2,49,1,0
51824,-100,4,2,2,45,0,1
71075,-100,4,2,2,45,0,0

[HitObjects]
64,192,487,1,0,0:0:0:0:
320,192,645,1,0,0:0:0:0:
448,192,803,1,0,0:0:0:0:
64,192,961,1,0,0:0:0:0:
320,192,1093,1,0,0:0:0:0:
448,192,1251,1,0,0:0:0:0:
192,192,1435,1,0,0:0:0:0:
448,192,1592,1,0,0:0:0:0:
64,192,1750,1,0,0:0:0:0:
192,192,1908,1,0,0:0:0:0:
448,192,2066,1,0,0:0:0:0:
64,192,2224,1,0,0:0:0:0:
192,192,2382,1,0,0:0:0:0:
448,192,2540,1,0,0:0:0:0:
64,192,2698,1,0,0:0:0:0:
320,192,2856,1,0,0:0:0:0:
192,192,3054,1,0,0:0:0:0:
320,192,3374,1,0,0:0:0:0:
448,192,3374,1,0,0:0:0:55:snare.wav
64,192,3695,1,0,0:0:0:0:
192,192,3856,1,0,0:0:0:0:
320,192,4016,1,0,0:0:0:0:
448,192,4016,1,0,0:0:0:55:snare.wav
192,192,4337,128,0,4658:0:0:0:0:
320,192,4658,128,0,4818:0:0:0:0:
448,192,4818,128,0,4979:0:0:0:0:
192,192,5139,128,0,5460:0:0:0:0:
64,192,5620,128,0,5941:0:0:0:0:
192,192,5941,128,0,6262:0:0:0:0:
320,192,6262,128,0,6583:0:0:0:0:
192,192,6583,1,0,0:0:0:0:
192,192,6904,128,0,7225:0:0:0:0:
320,192,7225,1,0,0:0:0:0:
64,192,7385,1,0,0:0:0:0:
320,192,7706,128,0,8187:0:0:0:0:
64,192,8187,128,0,8829:0:0:0:0:
320,192,8829,128,0,9471:0:0:0:0:
192,192,9471,128,0,10754:0:0:0:0:
320,192,10754,1,0,0:0:0:0:
192,192,11075,1,0,0:0:0:0:
64,192,11396,1,0,0:0:0:0:
192,192,12037,1,0,0:0:0:0:
448,192,12037,1,0,0:0:0:0:
64,192,12358,1,0,0:0:0:0:
320,192,12679,128,0,13321:0:0:0:0:
192,192,13321,1,0,0:0:0:0:
320,192,13642,1,0,0:0:0:0:
448,192,13642,1,0,0:0:0:55:snare.wav
64,192,13963,1,0,0:0:0:0:
192,192,14123,1,0,0:0:0:0:
320,192,14283,1,0,0:0:0:0:
448,192,14283,1,0,0:0:0:55:snare.wav
192,192,14604,1,0,0:0:0:0:
192,192,14925,1,0,0:0:0:0:
448,192,14925,1,0,0:0:0:55:snare.wav
448,192,15246,1,0,0:0:0:0:
320,192,15406,1,0,0:0:0:0:
192,192,15567,1,0,0:0:0:55:snare.wav
64,192,15567,1,0,0:0:0:0:
448,192,15888,1,0,0:0:0:0:
320,192,16209,1,0,0:0:0:55:snare.wav
64,192,16209,1,0,0:0:0:0:
320,192,16529,1,0,0:0:0:0:
192,192,16850,1,0,0:0:0:55:snare.wav
320,192,17171,1,0,0:0:0:0:
64,192,17492,1,0,0:0:0:0:
448,192,17652,1,0,0:0:0:0:
64,192,18134,1,0,0:0:0:0:
320,192,18134,1,0,0:0:0:0:
192,192,18455,1,0,0:0:0:0:
448,192,18455,1,0,0:0:0:0:
64,192,18775,1,0,0:0:0:0:
320,192,18775,1,0,0:0:0:55:snare.wav
192,192,19096,1,0,0:0:0:0:
320,192,19257,1,0,0:0:0:0:
192,192,19417,1,0,0:0:0:0:
448,192,19417,1,0,0:0:0:55:snare.wav
320,192,19738,1,0,0:0:0:0:
192,192,20059,1,0,0:0:0:55:snare.wav
64,192,20059,1,0,0:0:0:0:
448,192,20380,1,0,0:0:0:0:
320,192,20540,1,0,0:0:0:0:
192,192,20701,1,0,0:0:0:55:snare.wav
64,192,20701,1,0,0:0:0:0:
448,192,21021,1,0,0:0:0:0:
192,192,21342,1,0,0:0:0:0:
320,192,21342,1,0,0:0:0:55:snare.wav
192,192,21663,1,0,0:0:0:50:FLS Crash 01a.wav
448,192,21984,1,0,0:0:0:0:
192,192,22305,1,0,0:0:0:0:
64,192,22626,1,0,0:0:0:0:
448,192,22786,1,0,0:0:0:0:
64,192,23267,1,0,0:0:0:0:
320,192,23428,1,0,0:0:0:0:
192,192,23588,1,0,0:0:0:0:
448,192,23588,1,0,0:0:0:0:
64,192,23909,1,0,0:0:0:0:
320,192,23909,1,0,0:0:0:55:snare.wav
192,192,24230,1,0,0:0:0:0:
320,192,24390,1,0,0:0:0:0:
64,192,24551,1,0,0:0:0:0:
448,192,24551,1,0,0:0:0:55:snare.wav
320,192,24872,1,0,0:0:0:0:
192,192,25193,1,0,0:0:0:55:snare.wav
64,192,25193,1,0,0:0:0:0:
320,192,25513,1,0,0:0:0:0:
192,192,25674,1,0,0:0:0:0:
320,192,25834,1,0,0:0:0:55:snare.wav
448,192,25834,1,0,0:0:0:0:
64,192,26155,1,0,0:0:0:0:
320,192,26476,1,0,0:0:0:0:
448,192,26476,1,0,0:0:0:55:snare.wav
448,192,26797,1,0,0:0:0:0:
320,192,26957,1,0,0:0:0:0:
192,192,27118,1,0,0:0:0:0:
64,192,27118,1,0,0:0:0:55:snare.wav
320,192,27439,1,0,0:0:0:0:
192,192,27759,1,0,0:0:0:0:
448,192,27920,1,0,0:0:0:0:
64,192,28241,128,0,28722:0:0:0:0:
320,192,28722,1,0,0:0:0:0:
192,192,29043,1,0,0:0:0:0:
448,192,29043,1,0,0:0:0:55:snare.wav
448,192,29364,1,0,0:0:0:0:
320,192,29524,1,0,0:0:0:0:
192,192,29685,1,0,0:0:0:55:snare.wav
64,192,29685,1,0,0:0:0:0:
320,192,30005,1,0,0:0:0:0:
64,192,30005,1,0,0:0:0:0:
192,192,30326,1,0,0:0:0:0:
448,192,30326,1,0,0:0:0:55:snare.wav
64,192,30647,1,0,0:0:0:0:
192,192,30808,1,0,0:0:0:0:
320,192,30968,1,0,0:0:0:0:
448,192,30968,1,0,0:0:0:55:snare.wav
64,192,31289,128,0,31931:0:0:0:0:
320,192,31931,128,0,32572:0:0:0:0:
448,192,32572,128,0,33856:0:0:0:0:
64,192,33856,1,0,0:0:0:0:
320,192,34176,1,0,0:0:0:0:
192,192,34497,1,0,0:0:0:0:
320,192,34818,1,0,0:0:0:0:
64,192,35139,1,0,0:0:0:0:
448,192,35139,1,0,0:0:0:0:
320,192,35620,1,0,0:0:0:0:
64,192,35781,1,0,0:0:0:0:
192,192,35781,1,0,0:0:0:0:
64,192,36422,1,0,0:0:0:0:
320,192,36743,1,0,0:0:0:0:
192,192,37064,1,0,0:0:0:0:
448,192,37385,1,0,0:0:0:0:
64,192,37706,1,0,0:0:0:0:
448,192,37706,1,0,0:0:0:0:
320,192,38187,1,0,0:0:0:0:
64,192,38348,1,0,0:0:0:0:
192,192,38348,1,0,0:0:0:0:
64,192,38989,1,0,0:0:0:0:
320,192,38989,1,0,0:0:0:0:
448,192,39310,1,0,0:0:0:0:
64,192,39631,1,0,0:0:0:0:
320,192,39952,1,0,0:0:0:0:
64,192,40273,1,0,0:0:0:0:
192,192,40273,1,0,0:0:0:0:
192,192,40754,1,0,0:0:0:0:
320,192,40914,1,0,0:0:0:0:
448,192,40914,1,0,0:0:0:0:
64,192,41235,1,0,0:0:0:0:
320,192,41396,1,0,0:0:0:0:
448,192,41396,128,0,41877:0:0:0:0:
64,192,41877,1,0,0:0:0:0:
64,192,42198,1,0,0:0:0:0:
192,192,42519,1,0,0:0:0:0:
448,192,42679,128,0,43481:0:0:0:0:
64,192,43160,1,0,0:0:0:0:
64,192,43481,1,0,0:0:0:0:
320,192,43802,1,0,0:0:0:0:
64,192,44123,1,0,0:0:0:0:
320,192,44444,1,0,0:0:0:0:
448,192,44444,1,0,0:0:0:55:snare.wav
64,192,44765,1,0,0:0:0:0:
448,192,45086,1,0,0:0:0:55:snare.wav
320,192,45086,1,0,0:0:0:0:
64,192,45246,128,0,46048:0:0:0:0:
448,192,46048,128,0,49257:0:0:0:0:
320,192,46048,1,0,0:0:0:0:
64,192,46369,1,0,0:0:0:0:
320,192,46690,1,0,0:0:0:0:
192,192,47011,1,0,0:0:0:0:
320,192,47332,1,0,0:0:0:0:
64,192,47652,1,0,0:0:0:0:
320,192,47973,1,0,0:0:0:0:
192,192,48294,1,0,0:0:0:0:
64,192,48615,1,0,0:0:0:0:
192,192,48936,1,0,0:0:0:0:
64,192,49257,1,0,0:0:0:0:
64,192,49417,1,0,0:0:0:0:
320,192,49578,1,0,0:0:0:0:
320,192,49738,1,0,0:0:0:0:
448,192,49898,1,0,0:0:0:0:
448,192,50059,1,0,0:0:0:0:
192,192,50219,1,0,0:0:0:0:
192,192,50380,1,0,0:0:0:0:
320,192,50701,1,0,0:0:0:0:
448,192,50701,1,0,0:0:0:0:
320,192,51021,1,0,0:0:0:0:
448,192,51021,1,0,0:0:0:0:
64,192,51342,128,0,51824:0:0:0:0:
192,192,51342,128,0,51824:0:0:0:0:
448,192,51824,1,0,0:0:0:0:
64,192,52144,1,0,0:0:0:0:
192,192,52144,1,0,0:0:0:55:snare.wav
448,192,52465,1,0,0:0:0:0:
320,192,52626,1,0,0:0:0:0:
64,192,52786,1,0,0:0:0:0:
192,192,52786,1,0,0:0:0:55:snare.wav
448,192,52947,1,0,0:0:0:0:
320,192,52947,1,0,0:0:0:0:
448,192,53428,1,0,0:0:0:0:
192,192,53428,1,0,0:0:0:0:
64,192,53749,1,0,0:0:0:0:
320,192,53909,1,0,0:0:0:0:
192,192,54070,1,0,0:0:0:0:
448,192,54070,1,0,0:0:0:0:
64,192,54230,128,0,54711:0:0:0:0:
320,192,54711,1,0,0:0:0:0:
448,192,54711,1,0,0:0:0:55:snare.wav
64,192,55032,1,0,0:0:0:0:
192,192,55193,1,0,0:0:0:0:
320,192,55353,1,0,0:0:0:0:
448,192,55353,1,0,0:0:0:55:snare.wav
192,192,55674,1,0,0:0:0:0:
64,192,55995,1,0,0:0:0:0:
320,192,55995,1,0,0:0:0:55:snare.wav
448,192,56316,1,0,0:0:0:0:
320,192,56476,1,0,0:0:0:0:
192,192,56636,1,0,0:0:0:55:snare.wav
64,192,56636,1,0,0:0:0:0:
64,192,56957,1,0,0:0:0:0:
448,192,57278,1,0,0:0:0:55:snare.wav
320,192,57278,1,0,0:0:0:0:
192,192,57599,1,0,0:0:0:0:
320,192,57759,1,0,0:0:0:0:
64,192,57920,1,0,0:0:0:0:
448,192,57920,1,0,0:0:0:55:snare.wav
320,192,58241,1,0,0:0:0:0:
192,192,58562,1,0,0:0:0:55:snare.wav
64,192,58562,1,0,0:0:0:0:
320,192,58882,1,0,0:0:0:0:
192,192,59043,1,0,0:0:0:0:
64,192,59203,1,0,0:0:0:0:
448,192,59203,1,0,0:0:0:55:snare.wav
192,192,59524,1,0,0:0:0:0:
320,192,59845,1,0,0:0:0:0:
448,192,59845,1,0,0:0:0:55:snare.wav
64,192,60166,1,0,0:0:0:0:
192,192,60326,1,0,0:0:0:0:
320,192,60487,1,0,0:0:0:0:
448,192,60487,1,0,0:0:0:55:snare.wav
64,192,60647,1,0,0:0:0:0:
320,192,60968,1,0,0:0:0:0:
448,192,60968,1,0,0:0:0:0:
64,192,61128,1,0,0:0:0:0:
64,192,61449,1,0,0:0:0:0:
320,192,61449,1,0,0:0:0:50:snare.wav
64,192,61610,1,0,0:0:0:0:
320,192,61610,1,0,0:0:0:50:snare.wav
192,192,61931,1,0,0:0:0:0:
320,192,62091,1,0,0:0:0:0:
448,192,62091,1,0,0:0:0:0:
192,192,62412,1,0,0:0:0:55:snare.wav
448,192,62412,1,0,0:0:0:0:
192,192,62733,1,0,0:0:0:55:snare.wav
64,192,62733,1,0,0:0:0:0:
192,192,63053,1,0,0:0:0:0:
320,192,63053,1,0,0:0:0:55:snare.wav
320,192,63374,1,0,0:0:0:55:snare.wav
448,192,63374,1,0,0:0:0:0:
192,192,63695,1,0,0:0:0:55:snare.wav
64,192,63695,1,0,0:0:0:0:
320,192,64016,1,0,0:0:0:55:snare.wav
192,192,64016,1,0,0:0:0:0:
320,192,64337,1,0,0:0:0:55:snare.wav
448,192,64337,1,0,0:0:0:0:
320,192,64658,1,0,0:0:0:55:snare.wav
192,192,64658,1,0,0:0:0:0:
64,192,64979,1,0,0:0:0:0:
192,192,64979,1,0,0:0:0:55:snare.wav
320,192,65299,1,0,0:0:0:55:snare.wav
448,192,65299,1,0,0:0:0:0:
192,192,65620,1,0,0:0:0:55:snare.wav
64,192,65620,1,0,0:0:0:0:
320,192,65941,1,0,0:0:0:55:snare.wav
448,192,65941,1,0,0:0:0:0:
192,192,66262,1,0,0:0:0:55:snare.wav
64,192,66262,1,0,0:0:0:0:
320,192,66583,1,0,0:0:0:55:snare.wav
448,192,66583,1,0,0:0:0:0:
192,192,66904,1,0,0:0:0:0:
320,192,66904,1,0,0:0:0:55:snare.wav
64,192,67225,1,0,0:0:0:0:
320,192,67545,1,0,0:0:0:55:snare.wav
448,192,67545,1,0,0:0:0:0:
64,192,67866,1,0,0:0:0:0:
192,192,68027,1,0,0:0:0:0:
320,192,68187,1,0,0:0:0:55:snare.wav
448,192,68187,1,0,0:0:0:0:
64,192,68508,1,0,0:0:0:0:
192,192,68668,1,0,0:0:0:0:
320,192,68829,1,0,0:0:0:55:snare.wav
448,192,68829,1,0,0:0:0:0:
448,192,69150,1,0,0:0:0:0:
320,192,69310,1,0,0:0:0:0:
192,192,69471,1,0,0:0:0:55:snare.wav
64,192,69471,1,0,0:0:0:0:
448,192,69791,1,0,0:0:0:0:
192,192,70112,1,0,0:0:0:0:
320,192,70112,1,0,0:0:0:55:snare.wav
64,192,70433,1,0,0:0:0:0:
192,192,70594,1,0,0:0:0:0:
320,192,70754,1,0,0:0:0:55:snare.wav
448,192,70754,1,0,0:0:0:0:
64,192,71075,1,0,0:0:0:0:
192,192,71075,1,0,0:0:0:50:snare.wav
320,192,71235,1,0,0:0:0:50:snare.wav
448,192,71235,1,0,0:0:0:0:
320,192,71717,1,0,0:0:0:50:snare.wav
448,192,71717,1,0,0:0:0:0:
192,192,71877,1,0,0:0:0:50:snare.wav
64,192,71877,1,0,0:0:0:0:
320,192,72358,1,0,0:0:0:50:snare.wav
448,192,72358,1,0,0:0:0:55:FLS Crash 01a.wav
64,192,72679,1,0,0:0:0:50:snare.wav
192,192,72840,1,0,0:0:0:0:
448,192,72840,1,0,0:0:0:50:snare.wav
320,192,73160,1,0,0:0:0:0:
448,192,73160,1,0,0:0:0:50:snare.wav
448,192,73481,128,0,74283:0:0:0:0:
64,192,73481,128,0,74283:0:0:0:0:
192,192,74283,128,0,74604:0:0:0:0:
320,192,74604,128,0,74925:0:0:0:0:
64,192,74925,1,0,0:0:0:0:
192,192,74925,1,0,0:0:0:55:FLS Crash 01a.wav
192,192,75567,1,0,0:0:0:0:
320,192,75567,1,0,0:0:0:55:FLS Crash 01a.wav
64,192,76209,1,0,0:0:0:0:
448,192,76209,1,0,0:0:0:55:FLS Crash 01a.wav
192,192,76850,1,0,0:0:0:0:
448,192,76850,1,0,0:0:0:0:
320,192,77492,128,0,77813:0:0:0:0:
192,192,77813,128,0,78134:0:0:0:0:
64,192,78134,128,0,78455:0:0:0:0:
192,192,78775,128,0,79096:0:0:0:0:
448,192,79096,1,0,0:0:0:0:
64,192,79257,1,0,0:0:0:0:
320,192,79578,128,0,79898:0:0:0:0:
64,192,80059,128,0,80380:0:0:0:0:
448,192,80380,128,0,80701:0:0:0:0:
192,192,80701,128,0,81021:0:0:0:0:
448,192,81342,128,0,81663:0:0:0:0:
192,192,81663,1,0,0:0:0:0:
64,192,81824,1,0,0:0:0:0:
320,192,82144,128,0,82626:0:0:0:0:
64,192,82626,1,0,0:0:0:0:
192,192,82626,1,0,0:0:0:45:FLS Crash 01a.wav
320,192,82947,1,0,0:0:0:50:snare.wav
448,192,82947,1,0,0:0:0:0:
192,192,83107,1,0,0:0:0:50:snare.wav
64,192,83107,1,0,0:0:0:0:
320,192,83428,1,0,0:0:0:50:snare.wav
448,192,83428,1,0,0:0:0:0:
192,192,83749,128,0,85193:0:0:0:0:
320,192,83749,128,0,85193:0:0:0:0:
448,192,85193,128,0,87759:0:0:0:70:FLS Crash 01a.wav
64,192,85193,128,0,87759:0:0:0:0:
