osu file format v12

[General]
AudioFilename: Univer Page.mp3
AudioLeadIn: 0
PreviewTime: 51824
Countdown: 0
SampleSet: Soft
StackLeniency: 0.7
Mode: 0
LetterboxInBreaks: 0
WidescreenStoryboard: 0

[Editor]
DistanceSpacing: 0.8
BeatDivisor: 4
GridSize: 4

[Metadata]
Title:Univer Page (TV Size)
TitleUnicode:ユニバーページ (TV Size)
Artist:Mimori Suzuko
ArtistUnicode:三森すずこ
Creator:Fycho
Version:Normal
Source:Outbreak Company
Tags:Awaken opening アウトブレイク・カンパニー feel
BeatmapID:314156
BeatmapSetID:122233

[Difficulty]
HPDrainRate:4
CircleSize:3
OverallDifficulty:4
ApproachRate:5
SliderMultiplier:1.2
SliderTickRate:1

[Events]
//Background and Video events
0,0,"BG.jpg",0,0
Video,0,"OP.flv"
//Break Periods
//Storyboard Layer 0 (Background)
//Storyboard Layer 1 (Fail)
//Storyboard Layer 2 (Pass)
//Storyboard Layer 3 (Foreground)
//Storyboard Sound Samples
//Background Colour Transformations
3,100,163,162,255

[TimingPoints]
491,320.855614973262,4,2,1,30,1,0
3057,-100,4,2,1,70,0,0
4581,-100,4,2,2,70,0,0
4742,-100,4,2,1,70,0,0
7148,-100,4,2,2,70,0,0
7309,-100,4,2,1,70,0,0
13325,-100,4,2,1,50,0,0
16132,-100,4,2,2,50,0,0
16293,-100,4,2,1,50,0,0
21266,-100,4,2,2,50,0,0
21426,-100,4,2,1,50,0,0
27683,-100,4,2,2,50,0,0
27843,-100,4,2,1,50,0,0
33859,-100,4,2,1,70,0,0
35384,-100,4,2,2,70,0,0
35544,-100,4,2,1,70,0,0
37950,-100,4,2,2,70,0,0
38111,-100,4,2,1,70,0,0
40517,-100,4,2,2,70,0,0
40678,-100,4,2,1,70,0,0
51827,-100,4,2,1,90,0,1
53993,-100,4,2,2,90,0,1
54154,-100,4,2,1,90,0,1
61774,-100,4,2,1,70,0,0
62095,-100,4,2,1,90,0,1
72362,-100,4,2,1,70,0,0
72603,-100,4,2,2,70,0,0
72763,-100,4,2,1,70,0,0
74929,-100,4,2,1,50,0,0
76212,-100,4,2,1,60,0,0
77496,-100,4,2,1,70,0,0
79020,-100,4,2,2,70,0,0
79180,-100,4,2,1,70,0,0
81587,-100,4,2,2,70,0,0
81747,-100,4,2,1,70,0,0
85357,-100,4,2,1,60,0,0
85838,-100,4,2,1,50,0,0
86319,-100,4,2,1,40,0,0
86801,-100,4,2,1,30,0,0
87282,-100,4,2,1,20,0,0
87763,-100,4,2,1,10,0,0
88084,-100,4,2,1,5,0,0

[Colours]
Combo1 : 24,186,248
Combo2 : 254,244,69
Combo3 : 254,114,167
Combo4 : 51,213,160

[HitObjects]
256,192,491,12,4,3057,0:0:0:0:
171,147,3378,6,0,P|227:125|287:125,2,120,8|2|8,0:0|0:0|0:0,0:0:0:0:
114,223,4341,2,0,P|119:308|199:336,2,180,2|2|8,0:0|0:0|0:0,0:0:0:0:
171,146,5624,6,0,P|188:88|195:29,2,120,2|8|2,0:0|0:0|0:0,0:0:0:0:
213,232,6587,1,8,0:0:0:0:
295,182,6908,2,0,P|377:148|466:154,2,180,2|2|8,0:0|0:0|0:0,0:0:0:0:
213,233,8191,6,0,P|159:265|99:256,1,120,4|8,0:0|0:0,0:0:0:0:
34,191,8833,2,0,P|33:128|71:80,1,120,2|8,0:0|0:0,0:0:0:0:
158,57,9474,2,0,P|212:87|234:144,1,120,2|8,0:0|0:0,0:0:0:0:
244,185,9956,2,0,L|223:305,1,120,2|0,0:0|0:0,0:0:0:0:
216,350,10437,1,8,0:0:0:0:
311,337,10758,5,4,0:0:0:0:
404,126,12041,5,8,0:0:0:0:
312,155,12362,1,8,0:0:0:0:
218,133,12683,2,0,L|87:109,1,120,8|8,0:0|0:0,0:0:0:0:
43,189,13325,6,0,P|39:248|41:308,1,120,4|8,0:0|0:0,0:0:0:0:
125,355,13966,1,2,0:0:0:0:
219,338,14287,1,8,0:0:0:0:
269,256,14608,2,0,P|328:248|387:255,2,120,2|8|2,0:0|0:0|0:0,0:0:0:0:
172,252,15571,1,8,0:0:0:0:
109,176,15892,6,0,P|148:99|234:83,1,180,2|0,0:0|0:0,0:0:0:0:
281,87,16533,2,0,P|340:95|399:90,1,120,2|8,0:0|0:0,0:0:0:0:
420,185,17175,2,0,P|420:244|436:302,1,120,2|8,0:0|0:0,0:0:0:0:
389,314,17656,2,0,P|293:320|200:339,1,180,2|8,0:0|0:0,0:0:0:0:
128,285,18458,6,0,P|79:252|21:237,2,120,4|8|2,0:0|0:0|0:0,0:0:0:0:
212,237,19421,1,8,0:0:0:0:
150,161,19742,2,0,P|144:102|154:43,1,120,2|8,0:0|0:0,0:0:0:0:
248,20,20384,1,2,0:0:0:0:
325,76,20704,1,8,0:0:0:0:
418,97,21025,6,0,P|410:186|413:280,1,180,2|0,0:0|0:0,0:0:0:0:
394,321,21667,2,0,P|338:341|281:324,1,120,2|8,0:0|0:0,0:0:0:0:
242,236,22309,1,2,0:0:0:0:
168,170,22630,2,0,P|110:158|54:174,2,120,8|2|8,0:0|0:0|0:0,0:0:0:0:
250,118,23592,6,0,P|313:119|373:101,1,120,4|8,0:0|0:0,0:0:0:0:
456,66,24234,1,2,0:0:0:0:
442,161,24555,2,0,P|427:219|427:279,2,120,8|2|8,0:0|0:0|0:0,0:0:0:0:
345,159,25517,1,2,0:0:0:0:
263,210,25838,1,8,0:0:0:0:
170,183,26159,6,0,P|162:124|171:65,2,120,2|8|2,0:0|0:0|0:0,0:0:0:0:
186,278,27122,1,8,0:0:0:0:
281,287,27442,2,0,P|371:274|468:281,2,180,2|2|8,0:0|0:0|0:0,0:0:0:0:
220,361,28726,5,4,0:0:0:0:
130,322,29047,2,0,P|125:263|107:206,1,120,8|2,0:0|0:0,0:0:0:0:
44,133,29688,1,8,0:0:0:0:
81,44,30009,2,0,P|139:30|199:30,1,120,2|8,0:0|0:0,0:0:0:0:
291,59,30651,2,0,P|328:51|353:51,2,60,2|0|8,0:0|0:0|0:0,0:0:0:0:
220,124,31293,6,0,L|205:248,2,120,4|8|4,0:0|0:0|0:0,0:0:0:0:
303,172,32255,1,8,0:0:0:0:
392,207,32576,2,0,L|377:331,2,120,4|8|2,0:0|0:0|0:0,0:0:0:0:
481,241,33539,1,8,0:0:0:0:
479,145,33859,6,0,P|477:85|487:26,1,120,4|8,0:0|0:0,0:0:0:0:
390,23,34501,1,2,0:0:0:0:
296,44,34822,1,8,0:0:0:0:
208,84,35143,2,0,P|114:91|12:83,1,180,2|0,0:0|0:0,0:0:0:0:
35,133,35785,2,2,P|25:196|34:252,1,120,2|8,0:0|0:0,0:0:0:0:
111,310,36426,5,0,0:0:0:0:
204,287,36747,1,8,0:0:0:0:
249,202,37068,1,2,0:0:0:0:
204,116,37389,1,8,0:0:0:0:
247,30,37710,2,0,P|338:47|426:28,1,180,2|0,0:0|0:0,0:0:0:0:
461,57,38351,2,0,P|476:116|465:176,1,120,2|8,0:0|0:0,0:0:0:0:
396,239,38993,6,0,P|388:297|390:358,2,120,4|8|2,0:0|0:0|0:0,0:0:0:0:
365,147,39956,1,8,0:0:0:0:
297,214,40277,2,0,P|213:261|132:248,1,180,2|0,0:0|0:0,0:0:0:0:
98,216,40918,2,0,P|98:132|83:26,2,180,2|4|8,0:0|0:0|0:0,0:0:0:0:
189,246,42202,1,8,0:0:0:0:
237,162,42523,5,8,0:0:0:0:
237,162,42683,2,0,P|326:157|416:162,1,180,4|8,0:0|0:0,0:0:0:0:
466,243,43485,2,0,P|403:247|336:240,1,120,8|8,0:0|0:0,0:0:0:0:
353,337,44127,6,0,P|294:330|235:337,2,120,4|8|2,0:0|0:0|0:0,0:0:0:0:
346,241,45089,1,8,0:0:0:0:
346,241,45250,2,0,L|365:51,1,180,4|8,0:0|0:0,0:0:0:0:
269,76,46052,2,0,P|206:90|146:83,1,120,2|8,0:0|0:0,0:0:0:0:
55,72,46694,5,4,0:0:0:0:
32,165,47015,1,8,0:0:0:0:
100,232,47335,1,2,0:0:0:0:
193,210,47656,1,8,0:0:0:0:
283,241,47977,6,0,P|336:267|395:265,1,120,2|8,0:0|0:0,0:0:0:0:
436,239,48458,2,0,P|454:180|447:118,1,120,2|0,0:0|0:0,0:0:0:0:
417,85,48940,1,8,0:0:0:0:
256,192,49261,12,12,50384,0:0:0:0:
156,165,50704,6,0,L|280:145,1,120,4|12,0:0|0:0,0:0:0:0:
366,117,51346,2,0,P|417:189|396:273,1,180,8|4,0:0|0:0,0:0:0:0:
303,298,52148,5,8,0:0:0:0:
206,289,52469,2,0,P|148:276|88:278,1,120,2|8,0:0|0:0,0:0:0:0:
44,259,52950,2,0,L|63:72,1,180,4|8,0:0|0:0,0:0:0:0:
152,112,53753,2,0,P|238:134|324:112,1,180,2|4,0:0|0:0,0:0:0:0:
445,190,54715,5,8,0:0:0:0:
384,264,55036,2,0,P|325:289|265:283,1,120,2|8,0:0|0:0,0:0:0:0:
265,187,55678,2,0,P|209:169|149:161,1,120,2|8,0:0|0:0,0:0:0:0:
111,190,56159,2,0,L|83:324,1,120,2|0,0:0|0:0,0:0:0:0:
100,353,56640,1,8,0:0:0:0:
189,318,56961,6,0,P|248:310|317:309,1,120,4|8,0:0|0:0,0:0:0:0:
382,247,57603,2,0,P|439:242|495:215,1,120,2|8,0:0|0:0,0:0:0:0:
443,131,58245,2,0,P|444:72|461:14,2,120,2|8|2,0:0|0:0|0:0,0:0:0:0:
349,149,59207,1,8,0:0:0:0:
290,225,59528,6,0,P|229:238|166:225,1,120,4|8,0:0|0:0,0:0:0:0:
159,132,60170,2,0,P|100:120|34:137,1,120,2|8,0:0|0:0,0:0:0:0:
10,168,60651,2,0,L|0:287,1,120,4|8,0:0|0:0,0:0:0:0:
96,296,61293,2,0,L|95:357,2,60,8|8|8,0:0|0:0|0:0,0:0:0:0:
234,336,62095,6,0,L|228:208,1,120,4|8,0:0|0:0,0:0:0:0:
311,168,62736,2,0,L|316:287,1,120,8|8,0:0|0:0,0:0:0:0:
404,249,63378,2,0,L|398:121,2,120,8|8|8,0:0|0:0|0:0,0:0:0:0:
492,210,64341,1,8,0:0:0:0:
492,210,64662,6,0,L|497:329,1,120,8|8,0:0|0:0,0:0:0:0:
408,366,65303,1,8,0:0:0:0:
312,353,65624,1,8,0:0:0:0:
248,280,65945,2,0,P|194:257|119:248,1,120,4|8,0:0|0:0,0:0:0:0:
92,160,66587,2,0,P|65:157|31:149,2,60,8|8|8,0:0|0:0|0:0,0:0:0:0:
185,139,67228,6,0,L|286:52,1,120,4|8,0:0|0:0,0:0:0:0:
357,112,67870,2,0,L|266:190,2,120,8|8|4,0:0|0:0|0:0,0:0:0:0:
453,115,68833,1,8,0:0:0:0:
470,209,69154,1,8,0:0:0:0:
390,262,69474,1,8,0:0:0:0:
302,301,69795,6,0,P|242:294|174:299,1,120,4|8,0:0|0:0,0:0:0:0:
120,223,70437,2,0,P|177:209|238:207,1,120,8|8,0:0|0:0,0:0:0:0:
267,115,71079,6,0,P|237:119|207:121,1,60,4|8,0:0|0:0,0:0:0:0:
91,35,71720,2,0,P|120:32|150:28,1,60,4|8,0:0|0:0,0:0:0:0:
75,151,72362,6,0,P|53:237|52:327,1,180,4|8,0:0|0:0,0:0:0:0:
140,365,73164,1,8,0:0:0:0:
224,319,73485,2,0,P|308:292|394:314,1,180,8|8,0:0|0:0,0:0:0:0:
432,226,74287,2,0,P|440:168|458:106,1,120,8|8,0:0|0:0,0:0:0:0:
362,103,74929,6,0,B|292:127|188:64|113:96,1,240,4|4,0:0|0:0,0:0:0:0:
133,283,76212,1,4,0:0:0:0:
318,233,76854,1,2,0:0:0:0:
411,256,77175,1,8,0:0:0:0:
386,163,77496,6,0,P|389:104|403:46,2,120,4|8|2,0:0|0:0|0:0,0:0:0:0:
294,133,78458,1,8,0:0:0:0:
209,179,78779,2,0,P|120:219|38:212,2,180,2|2|8,0:0|0:0|0:0,0:0:0:0:
148,104,80063,5,2,0:0:0:0:
233,59,80384,1,8,0:0:0:0:
327,45,80704,1,2,0:0:0:0:
415,80,81025,1,8,0:0:0:0:
408,175,81346,2,0,P|414:243|412:359,2,180,2|2|8,0:0|0:0|0:0,0:0:0:0:
328,122,82630,6,0,P|271:141|212:138,1,120,4|8,0:0|0:0,0:0:0:0:
164,128,83111,2,0,P|107:109|49:121,1,120,8|8,0:0|0:0,0:0:0:0:
18,212,83753,2,0,P|25:297|116:333,1,180,4|8,0:0|0:0,0:0:0:0:
179,275,84555,2,0,P|242:264|298:270,2,120,8|8|4,0:0|0:0|0:0,0:0:0:0:
256,192,85357,12,0,88084,0:0:0:0:
