osu file format v12

[General]
AudioFilename: Univer Page.mp3
AudioLeadIn: 0
PreviewTime: 51824
Countdown: 0
SampleSet: Soft
StackLeniency: 0.4
Mode: 0
LetterboxInBreaks: 0
WidescreenStoryboard: 0

[Editor]
DistanceSpacing: 1
BeatDivisor: 4
GridSize: 4

[Metadata]
Title:Univer Page (TV Size)
TitleUnicode:ユニバーページ (TV Size)
Artist:Mimori Suzuko
ArtistUnicode:三森すずこ
Creator:Fycho
Version:Hard
Source:Outbreak Company
Tags:Awaken opening アウトブレイク・カンパニー feel
BeatmapID:314155
BeatmapSetID:122233

[Difficulty]
HPDrainRate:6
CircleSize:4
OverallDifficulty:6
ApproachRate:8
SliderMultiplier:1.6
SliderTickRate:1

[Events]
//Background and Video events
0,0,"BG.jpg",0,0
Video,0,"OP.flv"
//Break Periods
//Storyboard Layer 0 (Background)
//Storyboard Layer 1 (Fail)
//Storyboard Layer 2 (Pass)
//Storyboard Layer 3 (Foreground)
//Storyboard Sound Samples
//Background Colour Transformations
3,100,163,162,255

[TimingPoints]
491,320.855614973262,4,2,1,30,1,0
3057,-100,4,2,1,70,0,0
12362,-100,4,2,1,60,0,0
13325,-100,4,2,1,50,0,0
33859,-100,4,2,1,70,0,0
51346,-100,4,2,1,50,0,0
51827,-100,4,2,1,90,0,1
61774,-100,4,2,1,70,0,0
62095,-100,4,2,1,90,0,1
72362,-100,4,2,1,70,0,0
74929,-100,4,2,1,50,0,0
76212,-100,4,2,1,60,0,0
77496,-100,4,2,1,70,0,0
85357,-100,4,2,1,60,0,0
85838,-100,4,2,1,50,0,0
86319,-100,4,2,1,40,0,0
86801,-100,4,2,1,30,0,0
87282,-100,4,2,1,20,0,0
87763,-100,4,2,1,10,0,0
88084,-100,4,2,1,5,0,0

[Colours]
Combo1 : 24,186,248
Combo2 : 254,244,69
Combo3 : 254,114,167
Combo4 : 51,213,160

[HitObjects]
256,192,491,12,0,2736,0:0:0:0:
288,105,3057,6,0,P|232:54|157:82,2,160,4|8|2,0:0|0:0|0:0,0:0:0:0:
256,187,3859,1,0,0:0:0:0:
303,258,4020,2,0,P|295:297|296:337,1,80,8|0,0:0|0:0,0:0:0:0:
385,305,4341,2,0,P|395:228|335:177,1,160,2|8,0:0|0:0,0:0:0:0:
255,187,4822,2,0,P|179:206|103:183,1,160,2|0,0:0|0:0,0:0:0:0:
37,136,5303,2,0,P|32:96|32:56,1,80,8|0,0:0|0:0,0:0:0:0:
112,50,5624,6,0,B|132:37|157:23|157:23|206:47|272:27,2,160,2|8|2,0:0|0:0|0:0,0:0:0:0:
126,130,6426,1,0,0:0:0:0:
113,211,6587,2,0,P|124:257|121:302,1,80,8|0,0:0|0:0,0:0:0:0:
208,255,6908,2,0,P|197:209|200:164,1,80,2|0,0:0|0:0,0:0:0:0:
254,121,7228,1,8,0:0:0:0:
254,121,7389,2,0,P|326:96|385:145,1,160,2|0,0:0|0:0,0:0:0:0:
360,227,7870,2,0,P|357:268|354:308,1,80,8|0,0:0|0:0,0:0:0:0:
436,280,8191,6,0,L|457:115,1,160,4|8,0:0|0:0,0:0:0:0:
307,39,8833,2,0,L|286:197,1,160,2|8,0:0|0:0,0:0:0:0:
248,271,9314,1,0,0:0:0:0:
194,213,9474,2,0,P|159:200|115:208,1,80,2|0,0:0|0:0,0:0:0:0:
72,288,9795,1,8,0:0:0:0:
72,288,9956,2,0,L|86:129,1,160,2|0,0:0|0:0,0:0:0:0:
165,94,10437,2,0,L|157:177,1,80,8|0,0:0|0:0,0:0:0:0:
184,250,10758,5,4,0:0:0:0:
256,192,10838,12,12,12041,0:0:0:0:
116,216,12362,6,0,L|208:200,1,80,12|0,0:0|0:0,0:0:0:0:
220,120,12683,2,0,P|304:129|376:108,1,160,12|8,0:0|0:0,0:0:0:0:
429,47,13164,1,0,0:0:0:0:
494,91,13325,6,0,P|503:130|498:169,1,80,4|0,0:0|0:0,0:0:0:0:
423,255,13646,2,0,P|414:216|419:177,1,80,8|0,0:0|0:0,0:0:0:0:
331,190,13966,1,0,0:0:0:0:
253,213,14127,2,0,P|212:216|175:209,1,80,2|8,0:0|0:0,0:0:0:0:
89,220,14448,6,0,P|112:144|168:88,1,160,2|0,0:0|0:0,0:0:0:0:
199,4,14929,2,0,P|252:62|273:138,1,160,8|2,0:0|0:0,0:0:0:0:
235,211,15410,2,0,P|229:250|231:290,2,80,0|8|0,0:0|0:0|0:0,0:0:0:0:
274,140,15892,6,0,P|312:70|394:55,1,160,2|8,0:0|0:0,0:0:0:0:
474,35,16373,1,0,0:0:0:0:
474,35,16533,2,0,P|465:113|467:199,1,160,2|8,0:0|0:0,0:0:0:0:
421,269,17015,1,0,0:0:0:0:
339,243,17175,6,0,P|260:238|180:246,1,160,2|8,0:0|0:0,0:0:0:0:
221,121,17656,2,0,P|300:125|380:117,1,160,2|0,0:0|0:0,0:0:0:0:
380,117,18137,1,8,0:0:0:0:
395,31,18298,1,0,0:0:0:0:
303,34,18458,6,0,P|223:29|143:37,1,160,4|8,0:0|0:0,0:0:0:0:
89,107,18940,2,0,P|83:149|87:188,2,80,0|2|0,0:0|0:0|0:0,0:0:0:0:
170,116,19421,1,8,0:0:0:0:
170,116,19581,1,0,0:0:0:0:
170,116,19742,6,0,P|165:195|169:275,1,160,2|8,0:0|0:0,0:0:0:0:
229,331,20223,1,0,0:0:0:0:
294,282,20384,2,0,P|334:278|373:277,1,80,2|0,0:0|0:0,0:0:0:0:
340,190,20704,2,0,P|300:194|260:194,1,80,8|0,0:0|0:0,0:0:0:0:
170,115,21025,6,0,P|248:102|328:106,1,160,2|8,0:0|0:0,0:0:0:0:
410,93,21507,1,0,0:0:0:0:
453,162,21667,2,0,P|438:237|366:264,2,160,2|8|2,0:0|0:0|0:0,0:0:0:0:
409,92,22469,6,0,P|406:53|409:13,2,80,0|8|0,0:0|0:0|0:0,0:0:0:0:
380,167,22950,1,2,0:0:0:0:
300,174,23111,1,0,0:0:0:0:
233,129,23271,1,8,0:0:0:0:
241,49,23432,1,0,0:0:0:0:
233,129,23592,6,0,P|156:143|74:138,1,160,4|8,0:0|0:0,0:0:0:0:
72,218,24073,2,0,P|81:261|79:307,2,80,0|2|0,0:0|0:0|0:0,0:0:0:0:
0,175,24555,1,8,0:0:0:0:
72,218,24715,1,0,0:0:0:0:
72,218,24876,6,0,P|150:230|234:213,1,160,2|8,0:0|0:0,0:0:0:0:
275,154,25357,2,0,P|308:133|348:128,1,80,0|2,0:0|0:0,0:0:0:0:
422,187,25678,1,0,0:0:0:0:
422,187,25838,2,0,P|388:207|348:212,1,80,8|0,0:0|0:0,0:0:0:0:
288,265,26159,5,2,0:0:0:0:
211,287,26319,1,0,0:0:0:0:
156,227,26480,1,8,0:0:0:0:
180,151,26640,1,0,0:0:0:0:
258,136,26801,2,0,P|299:140|346:135,2,80,2|0|8,0:0|0:0|0:0,0:0:0:0:
259,216,27282,1,0,0:0:0:0:
258,216,27442,6,0,P|179:212|100:225,1,160,2|8,0:0|0:0,0:0:0:0:
78,303,27924,2,0,P|129:352|216:335,1,160,2|0,0:0|0:0,0:0:0:0:
283,301,28405,2,0,P|314:277|352:267,1,80,8|0,0:0|0:0,0:0:0:0:
330,189,28726,6,0,P|313:112|308:32,1,160,4|8,0:0|0:0,0:0:0:0:
229,50,29207,2,0,B|183:39|183:39|130:69|68:44,1,160,2|0,0:0|0:0,0:0:0:0:
25,110,29688,1,8,0:0:0:0:
48,186,29849,1,0,0:0:0:0:
127,187,30009,6,0,P|115:266|118:345,2,160,2|8|2,0:0|0:0|0:0,0:0:0:0:
194,143,30811,1,0,0:0:0:0:
250,200,30972,2,0,P|288:209|328:210,1,80,8|0,0:0|0:0,0:0:0:0:
391,160,31293,6,0,P|462:133|477:58,2,160,4|8|4,0:0|0:0|0:0,0:0:0:0:
327,210,32095,2,0,P|318:248|318:288,2,80,0|8|0,0:0|0:0|0:0,0:0:0:0:
317,130,32576,5,4,0:0:0:0:
322,50,32736,1,2,0:0:0:0:
241,54,32897,1,8,0:0:0:0:
234,133,33057,1,2,0:0:0:0:
229,213,33218,5,0,0:0:0:0:
150,226,33378,1,2,0:0:0:0:
147,145,33539,1,8,0:0:0:0:
234,133,33699,1,0,0:0:0:0:
317,130,33859,6,0,P|361:126|403:121,1,80,4|0,0:0|0:0,0:0:0:0:
374,202,34180,2,0,P|418:198|460:193,1,80,8|0,0:0|0:0,0:0:0:0:
425,277,34501,1,2,0:0:0:0:
425,277,34822,2,0,P|346:286|267:300,2,160,8|2|8,0:0|0:0|0:0,0:0:0:0:
447,199,35624,1,0,0:0:0:0:
386,146,35785,2,0,L|385:106|384:66,1,80,2|0,0:0|0:0,0:0:0:0:
310,176,36105,2,0,L|309:136|308:96,1,80,8|0,0:0|0:0,0:0:0:0:
216,133,36426,6,0,P|172:129|130:124,1,80,2|0,0:0|0:0,0:0:0:0:
159,205,36747,2,0,P|115:201|73:196,1,80,8|0,0:0|0:0,0:0:0:0:
108,280,37068,1,2,0:0:0:0:
108,280,37389,2,0,P|187:289|266:303,2,160,8|2|8,0:0|0:0|0:0,0:0:0:0:
86,202,38191,1,0,0:0:0:0:
148,150,38351,1,2,0:0:0:0:
223,179,38512,1,0,0:0:0:0:
276,240,38672,2,0,P|318:245|361:240,1,80,8|0,0:0|0:0,0:0:0:0:
384,152,38993,6,0,L|392:320,2,160,4|0|2,0:0|0:0|0:0,0:0:0:0:
324,89,39795,1,0,0:0:0:0:
261,139,39956,2,0,P|221:145|181:136,1,80
140,207,40277,2,0,P|81:256|6:238,1,160,2|8,0:0|0:0,0:0:0:0:
0,326,40758,1,0,0:0:0:0:
75,337,40918,2,0,L|153:352,1,80,2|0,0:0|0:0,0:0:0:0:
153,352,41239,1,8,0:0:0:0:
228,294,41400,6,0,P|306:280|386:278,1,160,4|0,0:0|0:0,0:0:0:0:
386,278,41881,1,8,0:0:0:0:
414,115,42202,1,8,0:0:0:0:
253,73,42523,1,8,0:0:0:0:
253,73,42683,6,0,P|246:152|252:232,1,160,4|0,0:0|0:0,0:0:0:0:
303,293,43164,2,0,P|251:350|174:342,1,160,8|8,0:0|0:0,0:0:0:0:
111,288,43646,2,0,P|97:251|89:212,1,80,0|8,0:0|0:0,0:0:0:0:
106,130,43966,1,0,0:0:0:0:
184,168,44127,6,0,P|262:178|333:144,1,160,4|8,0:0|0:0,0:0:0:0:
333,143,44608,1,0,0:0:0:0:
406,246,44769,2,0,P|328:236|257:270,1,160,2|8,0:0|0:0,0:0:0:0:
187,330,45250,6,0,P|112:326|84:255,1,160,4|0,0:0|0:0,0:0:0:0:
84,255,45731,1,8,0:0:0:0:
84,255,46052,1,2,0:0:0:0:
136,194,46212,1,0,0:0:0:0:
136,194,46373,2,0,L|224:184,1,80,8|0,0:0|0:0,0:0:0:0:
271,260,46694,6,0,L|185:268,1,80,4|0,0:0|0:0,0:0:0:0:
136,194,47015,2,0,P|125:155|125:110,1,80,8|0,0:0|0:0,0:0:0:0:
259,182,47335,2,0,P|269:220|270:266,1,80,2|0,0:0|0:0,0:0:0:0:
217,94,47656,2,0,L|301:82,1,80,8|0,0:0|0:0,0:0:0:0:
376,164,47977,6,0,B|387:220|387:220|381:261|381:261|392:326,1,160,2|8,0:0|0:0,0:0:0:0:
312,329,48458,2,0,B|301:273|301:273|307:232|307:232|296:167,1,160,2|0,0:0|0:0,0:0:0:0:
239,119,48940,1,8,0:0:0:0:
239,119,49100,1,0,0:0:0:0:
192,184,49261,6,0,L|100:192,1,80,12|8,0:0|0:0,0:0:0:0:
192,268,49581,2,0,L|271:261,1,80,8|8,0:0|0:0,0:0:0:0:
192,184,49902,5,8,0:0:0:0:
192,268,50063,1,8,0:0:0:0:
112,272,50223,1,8,0:0:0:0:
112,192,50384,1,12,0:0:0:0:
112,192,50704,5,12,0:0:0:0:
112,192,51025,2,0,L|280:184,1,160,12|8,0:0|0:0,0:0:0:0:
299,259,51507,2,0,L|353:258,3,40,8|8|8|8,0:0|0:0|0:0|0:0,0:0:0:0:
377,247,51827,6,0,L|464:230,1,80,4|0,0:0|0:0,0:0:0:0:
432,143,52148,2,0,L|353:158,1,80,8|0,0:0|0:0,0:0:0:0:
277,104,52469,2,0,L|270:183,2,80,2|0|8,0:0|0:0|0:0,0:0:0:0:
186,111,52950,6,0,P|107:118|28:107,1,160,4|0,0:0|0:0,0:0:0:0:
120,213,53432,2,0,P|199:205|278:216,1,160,8|2,0:0|0:0,0:0:0:0:
356,219,53913,2,0,P|361:268|359:297,1,80,0|8,0:0|0:0,0:0:0:0:
451,147,54234,6,0,P|440:224|441:308,1,160,4|0,0:0|0:0,0:0:0:0:
383,367,54715,1,8,0:0:0:0:
305,345,54876,1,0,0:0:0:0:
258,280,55036,2,0,P|188:246|119:280,1,160,2|8,0:0|0:0,0:0:0:0:
46,314,55517,1,0,0:0:0:0:
21,237,55678,6,0,P|12:197|6:158,1,80,2|0,0:0|0:0,0:0:0:0:
65,63,55999,1,8,0:0:0:0:
65,63,56159,2,0,P|80:141|95:222,1,160,2|0,0:0|0:0,0:0:0:0:
177,216,56640,2,0,P|211:198|251:196,1,80,8|0,0:0|0:0,0:0:0:0:
313,140,56961,6,0,P|386:170|465:177,1,160,4|8,0:0|0:0,0:0:0:0:
495,56,57442,2,0,P|457:67|423:93,2,80,0|2|0,0:0|0:0|0:0,0:0:0:0:
467,178,57924,2,0,P|465:221|465:269,1,80,8|0,0:0|0:0,0:0:0:0:
381,351,58245,6,0,P|381:311|383:271,1,80,2|0,0:0|0:0,0:0:0:0:
347,203,58565,1,8,0:0:0:0:
353,123,58726,1,0,0:0:0:0:
292,67,58886,2,0,P|218:37|141:54,2,160,2|8|4,0:0|0:0|0:0,0:0:0:0:
353,123,59688,5,0,0:0:0:0:
348,203,59849,2,0,P|344:245|345:283,1,80,8|0,0:0|0:0,0:0:0:0:
268,319,60170,2,0,P|203:362|132:337,1,160,2|8,0:0|0:0,0:0:0:0:
114,170,60651,6,0,P|182:205|193:281,2,160,4|8|8,0:0|0:0|0:0,0:0:0:0:
88,87,61453,1,8,0:0:0:0:
88,87,61613,2,0,P|165:83|259:87,1,160,8|0,0:0|0:0,0:0:0:0:
285,111,62015,1,0,0:0:0:0:
324,123,62095,6,0,P|364:119|403:106,1,80,12|0,0:0|0:0,0:0:0:0:
399,194,62416,2,0,L|477:206,1,80,8|0,0:0|0:0,0:0:0:0:
418,280,62736,2,0,P|378:274|338:278,2,80,8|0|8,0:0|0:0|0:0,0:0:0:0:
430,366,63218,1,0,0:0:0:0:
308,354,63378,6,0,L|222:354,1,80,8|0,0:0|0:0,0:0:0:0:
210,271,63699,2,0,L|131:262,1,80,8|0,0:0|0:0,0:0:0:0:
280,163,64020,2,0,L|285:252,1,80,8|0,0:0|0:0,0:0:0:0:
209,63,64341,2,0,L|199:150,1,80,8|0,0:0|0:0,0:0:0:0:
34,167,64662,6,0,P|86:225|165:219,1,160,8|8,0:0|0:0,0:0:0:0:
203,150,65143,1,0,0:0:0:0:
203,150,65303,2,0,P|283:139|361:147,1,160,8|8,0:0|0:0,0:0:0:0:
406,218,65785,1,0,0:0:0:0:
376,298,65945,6,0,P|311:336|231:306,1,160,4|8,0:0|0:0,0:0:0:0:
158,273,66426,2,0,P|153:233|143:194,1,80,0|8,0:0|0:0,0:0:0:0:
60,190,66747,1,0,0:0:0:0:
79,284,66908,2,0,P|83:323|93:362,1,80,8|0,0:0|0:0,0:0:0:0:
180,362,67228,6,0,P|261:351|349:362,2,160,4|8|8,0:0|0:0|0:0,0:0:0:0:
160,273,68031,1,8,0:0:0:0:
160,273,68191,2,0,L|200:272|242:268,1,80,8|0,0:0|0:0,0:0:0:0:
263,188,68512,5,4,0:0:0:0:
344,192,68672,1,0,0:0:0:0:
419,165,68833,1,8,0:0:0:0:
498,161,68993,1,0,0:0:0:0:
419,165,69154,2,0,P|420:213|425:260,1,80,12|8,0:0|0:0,0:0:0:0:
344,191,69474,2,0,P|343:143|338:96,1,80,8|0,0:0|0:0,0:0:0:0:
184,41,69795,6,0,P|261:20|337:37,1,160,4|8,0:0|0:0,0:0:0:0:
409,82,70277,1,0,0:0:0:0:
420,165,70437,2,0,P|426:204|428:246,2,80,8|8|8,0:0|0:0|0:0,0:0:0:0:
338,137,70918,1,0,0:0:0:0:
254,127,71079,5,12,0:0:0:0:
254,127,71239,1,8,0:0:0:0:
49,80,71720,1,12,0:0:0:0:
49,80,71880,1,8,0:0:0:0:
265,233,72362,6,0,P|183:222|92:218,1,160,4|8,0:0|0:0,0:0:0:0:
49,276,72843,2,0,P|77:347|152:358,1,160,8|8,0:0|0:0,0:0:0:0:
307,308,73485,2,0,P|386:308|463:330,1,160,4|0,0:0|0:0,0:0:0:0:
438,226,73966,2,0,P|358:226|281:204,2,160,8|0|8,0:0|0:0|0:0,0:0:0:0:
400,27,74929,6,0,L|408:146,2,120,4|2|2,0:0|0:0|0:0,0:0:0:0:
327,101,75571,2,0,L|304:232,2,120,4|2|2,0:0|0:0|0:0,0:0:0:0:
211,152,76212,2,0,L|244:318,1,160,4|0,0:0|0:0,0:0:0:0:
389,272,76774,2,0,L|383:230,1,40,2|2,0:0|0:0,0:0:0:0:
409,78,77175,1,8,0:0:0:0:
408,78,77496,6,0,P|332:99|253:93,2,160,4|8|2,0:0|0:0|0:0,0:0:0:0:
437,152,78298,2,0,P|456:193|464:236,2,80,0|8|0,0:0|0:0|0:0,0:0:0:0:
371,199,78779,2,0,P|295:220|216:214,1,160,2|8,0:0|0:0,0:0:0:0:
137,241,79261,2,0,P|140:167|133:81,1,160,2|0,0:0|0:0,0:0:0:0:
210,23,79742,2,0,P|210:62|214:102,1,80,8|0,0:0|0:0,0:0:0:0:
271,160,80063,6,0,P|350:162|427:142,2,160,2|8|2,0:0|0:0|0:0,0:0:0:0:
187,174,80865,2,0,P|147:166|107:166,1,80,0|8,0:0|0:0,0:0:0:0:
107,166,81186,1,0,0:0:0:0:
55,236,81346,2,0,P|79:307|154:318,1,160,2|8,0:0|0:0,0:0:0:0:
227,278,81827,2,0,B|284:271|284:271|324:283|324:283|384:275,1,160,2|0,0:0|0:0,0:0:0:0:
446,219,82309,2,0,L|453:139,1,80,8|0,0:0|0:0,0:0:0:0:
445,51,82630,6,0,P|368:27|290:38,1,160,4|8,0:0|0:0,0:0:0:0:
290,37,83111,1,8,0:0:0:0:
154,135,83432,1,8,0:0:0:0:
299,169,83753,2,0,P|243:222|165:213,1,160,4|0,0:0|0:0,0:0:0:0:
154,135,84234,2,0,P|81:108|5:139,1,160,8|8,0:0|0:0,0:0:0:0:
15,217,84715,2,0,P|8:260|8:305,2,80,0|8|0,0:0|0:0|0:0,0:0:0:0:
99,206,85196,5,4,0:0:0:0:
256,192,85277,12,0,88084,0:0:0:0:
