osu file format v13

[General]
AudioFilename: Univer Page.mp3
AudioLeadIn: 2000
PreviewTime: 51824
Countdown: 0
SampleSet: Soft
StackLeniency: 0.7
Mode: 0
LetterboxInBreaks: 0
WidescreenStoryboard: 0

[Editor]
DistanceSpacing: 1
BeatDivisor: 4
GridSize: 4
TimelineZoom: 1

[Metadata]
Title:Univer Page
TitleUnicode:ユニバーページ
Artist:Mimori Suzuko
ArtistUnicode:三森すずこ
Creator:Pandiar
Version:Normal
Source:Outbreak Company
Tags:アウトブレイク・カンパニー opening moeru shinryakusha myuseru petoraruka judydanny feel tv size
BeatmapID:309625
BeatmapSetID:120646

[Difficulty]
HPDrainRate:4
CircleSize:3
OverallDifficulty:4
ApproachRate:5
SliderMultiplier:1.2
SliderTickRate:1

[Events]
//Background and Video events
Video,0,"op.avi"
0,0,"BG.jpg",0,0
//Break Periods
//Storyboard Layer 0 (Background)
//Storyboard Layer 1 (Fail)
//Storyboard Layer 2 (Pass)
//Storyboard Layer 3 (Foreground)
//Storyboard Sound Samples
//Background Colour Transformations
3,100,163,162,255

[TimingPoints]
477,316.622691292876,4,2,1,60,1,0
3054,320.855614973262,4,2,1,60,1,0
10112,-100,4,2,1,45,0,0
13321,-100,4,2,1,50,0,0
33856,-100,4,2,1,45,0,0
36663,-100,4,2,2,45,0,0
36824,-100,4,2,1,45,0,0
37947,-100,4,2,2,45,0,0
38107,-100,4,2,1,45,0,0
41235,-100,4,2,1,50,0,0
51342,-100,4,2,1,45,0,0
51824,-100,4,2,1,80,0,1
61449,-100,4,2,1,60,0,0
62091,-100,4,2,1,80,0,1
70032,-100,4,2,2,70,0,1
70193,-100,4,2,1,80,0,1
71075,-100,4,2,1,70,0,0
74925,-100,4,2,1,55,0,0
77492,-100,4,2,1,70,0,0
82947,-100,4,2,1,30,0,0
85193,-100,4,2,1,70,0,0
85353,-100,4,2,1,10,0,0
87759,-100,4,2,1,5,0,0

[Colours]
Combo1 : 163,70,255
Combo2 : 244,79,129

[HitObjects]
128,120,3054,6,0,P|192:104|248:120,1,120,4|8,0:0|0:0,0:0:0:0:
312,220,3695,2,0,P|256:236|184:220,1,120,2|8,0:0|0:0,0:0:0:0:
128,120,4337,1,4,0:0:0:0:
72,224,4658,2,0,P|48:280|56:352,2,120,8|2|8,0:0|0:0|0:0,0:0:0:0:
164,300,5620,6,0,P|224:312|300:300,1,120,4|8,0:0|0:0,0:0:0:0:
396,264,6262,1,2,0:0:0:0:
308,180,6583,1,8,0:0:0:0:
428,168,6904,2,0,P|404:108|360:72,1,120,2|8,0:0|0:0,0:0:0:0:
244,80,7545,1,2,0:0:0:0:
196,192,7866,1,8,0:0:0:0:
256,192,8187,12,2,10112,0:0:0:0:
192,128,10754,6,0,L|72:128,2,120,4|2|2,0:0|0:0|0:0,0:0:0:0:
344,312,12037,2,0,P|376:264|368:188,1,120,4|0,0:0|0:0,0:0:0:0:
336,88,12679,1,4,0:0:0:0:
216,68,13000,1,0,0:0:0:0:
120,136,13321,6,0,P|104:192|120:256,1,120,4|8,0:0|0:0,0:0:0:0:
208,324,13963,1,2,0:0:0:0:
312,264,14283,2,0,P|256:212|216:204,1,120,8|2,0:0|0:0,0:0:0:0:
120,136,14925,1,8,0:0:0:0:
220,68,15246,2,0,P|276:60|340:68,1,120,2|8,0:0|0:0,0:0:0:0:
348,188,15888,6,0,P|292:196|228:188,1,120,2|8,0:0|0:0,0:0:0:0:
120,136,16529,2,0,P|104:192|120:256,1,120,2|8,0:0|0:0,0:0:0:0:
212,328,17171,2,0,P|272:336|344:324,1,120,2|8,0:0|0:0,0:0:0:0:
388,316,17652,1,2,0:0:0:0:
224,240,18134,2,8,L|152:240,1,60,8|0,0:0|0:0,0:0:0:0:
132,192,18455,6,0,P|116:136|136:72,1,120,4|8,0:0|0:0,0:0:0:0:
236,140,19096,2,0,L|304:140,1,60,2|0,0:0|0:0,0:0:0:0:
352,120,19417,1,8,0:0:0:0:
408,92,19578,2,0,P|440:172|408:268,1,180,2|8,0:0|0:0,0:0:0:0:
312,304,20380,1,2,0:0:0:0:
192,304,20701,1,8,0:0:0:0:
312,304,21021,6,0,P|328:244|312:176,2,120,2|8|2,0:0|0:0|0:0,0:0:0:0:
208,240,21984,1,8,0:0:0:0:
132,148,22305,1,8,0:0:0:0:
36,216,22626,2,0,L|60:280,2,60,8|2|0,0:0|0:0|0:0,0:0:0:0:
100,112,23267,2,0,L|180:112,1,60,8|2,0:0|0:0,0:0:0:0:
212,80,23588,6,0,P|200:136|212:200,1,120,4|8,0:0|0:0,0:0:0:0:
244,316,24230,2,0,L|304:316,2,60,2|0|8,0:0|0:0|0:0,0:0:0:0:
184,304,24711,2,0,P|112:256|104:160,1,180,2|8,0:0|0:0,0:0:0:0:
160,64,25513,1,2,0:0:0:0:
232,160,25834,1,8,0:0:0:0:
304,64,26155,6,0,P|360:52|424:64,1,120,4|8,0:0|0:0,0:0:0:0:
348,160,26797,2,0,P|288:172|232:160,1,120,4|8,0:0|0:0,0:0:0:0:
160,64,27439,2,0,L|72:152,1,120,2|10,0:0|0:0,0:0:0:0:
168,224,28080,2,0,L|296:224,1,120,2|8,0:0|0:0,0:0:0:0:
352,124,28722,6,0,L|224:124,1,120,4|8,0:0|0:0,0:0:0:0:
124,180,29364,2,0,P|108:124|124:64,2,120,2|8|6,0:0|0:0|0:0,0:0:0:0:
220,256,30326,1,8,0:0:0:0:
328,200,30647,2,0,L|392:200,2,60,2|0|8,0:0|0:0|0:0,0:0:0:0:
220,256,31289,6,4,P|204:200|224:136,1,120,4|8,0:0|0:0,0:0:0:0:
288,40,31931,2,0,P|232:32|168:40,1,120,4|8,0:0|0:0,0:0:0:0:
96,136,32572,2,0,P|96:232|80:256,1,120,4|8,0:0|0:0,0:0:0:0:
192,296,33214,2,0,P|252:280|312:236,1,120,2|8,0:0|0:0,0:0:0:0:
364,144,33856,6,0,P|308:124|248:144,1,120,4|8,0:0|0:0,0:0:0:0:
156,216,34497,1,2,0:0:0:0:
232,308,34818,1,8,0:0:0:0:
156,216,35139,2,0,P|136:156|148:92,2,120,4|8|2,0:0|0:0|0:0,0:0:0:0:
256,152,36102,1,8,0:0:0:0:
364,100,36422,6,0,P|420:196|372:312,1,240,4|2,0:0|0:0,0:0:0:0:
256,332,37385,1,8,0:0:0:0:
136,320,37706,2,0,P|80:224|128:108,1,240,4|2,0:0|0:0,0:0:0:0:
240,88,38668,1,8,0:0:0:0:
340,152,38989,6,0,P|400:164|476:140,2,120,4|8|2,0:0|0:0|0:0,0:0:0:0:
240,88,39952,1,8,0:0:0:0:
140,156,40273,2,0,P|80:168|4:144,2,120,4|8|2,0:0|0:0|0:0,0:0:0:0:
240,88,41235,6,0,L|240:164,1,60,8|4,0:0|0:0,0:0:0:0:
240,328,41877,1,2,0:0:0:0:
168,232,42198,1,2,0:0:0:0:
100,328,42519,6,0,L|32:328,1,60,8|4,0:0|0:0,0:0:0:0:
152,188,43160,1,2,0:0:0:0:
228,280,43481,1,2,0:0:0:0:
348,272,43802,2,0,L|416:272,1,60,8|0,0:0|0:0,0:0:0:0:
468,256,44123,6,0,P|492:184|472:128,2,120,4|8|2,0:0|0:0|0:0,0:0:0:0:
348,272,45086,2,0,L|348:348,1,60,8|4,0:0|0:0,0:0:0:0:
244,188,45727,1,8,0:0:0:0:
124,184,46048,2,0,L|124:252,2,60,2|0|8,0:0|0:0|0:0,0:0:0:0:
68,76,46690,6,0,P|128:60|188:80,1,120,4|8,0:0|0:0,0:0:0:0:
284,140,47332,2,0,P|300:72|288:12,2,120,2|8|2,0:0|0:0|0:0,0:0:0:0:
260,256,48294,2,0,L|336:236,1,60,8|2,0:0|0:0,0:0:0:0:
432,204,48775,2,0,L|424:264,2,60,2|8|0,0:0|0:0|0:0,0:0:0:0:
440,144,49257,6,0,P|320:160|256:64,1,240,4|2,0:0|0:0,0:0:0:0:
76,80,50380,1,8,0:0:0:0:
64,200,50701,2,4,L|44:336,2,120,4|4|2,0:0|0:0|0:0,0:0:0:0:
208,92,51824,6,4,L|188:228,1,120,4|8,0:0|0:0,0:0:0:0:
180,332,52465,2,0,P|232:340|308:332,1,120,2|8,0:0|0:0,0:0:0:0:
356,312,52947,2,0,P|348:216|264:172,1,180,4|8,0:0|0:0,0:0:0:0:
176,232,53749,2,4,P|160:172|184:100,1,120,2|8,0:0|0:0,0:0:0:0:
200,64,54230,6,0,P|284:108|368:84,1,180,4|8,0:0|0:0,0:0:0:0:
452,168,55032,1,2,0:0:0:0:
368,252,55353,1,8,0:0:0:0:
268,320,55674,2,0,P|176:328|144:320,1,120,4|8,0:0|0:0,0:0:0:0:
48,256,56316,2,0,L|48:136,1,120,2|8,0:0|0:0,0:0:0:0:
168,156,56957,6,0,P|184:92|168:32,2,120,4|8|2,0:0|0:0|0:0,0:0:0:0:
144,272,57920,1,8,0:0:0:0:
236,348,58241,1,2,0:0:0:0:
328,268,58562,1,8,0:0:0:0:
236,192,58882,2,0,L|236:72,1,120,2|8,0:0|0:0,0:0:0:0:
348,32,59524,6,0,P|360:96|356:164,1,120,4|8,0:0|0:0,0:0:0:0:
328,268,60166,2,0,P|264:292|196:292,1,120,2|8,0:0|0:0,0:0:0:0:
152,300,60647,1,4,0:0:0:0:
80,204,60968,2,0,L|80:64,1,120,2|8,0:0|0:0,0:0:0:0:
136,64,61449,2,0,L|204:64,1,60,8|8,0:0|0:0,0:0:0:0:
360,144,62091,6,4,P|372:200|356:260,1,120,4|8,0:0|0:0,0:0:0:0:
252,196,62733,2,0,P|188:188|124:196,1,120,2|8,0:0|0:0,0:0:0:0:
44,272,63374,1,2,0:0:0:0:
144,336,63695,1,8,0:0:0:0:
264,340,64016,2,0,P|316:300|320:240,1,120,2|8,0:0|0:0,0:0:0:0:
264,144,64658,5,2,0:0:0:0:
144,144,64979,1,8,0:0:0:0:
200,248,65299,2,0,P|144:260|76:248,1,120,2|8,0:0|0:0,0:0:0:0:
144,144,65941,2,0,L|144:16,2,120,4|8|4,0:0|0:0|0:0,0:0:0:0:
200,248,66904,1,8,0:0:0:0:
264,144,67225,6,0,P|320:132|384:144,1,120,4|8,0:0|0:0,0:0:0:0:
464,232,67866,2,8,P|492:292|480:348,1,120,2|8,0:0|0:0,0:0:0:0:
364,336,68508,2,0,P|304:344|244:336,1,120,4|8,0:0|0:0,0:0:0:0:
124,324,69150,2,0,P|104:260|112:184,1,120,4|8,0:0|0:0,0:0:0:0:
132,92,69791,6,0,P|248:60|340:140,1,240,4|2,0:0|0:0,0:0:0:0:
328,248,70754,1,8,0:0:0:0:
212,224,71075,2,0,L|212:304,1,60,2|4,0:0|0:0,0:0:0:0:
72,168,71717,2,0,L|72:88,1,60,2|4,0:0|0:0,0:0:0:0:
212,224,72358,6,0,L|408:200,1,180,4|0,0:0|0:0,0:0:0:0:
460,300,73160,1,2,0:0:0:0:
492,184,73481,6,0,P|448:112|352:108,1,180,4|0,0:0|0:0,0:0:0:0:
316,216,74283,2,0,L|336:352,2,120,2|0|4,0:0|0:0|0:0,0:0:0:0:
164,32,75567,5,4,0:0:0:0:
52,244,76209,1,4,0:0:0:0:
292,240,76850,1,2,0:0:0:0:
164,36,77492,6,0,L|132:160,1,120,4|8,0:0|0:0,0:0:0:0:
20,196,78134,2,0,P|48:248|104:272,1,120,2|8,0:0|0:0,0:0:0:0:
212,224,78775,2,0,P|272:212|328:236,1,120,2|8,0:0|0:0,0:0:0:0:
444,252,79417,2,0,L|444:128,1,120,2|8,0:0|0:0,0:0:0:0:
348,60,80059,5,4,0:0:0:0:
256,136,80380,1,8,0:0:0:0:
164,60,80701,2,0,P|132:128|144:188,1,120,2|8,0:0|0:0,0:0:0:0:
112,288,81342,2,0,L|240:312,1,120,2|8,0:0|0:0,0:0:0:0:
352,320,81984,1,2,0:0:0:0:
324,204,82305,1,8,0:0:0:0:
204,212,82626,6,0,B|116:196|100:132|108:36|160:-4|232:8|256:72|256:72|280:8|352:-4|404:36|412:132|396:196|308:212|308:212|304:264|264:296|264:296|264:340,1,840,4|2,0:0|0:0,0:0:0:0:
148,308,85193,1,4,0:0:0:0:
256,192,85353,12,0,87759,0:0:0:0:
