osu file format v14

[General]
AudioFilename: hhc.mp3
AudioLeadIn: 0
PreviewTime: 239624
Countdown: 0
SampleSet: Soft
StackLeniency: 0.5
Mode: 0
LetterboxInBreaks: 0
WidescreenStoryboard: 0

[Editor]
DistanceSpacing: 1.3
BeatDivisor: 6
GridSize: 32
TimelineZoom: 1.32

[Metadata]
Title:Happy Happy Christmas
TitleUnicode:ハッピーハッピークリスマス
Artist:Mimori Suzuko
ArtistUnicode:三森すずこ
Creator:Underforest
Version:Ding Dong!
Source:
Tags:きゃにめ限定CD③ xmas x-mas marathon
BeatmapID:1460405
BeatmapSetID:689985

[Difficulty]
HPDrainRate:6
CircleSize:4
OverallDifficulty:8
ApproachRate:9.3
SliderMultiplier:2.4
SliderTickRate:1

[Events]
//Background and Video events
0,0,"bg.jpg",0,0
//Break Periods
//Storyboard Layer 0 (Background)
//Storyboard Layer 1 (Fail)
//Storyboard Layer 2 (Pass)
//Storyboard Layer 3 (Foreground)
//Storyboard Sound Samples

[TimingPoints]
4057,788.954635108481,4,2,1,30,1,0
7214,766.283524904215,4,2,1,30,1,0
7980,815.217391304348,4,2,1,30,1,0
8665,789.473684210526,4,2,1,30,1,0
8796,815.549816501291,4,2,1,30,1,0
9612,756.620428751576,4,2,1,30,1,0
9991,758.533501896334,4,2,1,30,1,0
10370,789.473684210526,4,2,1,30,1,0
11948,802.675585284281,4,2,1,30,1,0
13153,787.918581746553,4,2,1,30,1,0
13546,845.070422535211,4,2,1,30,1,0
13969,831.024930747922,4,2,1,30,1,0
14384,953.137410643368,4,2,1,30,1,0
15337,1148.32535885167,4,2,1,30,1,0
20160,357.142857142857,4,2,1,50,1,0
20160,-133.333333333333,4,2,1,50,0,0
25874,-133.333333333333,4,2,1,60,0,0
31588,-100,4,2,1,70,0,0
60159,-133.333333333333,4,2,1,60,0,0
68731,-100,4,2,1,70,0,0
80159,-90.9090909090909,4,2,1,80,0,1
101469,-133.333333333333,4,2,1,60,0,1
103017,-200,4,2,1,50,0,0
118731,-133.333333333333,4,2,1,60,0,0
127302,-100,4,2,1,70,0,0
133017,-200,4,2,1,50,0,0
138731,-133.333333333333,4,2,1,60,0,0
143731,-100,4,2,1,60,0,0
144445,-100,4,2,1,70,0,0
155874,-133.333333333333,4,2,1,60,0,0
164445,-100,4,2,1,70,0,0
175874,-90.9090909090909,4,2,1,80,0,1
197183,-133.333333333333,4,2,1,70,0,1
198731,-133.333333333333,4,2,1,60,0,0
210159,-100,4,2,1,70,0,0
221588,-133.333333333333,4,2,1,60,0,0
227302,-200,4,2,1,50,0,0
237302,-133.333333333333,4,2,1,60,0,0
238731,-100,4,2,1,70,0,0
240159,-90.9090909090909,4,2,1,80,0,1
261469,-133.333333333333,4,2,1,60,0,1
263017,-200,4,2,1,50,0,0
278731,-100,4,2,1,60,0,0
281588,-100,4,2,1,70,0,0
291469,-133.333333333333,4,2,1,60,0,0
293017,-200,4,2,1,50,0,0
304445,955.414012738854,4,2,1,50,1,0
305400,480,4,2,1,50,1,0
305638,714.285714285714,4,2,1,50,1,0
306352,-100,4,2,1,45,0,0
307066,-100,4,2,1,40,0,0
307780,-100,4,2,1,35,0,0
308495,-100,4,2,1,30,0,0
309209,-100,4,2,1,25,0,0
309804,-100,4,2,1,5,0,0

[Colours]
Combo1 : 206,2,223
Combo2 : 243,26,1
Combo3 : 3,103,214
Combo4 : 146,247,34
Combo5 : 251,203,40

[HitObjects]
87,150,4057,6,0,P|153:136|215:158,1,120,2|2,0:0|0:0,0:0:0:0:
320,251,4845,2,0,P|262:265|204:251,1,120,2|2,0:0|0:0,0:0:0:0:
87,150,5634,2,0,L|105:28,1,120,2|2,0:0|0:0,0:0:0:0:
222,132,6423,2,0,L|204:250,1,120,2|2,0:0|0:0,0:0:0:0:
103,278,7081,6,0,L|99:259,2,20,2|2|2,0:0|0:0|0:0,0:0:0:0:
229,370,7597,1,2,0:0:0:0:
290,237,7980,1,2,0:0:0:0:
290,237,8665,6,0,L|295:267,2,20,2|2|2,0:0|0:0|0:0,0:0:0:0:
290,237,9612,1,2,0:0:0:0:
134,224,9991,1,2,0:0:0:0:
233,111,10370,6,0,P|280:95|360:122,1,120,2|0,0:0|0:0,0:0:0:0:
293,258,11160,2,0,P|211:263|84:163,1,240,2|2,0:0|0:0,0:0:0:0:
233,111,12348,1,2,0:0:0:0:
372,181,12750,2,0,L|498:172,1,120,0|2,0:0|0:0,0:0:0:0:
432,86,13415,6,0,L|398:88,2,20,2|2|2,0:0|0:0|0:0,0:0:0:0:
482,233,13968,1,2,0:0:0:0:
387,331,14384,1,2,0:0:0:0:
387,331,15019,2,0,P|352:334|306:320,1,80,0|2,0:0|0:0,0:0:0:0:
256,192,15528,12,2,17633,0:3:0:0:
302,102,20160,6,0,L|395:86,2,60.0000022888184,2|0|0,0:0|0:0|0:0,0:0:0:0:
203,146,20517,2,0,L|110:130,2,60.0000022888184,2|0|0,0:0|0:0|0:0,0:0:0:0:
288,211,20874,1,2,0:0:0:0:
288,211,21231,6,0,P|246:250|144:247,1,120.000004577637,2|0,0:0|0:0,0:0:0:0:
203,146,21588,1,2,0:0:0:0:
203,146,21945,6,0,P|209:84|255:33,1,120.000004577637,2|0,0:0|0:0,0:0:0:0:
304,124,22302,1,2,0:0:0:0:
304,124,22660,6,0,L|292:252,1,120.000004577637,2|0,0:0|0:0,0:0:0:0:
208,317,23017,6,0,P|159:326|134:322,2,60.0000022888184,2|0|0,0:0|0:0|0:0,0:0:0:0:
162,219,23374,2,0,P|120:209|94:186,2,60.0000022888184,2|0|0,0:0|0:0|0:0,0:0:0:0:
206,120,23731,1,2,0:0:0:0:
206,120,24088,6,0,P|248:110|328:144,1,120.000004577637,2|0,0:0|0:0,0:0:0:0:
252,220,24445,1,2,0:0:0:0:
76,148,24683,1,0,0:0:0:0:
76,148,24802,6,0,L|64:272,1,120.000004577637,2|0,0:0|0:0,0:0:0:0:
166,304,25160,2,0,L|177:184,1,120.000004577637,2|0,3:2|0:0,0:0:0:0:
283,164,25517,2,0,L|271:283,1,120.000004577637,0|0,3:0|0:0,0:0:0:0:
164,384,25874,5,6,0:0:0:0:
110,359,25993,1,0,0:0:0:0:
89,304,26112,1,0,0:0:0:0:
144,234,26231,5,2,0:0:0:0:
171,221,26350,1,0,0:0:0:0:
201,222,26469,1,0,0:0:0:0:
271,283,26588,6,0,P|331:308|426:234,1,180.000006866455,4|0,3:0|0:0,0:0:0:0:
333,107,27183,1,0,0:0:0:0:
333,107,27302,6,0,P|334:149|335:228,1,120.000004577637,2|0,0:0|0:0,0:0:0:0:
336,349,27659,1,2,0:0:0:0:
181,273,27898,1,8,3:0:0:0:
181,273,28017,2,0,P|125:289|61:270,1,120.000004577637,2|0,3:2|0:0,0:0:0:0:
11,163,28374,2,0,P|67:147|131:166,1,120.000004577637,0|0,3:0|0:0,0:0:0:0:
247,188,28731,5,8,0:0:0:0:
247,188,29088,2,0,L|234:108,2,60.0000022888184,2|0|0,0:0|0:0|0:0,0:0:0:0:
267,324,29445,1,8,0:0:0:0:
267,324,29802,2,0,P|324:340|403:298,1,120.000004577637,2|0,0:0|0:0,0:0:0:0:
482,236,30159,5,8,0:0:0:0:
354,145,30398,1,0,0:0:0:0:
354,145,30517,2,0,L|372:75,2,60.0000022888184,0|0|8,3:0|3:0|3:2,0:0:0:0:
321,261,30874,1,8,0:0:0:0:
244,125,31112,1,0,0:0:0:0:
244,125,31231,1,8,0:0:0:0:
183,268,31469,1,0,0:0:0:0:
183,268,31588,6,0,L|15:282,1,160,4|2,0:0|0:0,0:0:0:0:
117,171,31945,2,0,L|285:185,1,160,10|0,0:0|0:0,0:0:0:0:
392,272,32302,2,0,P|429:195|401:117,1,160,2|0,0:0|0:0,0:0:0:0:
285,55,32659,1,10,0:0:0:0:
178,194,32898,1,0,0:0:0:0:
178,194,33017,6,0,P|176:239|187:290,1,80,2|0,0:0|0:0,0:0:0:0:
261,339,33255,1,0,0:0:0:0:
334,264,33374,2,0,B|421:246|409:295|493:270,1,160,8|2,0:0|0:0,0:0:0:0:
402,161,33731,2,0,L|242:145,1,160,0|0,0:0|0:0,0:0:0:0:
172,271,34088,2,0,L|347:288,1,160,8|0,0:0|0:0,0:0:0:0:
457,245,34445,6,0,P|501:185|467:85,1,160,0|2,0:0|0:0,0:0:0:0:
362,43,34802,2,0,P|285:27|222:72,1,160,10|0,0:0|0:0,0:0:0:0:
135,183,35159,2,0,B|189:193|189:193|242:178|242:178|306:188,1,160,2|0,0:0|0:0,0:0:0:0:
404,278,35517,2,0,B|350:268|350:268|297:283|297:283|247:275,1,160,10|0,0:0|0:0,0:0:0:0:
139,300,35874,5,2,0:0:0:0:
209,83,36112,1,0,0:0:0:0:
209,83,36231,5,8,0:0:0:0:
213,180,36350,1,8,0:0:0:0:
140,245,36469,1,10,0:0:0:0:
44,228,36588,5,8,0:0:0:0:
110,157,36707,1,8,0:0:0:0:
207,162,36826,1,8,0:0:0:0:
264,242,36945,5,8,0:0:0:0:
166,245,37064,1,8,0:0:0:0:
102,173,37183,1,8,0:0:0:0:
135,83,37302,6,0,P|199:57|290:97,1,160,4|0,0:0|0:0,0:0:0:0:
373,170,37659,2,0,L|208:185,1,160,8|0,0:0|0:0,0:0:0:0:
77,267,38017,2,0,B|140:300|140:300|265:277,1,160,0|0,0:0|0:0,0:0:0:0:
344,260,38374,1,8,0:0:0:0:
144,210,38612,1,0,0:0:0:0:
144,210,38731,6,0,P|123:151|177:62,1,160,0|0,0:0|0:0,0:0:0:0:
321,87,39088,2,0,P|285:154|210:148,1,160,8|0,0:0|0:0,0:0:0:0:
236,23,39445,1,0,0:0:0:0:
414,157,39683,1,0,0:0:0:0:
414,157,39802,2,0,L|407:322,1,160,8|0,0:0|0:0,0:0:0:0:
294,347,40159,6,0,P|248:371|137:318,1,160,0|0,0:0|0:0,0:0:0:0:
90,211,40517,2,0,P|163:184|247:235,1,160,8|0,0:0|0:0,0:0:0:0:
372,247,40874,2,0,B|395:283|438:288|438:288|503:259|480:151,1,160,0|0,0:0|0:0,0:0:0:0:
407,125,41231,1,8,0:0:0:0:
284,292,41469,1,0,0:0:0:0:
284,292,41588,6,0,B|241:287|213:319|213:319|204:276|144:256,1,160,0|0,0:0|0:0,0:0:0:0:
84,128,41945,2,0,B|127:133|155:101|155:101|164:144|224:164,1,160,8|0,0:0|0:0,0:0:0:0:
160,262,42302,2,0,P|95:281|1:256,1,160,0|0,0:0|0:0,0:0:0:0:
84,128,42659,1,8,0:0:0:0:
275,252,42898,1,0,0:0:0:0:
275,252,43017,6,0,B|354:229|350:286|446:257,1,160,0|0,0:0|0:0,0:0:0:0:
348,127,43374,2,0,L|183:134,1,160,8|0,0:0|0:0,0:0:0:0:
129,245,43731,2,0,B|150:367|150:367|180:311,1,160,0|0,0:0|0:0,0:0:0:0:
254,213,44088,1,8,0:0:0:0:
254,213,44326,6,0,B|189:201|189:201|94:218|94:218|16:198,1,240,0|0,0:0|0:0,0:0:0:0:
94,114,44802,2,0,B|186:99|186:99|265:113,1,160,8|0,0:0|0:0,0:0:0:0:
372,197,45159,2,0,P|393:248|364:348,1,160,0|0,0:0|0:0,0:0:0:0:
214,247,45517,2,0,P|252:216|313:283,1,160,8|0,0:0|0:0,0:0:0:0:
237,369,45874,5,0,0:0:0:0:
102,249,46112,1,0,0:0:0:0:
102,249,46231,2,0,P|85:188|125:102,1,160,8|0,0:0|0:0,0:0:0:0:
241,58,46588,2,0,P|299:44|405:93,1,160,0|0,0:0|0:0,0:0:0:0:
483,175,46945,1,8,0:0:0:0:
303,233,47183,1,4,0:0:0:0:
303,233,47302,6,0,P|268:247|212:235,1,80,8|0,0:0|0:0,0:0:0:0:
257,162,47540,1,0,0:0:0:0:
345,301,47659,2,0,P|276:326|159:295,1,160,8|0,0:0|0:0,0:0:0:0:
121,194,48017,5,2,0:0:0:0:
128,115,48136,1,2,0:0:0:0:
182,58,48255,1,2,0:0:0:0:
259,47,48374,2,0,L|400:65,2,80,8|0|0,0:0|0:0|0:0,0:0:0:0:
421,16,48731,6,0,P|429:72|357:147,1,160,2|0,0:0|0:0,0:0:0:0:
243,190,49088,2,0,L|225:362,1,160,8|0,0:0|0:0,0:0:0:0:
347,304,49445,2,0,L|363:144,1,160,0|0,0:0|0:0,0:0:0:0:
281,47,49802,1,8,0:0:0:0:
127,189,50040,1,2,0:0:0:0:
127,189,50159,6,0,P|92:149|122:47,1,160,2|0,0:0|0:0,0:0:0:0:
213,146,50517,2,0,P|248:186|218:288,1,160,8|0,0:0|0:0,0:0:0:0:
109,316,50874,1,0,0:0:0:0:
337,348,51112,1,0,0:0:0:0:
337,348,51231,2,0,L|511:341,1,160,8|2,0:0|0:0,0:0:0:0:
413,235,51588,6,0,B|428:159|428:159|406:51,1,160,2|0,0:0|0:0,0:0:0:0:
257,32,51945,2,0,B|240:112|240:112|255:188,1,160,8|0,0:0|0:0,0:0:0:0:
301,302,52302,2,0,P|239:307|142:237,1,160,2|0,0:0|0:0,0:0:0:0:
68,163,52659,1,8,0:0:0:0:
27,365,52898,1,2,0:0:0:0:
27,365,53017,6,0,L|2:201,1,160,2|0,0:0|0:0,0:0:0:0:
144,142,53374,2,0,L|119:300,1,160,8|0,0:0|0:0,0:0:0:0:
240,336,53731,2,0,P|309:356|386:310,1,160,0|0,0:0|0:0,0:0:0:0:
491,230,54088,2,0,L|307:207,1,160,8|0,0:0|0:0,0:0:0:0:
226,93,54445,6,0,B|300:67|300:67|404:115,1,160,0|0,0:0|0:0,0:0:0:0:
316,226,54802,2,0,L|132:203,1,160,8|0,0:0|0:0,0:0:0:0:
236,339,55159,2,0,L|394:358,1,160,0|0,0:0|0:0,0:0:0:0:
493,261,55517,1,8,0:0:0:0:
375,84,55755,1,0,0:0:0:0:
375,84,55874,6,0,P|311:63|226:90,1,160,2|0,0:0|0:0,0:0:0:0:
156,196,56231,2,0,P|220:217|305:190,1,160,8|0,0:0|0:0,0:0:0:0:
460,183,56588,2,0,L|477:14,1,160,0|0,0:0|0:0,0:0:0:0:
361,111,56945,2,0,L|344:270,1,160,8|0,0:0|0:0,0:0:0:0:
271,382,57302,5,4,0:0:0:0:
164,251,57540,1,0,0:0:0:0:
164,251,57659,2,0,P|120:262|7:209,1,160,8|0,0:0|0:0,0:0:0:0:
107,152,58017,2,0,L|272:169,1,160,2|0,0:0|0:0,0:0:0:0:
383,244,58374,2,0,B|406:170|406:170|382:81,1,160,8|0,0:0|0:0,0:0:0:0:
266,168,58731,5,2,0:0:0:0:
321,330,58969,1,4,3:0:0:0:
321,330,59088,1,8,3:0:0:0:
292,345,59207,1,8,3:0:0:0:
262,354,59326,1,8,3:0:0:0:
230,357,59445,1,8,3:0:0:0:
198,354,59564,1,8,3:0:0:0:
168,345,59683,1,0,3:0:0:0:
145,322,59802,5,8,3:2:0:0:
128,304,59921,1,8,3:2:0:0:
117,283,60040,1,8,3:2:0:0:
111,260,60159,6,0,L|315:252,1,180.000006866455,2|0,0:3|0:3,0:0:0:0:
369,132,60874,2,0,L|189:139,1,180.000006866455,0|0,0:3|0:3,0:0:0:0:
49,172,61588,1,2,0:3:0:0:
163,258,61945,1,0,0:3:0:0:
213,123,62302,2,0,P|273:107|341:128,1,120.000004577637,0|0,0:3|0:3,0:0:0:0:
370,143,62659,1,0,0:3:0:0:
269,246,63017,6,0,P|204:261|100:194,1,180.000006866455,2|0,0:3|0:3,0:0:0:0:
144,69,63731,2,0,P|209:54|313:121,1,180.000006866455,0|0,0:3|0:3,0:0:0:0:
448,108,64445,5,2,0:3:0:0:
305,125,64802,1,0,0:3:0:0:
448,125,65159,2,0,L|436:326,1,180.000006866455,0|0,0:3|0:3,0:0:0:0:
306,359,65755,1,0,0:3:0:0:
306,359,65874,6,0,P|227:372|144:311,1,180.000006866455,2|0,0:3|0:3,0:0:0:0:
58,205,66588,2,0,L|244:193,1,180.000006866455,0|0,0:3|0:3,0:0:0:0:
365,127,67302,1,2,0:3:0:0:
233,67,67659,1,0,0:3:0:0:
312,187,68017,1,0,0:3:0:0:
400,73,68374,1,0,0:3:0:0:
448,155,68612,1,4,3:0:0:0:
448,155,68731,6,0,P|461:234|402:324,1,160,2|0,0:0|0:0,0:0:0:0:
227,211,69088,2,0,B|300:181|300:181|385:222,1,160,8|0,0:0|0:0,0:0:0:0:
300,321,69445,2,0,L|118:296,1,160,0|0,0:0|0:0,0:0:0:0:
24,236,69802,1,8,0:0:0:0:
210,140,70040,1,0,0:0:0:0:
210,140,70159,6,0,B|234:116|264:103|264:103|304:146|378:121,1,160,2|0,0:0|0:0,0:0:0:0:
473,72,70517,2,0,P|383:32|305:75,1,160,10|0,0:0|0:0,0:0:0:0:
314,204,70874,2,0,P|404:244|482:201,1,160,2|0,0:0|0:0,0:0:0:0:
350,128,71231,2,0,L|163:147,1,160,10|2,0:0|0:0,0:0:0:0:
62,169,71588,5,2,0:0:0:0:
168,336,71826,1,0,0:0:0:0:
168,336,71945,2,0,P|214:305|317:340,1,160,8|0,0:0|0:0,0:0:0:0:
426,224,72302,2,0,L|418:383,1,160,0|0,0:0|0:0,0:0:0:0:
335,250,72660,2,0,L|326:56,1,160,8|0,0:0|0:0,0:0:0:0:
432,145,73017,6,0,P|483:146|520:135,2,80,2|0|0,3:2|3:0|3:0,0:0:0:0:
327,90,73374,2,0,P|235:69|163:134,1,160,10|0,0:0|0:0,0:0:0:0:
112,189,73731,6,0,P|61:188|24:199,2,80,2|0|0,3:2|3:2|3:2,0:0:0:0:
214,234,74088,2,0,P|149:226|75:290,1,160,10|0,0:0|0:0,0:0:0:0:
172,334,74445,5,4,0:0:0:0:
172,334,74802,2,0,L|339:309,1,160,8|0,0:0|0:0,0:0:0:0:
467,227,75159,2,0,L|300:202,1,160,0|0,0:0|0:0,0:0:0:0:
156,128,75517,2,0,L|323:103,1,160,8|0,0:0|0:0,0:0:0:0:
436,140,75874,6,0,P|383:201|285:189,1,160
226,80,76231,1,8,0:0:0:0:
117,224,76469,1,0,0:0:0:0:
117,224,76588,2,0,P|92:278|129:368,1,160,0|0,0:0|0:0,0:0:0:0:
267,297,76945,2,0,L|148:286,2,80,8|0|0,0:0|0:0|0:0,0:0:0:0:
397,303,77302,5,8,3:0:0:0:
226,72,77659,1,8,3:0:0:0:
138,347,78017,1,8,3:0:0:0:
248,203,78255,1,4,3:0:0:0:
248,203,78374,1,4,3:0:0:0:
385,342,78612,6,0,P|435:309|409:123,1,240,2|0,0:0|0:0,0:0:0:0:
330,186,79088,5,8,3:0:0:0:
233,190,79207,1,8,3:0:0:0:
168,117,79326,1,8,3:0:0:0:
185,21,79445,5,4,3:0:0:0:
256,87,79564,1,4,3:0:0:0:
251,184,79683,1,4,3:0:0:0:
171,241,79802,5,8,0:0:0:0:
168,143,79921,1,8,0:0:0:0:
240,79,80040,1,8,0:0:0:0:
345,68,80159,6,0,P|419:75|468:194,1,176.000005371094,6|0,0:0|0:0,0:0:0:0:
404,325,80517,2,0,L|379:142,1,176.000005371094,8|0,0:0|0:0,0:0:0:0:
245,64,80874,2,0,L|221:238,1,176.000005371094,0|0,0:0|0:0,0:0:0:0:
200,371,81231,1,8,0:0:0:0:
55,222,81469,1,0,0:0:0:0:
55,222,81588,6,0,P|37:158|120:86,1,176.000005371094,2|0,0:0|0:0,0:0:0:0:
201,216,81945,2,0,P|219:280|136:352,1,176.000005371094,8|0,0:0|0:0,0:0:0:0:
118,169,82302,2,0,L|310:150,1,176.000005371094,2|0,0:0|0:0,0:0:0:0:
428,143,82659,1,8,0:0:0:0:
486,312,82898,1,0,0:0:0:0:
486,312,83017,6,0,P|431:327|329:267,1,176.000005371094,2|0,0:0|0:0,0:0:0:0:
358,141,83374,2,0,P|413:126|515:186,1,176.000005371094,8|0,0:0|0:0,0:0:0:0:
388,221,83731,2,0,L|194:239,1,176.000005371094,0|0,0:0|0:0,0:0:0:0:
70,248,84088,1,8,0:0:0:0:
70,248,84326,1,0,0:0:0:0:
139,169,84445,6,0,P|188:120|316:161,1,176.000005371094,2|0,0:0|0:0,0:0:0:0:
357,277,84802,2,0,P|284:278|228:189,1,176.000005371094,8|0,0:0|0:0,0:0:0:0:
380,167,85159,1,2,0:0:0:0:
255,349,85398,1,0,0:0:0:0:
255,349,85517,1,10,0:0:0:0:
221,118,85755,1,0,0:0:0:0:
221,118,85874,6,0,P|143:96|59:136,1,176.000005371094,0|0,0:0|0:0,0:0:0:0:
204,230,86231,2,0,P|282:208|366:248,1,176.000005371094,8|0,0:0|0:0,0:0:0:0:
450,348,86588,2,0,L|470:167,1,176.000005371094,0|0,0:0|0:0,0:0:0:0:
374,94,86945,2,0,P|325:86|263:79,1,88.000002685547,8|0,3:2|3:2,0:0:0:0:
185,104,87183,1,0,3:2:0:0:
272,174,87302,6,0,P|281:268|172:332,1,176.000005371094,2|0,0:0|0:0,0:0:0:0:
97,199,87659,2,0,B|151:145|151:145|213:250,1,176.000005371094,8|0,0:0|0:0,0:0:0:0:
92,288,88017,2,0,P|49:272|36:135,1,176.000005371094,0|0,0:0|0:0,0:0:0:0:
158,62,88374,2,0,L|340:69,1,176.000005371094,8|0,0:0|0:0,0:0:0:0:
479,140,88731,6,0,P|406:184|275:110,1,176.000005371094,2|0,0:0|0:0,0:0:0:0:
230,68,89088,2,0,L|221:254,1,176.000005371094,8|0,0:0|0:0,0:0:0:0:
319,336,89445,2,0,P|366:325|395:284,1,88.000002685547,0|0,3:0|3:0,0:0:0:0:
321,254,89683,1,0,3:0:0:0:
242,336,89802,2,0,B|183:325|183:325|130:336|130:336|62:319,1,176.000005371094,10|0,0:0|0:0,0:0:0:0:
130,256,90159,5,10,0:0:0:0:
306,233,90398,2,0,L|395:226,1,88.000002685547,0|10,0:0|0:0,0:0:0:0:
181,174,90755,2,0,L|92:167,1,88.000002685547,0|10,0:0|0:0,0:0:0:0:
287,79,91112,2,0,L|376:72,1,88.000002685547,2|10,0:0|0:0,0:0:0:0:
477,257,91469,1,2,0:0:0:0:
477,257,91588,6,0,P|424:285|322:225,1,176.000005371094,2|0,0:0|0:0,0:0:0:0:
208,193,91945,2,0,L|397:174,1,176.000005371094,8|0,0:0|0:0,0:0:0:0:
276,314,92302,2,0,L|87:295,1,176.000005371094,0|0,0:0|0:0,0:0:0:0:
28,201,92659,1,10,0:0:0:0:
186,57,92898,1,0,0:0:0:0:
186,57,93017,6,0,P|160:116|224:209,1,176.000005371094,0|0,0:0|0:0,0:0:0:0:
406,120,93374,2,0,B|345:99|345:99|300:139|228:120,1,176.000005371094,8|0,0:0|0:0,0:0:0:0:
402,200,93731,2,0,P|442:193|448:53,1,176.000005371094,2|0,0:0|0:0,0:0:0:0:
279,38,94088,1,10,0:0:0:0:
308,247,94326,1,0,0:0:0:0:
308,247,94445,6,0,L|129:261,1,176.000005371094,2|0,0:0|0:0,0:0:0:0:
230,133,94802,2,0,L|405:119,1,176.000005371094,8|0,0:0|0:0,0:0:0:0:
301,264,95159,2,0,L|122:278,1,176.000005371094,0|0,0:0|0:0,0:0:0:0:
37,171,95517,1,8,0:0:0:0:
230,133,95755,1,0,0:0:0:0:
230,133,95874,6,0,P|295:178|396:123,1,176.000005371094,2|0,0:0|0:0,0:0:0:0:
487,45,96231,2,0,L|472:240,1,176.000005371094,8|0,0:0|0:0,0:0:0:0:
321,274,96588,2,0,L|307:98,1,176.000005371094,0|0,0:0|0:0,0:0:0:0:
328,13,96945,2,0,P|362:29|394:86,1,88.000002685547,10|0,0:0|0:0,0:0:0:0:
396,177,97183,1,0,0:0:0:0:
396,177,97302,6,0,P|318:154|212:212,1,176.000005371094,2|0,0:0|0:0,0:0:0:0:
242,336,97659,6,0,P|319:358|425:300,1,176.000005371094,12|0,0:0|0:0,0:0:0:0:
493,238,98017,2,0,L|511:63,1,176.000005371094,0|0,0:0|0:0,0:0:0:0:
391,21,98374,1,8,0:0:0:0:
288,190,98612,1,8,0:3:0:0:
288,190,98731,6,0,B|224:164|193:237|105:190,1,176.000005371094,2|0,0:0|0:0,0:0:0:0:
244,113,99088,2,0,P|336:116|376:187,1,176.000005371094,8|0,0:0|0:0,0:0:0:0:
360,312,99445,2,0,P|281:264|299:176,1,176.000005371094,0|0,0:0|0:0,0:0:0:0:
455,225,99802,1,10,0:0:0:0:
370,18,100040,1,0,0:0:0:0:
370,18,100159,5,2,0:0:0:0:
412,97,100517,1,2,0:0:0:0:
456,181,100874,1,2,0:0:0:0:
498,257,101231,1,2,0:0:0:0:
479,297,101350,1,2,0:0:0:0:
461,321,101469,6,0,P|414:345|305:292,1,180.000006866455,4|0,0:0|0:0,0:0:0:0:
273,222,101946,2,0,L|247:24,1,180.000006866455,2|0,0:0|0:0,0:0:0:0:
461,142,102659,1,2,0:0:0:0:
461,142,103017,6,0,P|481:194|459:262,1,120,0|2,0:0|0:0,0:0:0:0:
272,248,103731,2,0,P|252:196|274:128,1,120,0|2,0:0|0:0,0:0:0:0:
346,311,104445,2,0,L|224:330,1,120,0|2,0:0|0:0,0:0:0:0:
358,188,105159,2,0,L|446:205,1,80,0|0,0:0|0:0,0:0:0:0:
475,215,105517,1,2,0:0:0:0:
475,215,105874,5,0,0:0:0:0:
311,115,106231,1,2,0:0:0:0:
504,115,106588,1,0,0:0:0:0:
340,215,106945,1,2,0:0:0:0:
407,35,107302,5,2,0:3:0:0:
256,192,107421,12,0,109743,0:0:0:0:
145,200,110159,6,0,P|203:220|262:206,1,120,2|0,0:3|0:0,0:0:0:0:
391,150,110755,1,0,0:0:0:0:
391,150,110874,2,0,L|385:259,1,80,2|0,0:3|0:0,0:0:0:0:
315,242,111231,2,0,L|319:162,1,80,0|0,0:0|0:0,0:0:0:0:
344,94,111588,5,2,0:3:0:0:
136,35,111945,2,0,P|87:31|26:55,1,80,0|0,0:0|0:0,0:0:0:0:
28,104,112302,2,0,L|18:183,1,80,0|0,0:0|0:0,0:0:0:0:
48,248,112659,2,0,L|38:327,1,80,2|0,0:0|0:0,0:0:0:0:
102,359,113017,6,0,P|141:368|187:358,1,80,0|0,0:0|0:0,0:0:0:0:
237,317,113374,2,0,P|276:308|322:318,1,80,2|0,0:0|0:0,0:0:0:0:
385,326,113731,2,0,L|394:229,1,80,0|0,0:0|0:0,0:0:0:0:
440,192,114088,2,0,L|449:95,1,80,2|0,0:0|0:0,0:0:0:0:
382,82,114445,6,0,P|343:91|297:81,1,80,0|0,0:0|0:0,0:0:0:0:
247,40,114802,2,0,P|208:31|162:41,1,80,2|0,0:0|0:0,0:0:0:0:
110,79,115159,1,0,0:0:0:0:
110,79,115517,1,0,0:0:0:0:
110,79,115874,6,0,P|71:213|235:194,1,360,2|0,0:3|0:0,0:0:0:0:
148,164,117302,5,2,0:3:0:0:
256,192,117421,12,0,118612,0:0:0:0:
227,138,118731,6,0,P|262:148|333:108,1,120.000004577637,2|0,0:0|0:0,0:0:0:0:
265,72,119089,2,0,P|233:62|159:102,1,120.000004577637,2|0,0:0|0:0,0:0:0:0:
130,170,119445,2,0,L|119:303,1,120.000004577637,2|0,0:0|0:0,0:0:0:0:
116,367,119802,1,2,0:0:0:0:
265,321,120040,1,0,0:0:0:0:
265,321,120159,6,0,L|387:331,1,120.000004577637,2|0,0:0|0:0,0:0:0:0:
418,260,120517,2,0,L|298:250,1,120.000004577637,2|0,0:0|0:0,0:0:0:0:
243,194,120874,2,0,P|232:140|258:76,1,120.000004577637,2|0,0:0|0:0,0:0:0:0:
310,26,121231,1,2,0:0:0:0:
310,26,121588,6,0,P|369:21|448:79,1,120.000004577637,2|0,0:0|0:0,0:0:0:0:
469,108,121945,1,2,0:0:0:0:
400,247,122183,1,2,0:0:0:0:
400,247,122302,2,0,L|393:371,1,120.000004577637,0|0,0:0|0:0,0:0:0:0:
317,349,122659,2,0,L|323:229,1,120.000004577637,0|0,0:0|0:0,0:0:0:0:
254,192,123017,6,0,P|196:169|135:199,1,120.000004577637,0|0,0:0|0:0,0:0:0:0:
197,245,123374,2,0,P|196:304|143:355,1,120.000004577637,0|0,0:0|0:0,0:0:0:0:
125,277,123731,2,0,P|76:248|57:176,1,120.000004577637,0|0,0:0|0:0,0:0:0:0:
69,114,124088,1,2,0:0:0:0:
69,114,124445,6,0,L|195:97,1,120.000004577637,2|0,0:0|0:0,0:0:0:0:
265,90,124802,1,2,0:0:0:0:
403,161,125040,1,2,0:0:0:0:
403,161,125159,2,0,P|418:225|393:291,1,120.000004577637,0|0,0:0|0:0,0:0:0:0:
324,275,125517,2,0,P|309:211|334:145,1,120.000004577637,0|0,0:0|0:0,0:0:0:0:
367,95,125874,6,0,L|426:77,2,60.0000022888184,2|2|2,0:0|0:0|0:0,0:0:0:0:
307,145,126231,2,0,L|248:163,2,60.0000022888184,2|2|2,0:0|0:0|0:0,0:0:0:0:
380,171,126588,2,0,L|439:153,2,60.0000022888184,2|2|2,0:0|0:0|0:0,0:0:0:0:
320,221,126945,2,0,L|261:239,2,60.0000022888184,2|2|2,0:0|0:0|0:0,0:0:0:0:
350,295,127302,6,0,L|518:309,1,160,4|2,0:0|0:0,0:0:0:0:
416,198,127659,2,0,L|248:212,1,160,10|0,0:0|0:0,0:0:0:0:
141,299,128016,2,0,P|104:222|132:144,1,160,2|0,0:0|0:0,0:0:0:0:
248,82,128373,1,10,0:0:0:0:
334,194,128612,1,0,0:0:0:0:
334,194,128731,6,0,P|336:239|325:290,1,80,2|0,0:0|0:0,0:0:0:0:
251,339,128969,1,0,0:0:0:0:
178,264,129088,2,0,B|91:246|103:295|19:270,1,160,8|2,0:0|0:0,0:0:0:0:
110,161,129445,2,0,L|270:145,1,160,0|0,0:0|0:0,0:0:0:0:
340,271,129802,2,0,L|165:288,1,160,8|0,0:0|0:0,0:0:0:0:
55,245,130159,6,0,P|11:185|45:85,1,160,0|2,0:0|0:0,0:0:0:0:
150,43,130516,2,0,P|227:27|290:72,1,160,10|0,0:0|0:0,0:0:0:0:
377,183,130873,2,0,B|323:193|323:193|270:178|270:178|206:188,1,160,2|0,0:0|0:0,0:0:0:0:
108,278,131231,2,0,B|162:268|162:268|215:283|215:283|265:275,1,160,10|0,0:0|0:0,0:0:0:0:
373,300,131588,5,2,0:0:0:0:
303,83,131826,1,0,0:0:0:0:
303,83,131945,5,8,0:0:0:0:
299,180,132064,1,8,0:0:0:0:
372,245,132183,1,10,0:0:0:0:
468,228,132302,5,8,0:0:0:0:
402,157,132421,1,8,0:0:0:0:
305,162,132540,1,8,0:0:0:0:
248,242,132659,5,8,0:0:0:0:
346,245,132778,1,8,0:0:0:0:
410,173,132897,1,8,0:0:0:0:
377,83,133017,6,0,P|324:75|288:79,1,80
220,97,133374,2,0,P|167:105|131:101,1,80,2|0,0:0|0:0,0:0:0:0:
64,79,133731,2,0,L|53:175,1,80
40,237,134088,1,2,0:0:0:0:
161,341,134326,1,0,0:0:0:0:
161,341,134445,6,0,P|204:354|274:336,1,80
313,322,134802,2,0,P|352:320|390:332,1,80,2|0,0:0|0:0,0:0:0:0:
455,286,135159,2,0,B|460:244|460:244|443:186,1,80,0|0,0:0|0:0,0:0:0:0:
396,147,135517,2,0,B|391:105|391:105|408:47,1,80,2|0,0:0|0:0,0:0:0:0:
325,43,135874,6,0,P|265:29|221:46,1,80,0|0,0:0|0:0,0:0:0:0:
181,76,136231,2,0,L|171:186,1,80,2|0,0:0|0:0,0:0:0:0:
99,185,136588,2,0,P|123:221|185:230,1,80,0|0,0:0|0:0,0:0:0:0:
233,254,136945,1,2,0:0:0:0:
381,195,137183,1,0,0:0:0:0:
381,195,137302,6,0,L|373:287,1,80
453,261,137659,2,0,L|459:181,1,80,2|0,0:0|0:0,0:0:0:0:
409,118,138017,2,0,P|355:96|309:107,1,80,0|0,0:0|0:0,0:0:0:0:
256,113,138374,1,2,0:0:0:0:
256,113,138731,6,0,L|114:124,1,120.000004577637,4|0,0:0|0:0,0:0:0:0:
93,234,139088,2,0,L|212:224,1,120.000004577637,0|0,0:0|0:0,0:0:0:0:
326,341,139445,2,0,P|359:311|316:192,1,180.000006866455,8|0,0:0|0:0,0:0:0:0:
178,276,140040,1,0,0:0:0:0:
178,276,140159,6,0,P|225:286|298:261,1,120.000004577637,0|0,0:0|0:0,0:0:0:0:
273,142,140517,2,0,P|226:132|153:157,1,120.000004577637,0|0,0:0|0:0,0:0:0:0:
58,219,140874,2,0,L|45:367,1,120.000004577637,8|0,0:0|0:0,0:0:0:0:
148,272,141231,2,0,L|158:152,1,120.000004577637,0|0,0:0|0:0,0:0:0:0:
210,44,141588,5,2,0:0:0:0:
397,156,141826,1,0,3:0:0:0:
367,158,141945,1,0,3:0:0:0:
337,161,142064,1,0,3:0:0:0:
307,163,142183,1,0,3:0:0:0:
277,166,142302,2,0,B|261:211|261:211|280:299,1,120.000004577637,8|0,0:0|0:0,0:0:0:0:
353,364,142659,1,2,0:0:0:0:
353,364,142898,6,0,B|476:352|476:352|391:302,1,180.000006866455,4|0,0:0|0:0,0:0:0:0:
337,242,143374,1,10,0:0:0:0:
249,367,143612,1,0,0:0:0:0:
249,367,143731,1,2,0:0:0:0:
171,352,143850,1,2,0:0:0:0:
119,293,143969,1,2,0:0:0:0:
115,215,144088,2,0,L|124:122,2,80,8|0|0,0:0|0:0|0:0,0:0:0:0:
50,87,144445,6,0,P|88:54|203:109,1,160,2|0,0:0|0:0,0:0:0:0:
289,177,144802,2,0,L|281:354,1,160,8|0,0:0|0:0,0:0:0:0:
407,246,145159,2,0,L|414:86,1,160,0|0,0:0|0:0,0:0:0:0:
299,36,145517,1,8,0:0:0:0:
206,175,145755,1,2,0:0:0:0:
206,175,145874,6,0,P|173:188|76:123,1,160,2|0,0:0|0:0,0:0:0:0:
216,90,146231,2,0,B|272:98|290:163|290:163|330:151|358:113,1,160,8|0,0:0|0:0,0:0:0:0:
471,158,146588,2,0,L|466:237,1,80,0|0,0:0|0:0,0:0:0:0:
417,330,146826,1,0,0:0:0:0:
340,263,146945,2,0,P|272:248|185:295,1,160,8|2,0:0|0:0,0:0:0:0:
73,333,147302,6,0,B|50:239|50:239|82:151,1,160,2|0,0:0|0:0,0:0:0:0:
192,98,147659,2,0,L|371:87,1,160,8|0,0:0|0:0,0:0:0:0:
469,126,148017,2,0,P|376:138|369:239,1,160,2|0,0:0|0:0,0:0:0:0:
420,305,148374,2,0,P|463:278|421:190,1,160,8|2,0:0|0:0,0:0:0:0:
324,285,148731,5,2,0:0:0:0:
173,148,148969,1,0,0:0:0:0:
173,148,149088,2,0,B|95:127|92:177|13:147,1,160,8|0,0:0|0:0,0:0:0:0:
106,45,149445,2,0,L|267:62,1,160,0|0,0:0|0:0,0:0:0:0:
305,196,149802,2,0,P|321:270|258:362,1,160,8|0,0:0|0:0,0:0:0:0:
213,258,150159,5,0,0:0:0:0:
428,241,150398,1,0,0:0:0:0:
428,241,150517,2,0,B|439:192|439:192|416:128|416:128|431:75,1,160,8|0,0:0|0:0,0:0:0:0:
297,54,150874,2,0,P|224:43|141:86,1,160,0|0,0:0|0:0,0:0:0:0:
42,176,151231,2,0,P|115:165|198:208,1,160,8|0,0:0|0:0,0:0:0:0:
257,330,151588,6,0,L|50:306,1,160,2|0,0:0|0:0,0:0:0:0:
190,200,151945,2,0,B|266:173|266:173|373:231,1,160,8|0,0:0|0:0,0:0:0:0:
405,349,152302,2,0,P|467:306|478:190,1,160,0|0,0:0|0:0,0:0:0:0:
423,94,152659,1,8,0:0:0:0:
321,286,152898,1,0,0:0:0:0:
321,286,153017,6,0,P|269:303|174:260,1,160,4|0,0:0|0:0,0:0:0:0:
63,187,153374,2,0,L|73:18,1,160,8|0,0:0|0:0,0:0:0:0:
206,72,153731,2,0,P|258:55|353:98,1,160,2|0,0:0|0:0,0:0:0:0:
466,164,154088,1,8,0:0:0:0:
265,182,154326,1,0,0:0:0:0:
265,182,154445,5,8,3:0:0:0:
239,200,154564,1,8,3:0:0:0:
207,205,154683,1,8,3:0:0:0:
177,197,154802,1,8,3:0:0:0:
152,177,154921,1,8,3:0:0:0:
139,148,155040,1,8,3:0:0:0:
139,117,155159,1,8,3:0:0:0:
152,88,155278,1,8,3:0:0:0:
176,67,155397,1,8,3:0:0:0:
207,59,155516,5,8,3:2:0:0:
231,63,155636,1,8,3:2:0:0:
254,68,155755,1,8,3:2:0:0:
270,73,155874,6,0,L|66:81,1,180.000006866455,2|0,0:3|0:0,0:0:0:0:
140,214,156588,2,0,L|320:207,1,180.000006866455,0|0,0:3|0:3,0:0:0:0:
463,212,157302,1,2,0:3:0:0:
349,126,157660,1,0,0:3:0:0:
299,261,158017,2,0,P|239:277|171:256,1,120.000004577637,0|0,0:3|0:3,0:0:0:0:
142,241,158374,1,0,0:3:0:0:
243,138,158731,6,0,P|308:123|412:190,1,180.000006866455,2|0,0:3|0:3,0:0:0:0:
368,315,159445,2,0,P|303:330|199:263,1,180.000006866455,0|0,0:3|0:3,0:0:0:0:
64,276,160160,5,2,0:3:0:0:
207,259,160517,1,0,0:3:0:0:
64,259,160874,2,0,L|76:58,1,180.000006866455,0|0,0:3|0:3,0:0:0:0:
206,25,161469,1,0,0:0:0:0:
206,25,161588,6,0,P|285:12|368:73,1,180.000006866455,2|0,0:3|0:3,0:0:0:0:
454,179,162302,2,0,L|268:191,1,180.000006866455,0|0,0:3|0:3,0:0:0:0:
147,257,163017,1,2,0:3:0:0:
279,317,163374,1,0,0:3:0:0:
200,197,163731,1,0,0:3:0:0:
112,311,164088,1,0,0:3:0:0:
64,229,164326,1,4,3:0:0:0:
64,229,164445,6,0,P|50:171|126:84,1,160,2|0,0:0|0:0,0:0:0:0:
295,162,164802,2,0,L|121:176,1,160,8|0,0:0|0:0,0:0:0:0:
218,67,165159,2,0,L|392:81,1,160,0|0,0:0|0:0,0:0:0:0:
418,202,165517,1,8,0:0:0:0:
257,299,165755,1,0,0:0:0:0:
257,299,165874,6,0,B|190:267|190:267|95:289,1,160,2|0,0:0|0:0,0:0:0:0:
18,340,166231,2,0,L|39:177,1,160,10|0,0:0|0:0,0:0:0:0:
174,109,166588,2,0,P|250:84|327:126,1,160,2|0,0:0|0:0,0:0:0:0:
314,263,166945,2,0,P|238:288|161:246,1,160,10|0,0:0|0:0,0:0:0:0:
246,183,167302,5,2,0:0:0:0:
438,86,167540,1,0,0:0:0:0:
438,86,167659,2,0,L|239:68,1,160,8|0,0:0|0:0,0:0:0:0:
170,160,168017,2,0,P|244:190|339:143,1,160,0|0,0:0|0:0,0:0:0:0:
145,68,168374,2,0,L|124:267,1,160,8|0,0:0|0:0,0:0:0:0:
170,333,168731,6,0,P|126:336|69:322,2,80,2|0|0,3:2|3:0|3:0,0:0:0:0:
259,287,169088,2,0,P|314:279|416:357,1,160,10|0,0:0|0:0,0:0:0:0:
472,236,169445,6,0,P|478:193|481:154,2,80,2|0|0,3:2|3:2|3:2,0:0:0:0:
399,340,169802,2,0,P|335:294|256:297,1,160,10|0,0:0|0:0,0:0:0:0:
137,353,170159,5,4,0:0:0:0:
137,353,170517,2,0,L|146:190,1,160,8|0,0:0|0:0,0:0:0:0:
254,103,170874,2,0,P|328:88|408:130,1,160
462,260,171231,2,0,B|435:272|407:251|407:251|372:275|372:275|340:247|292:260,1,160,8|0,0:0|0:0,0:0:0:0:
187,329,171588,6,0,P|246:370|327:329,1,160,0|0,0:0|0:0,0:0:0:0:
214,227,171945,1,8,0:0:0:0:
52,346,172183,1,0,0:0:0:0:
52,346,172302,2,0,L|79:174,1,160,0|0,0:0|0:0,0:0:0:0:
173,159,172659,1,8,0:0:0:0:
173,159,172779,2,0,P|206:168|249:219,1,80,0|0,0:0|0:0,0:0:0:0:
157,289,173017,5,8,3:0:0:0:
388,118,173374,1,8,3:0:0:0:
113,30,173732,1,8,3:0:0:0:
257,140,173970,1,4,3:0:0:0:
257,140,174089,1,4,3:0:0:0:
118,277,174327,6,0,P|151:327|337:301,1,240,2|0,0:0|0:0,0:0:0:0:
274,222,174803,5,8,3:0:0:0:
270,125,174922,1,8,3:0:0:0:
343,60,175041,1,8,3:0:0:0:
439,77,175160,5,4,3:0:0:0:
373,148,175279,1,4,3:0:0:0:
276,143,175398,1,4,3:0:0:0:
219,63,175517,5,8,0:0:0:0:
317,60,175636,1,8,0:0:0:0:
381,132,175755,1,8,0:0:0:0:
392,237,175874,6,0,P|325:260|229:203,1,176.000005371094,6|0,0:0|0:0,0:0:0:0:
88,166,176231,2,0,L|103:354,1,176.000005371094,8|0,0:0|0:0,0:0:0:0:
236,214,176588,2,0,L|249:38,1,176.000005371094,0|0,0:0|0:0,0:0:0:0:
104,12,176945,1,8,0:0:0:0:
11,216,177183,1,0,0:0:0:0:
11,216,177302,6,0,P|106:246|169:193,1,176.000005371094,2|0,0:0|0:0,0:0:0:0:
318,89,177659,2,0,P|223:59|160:112,1,176.000005371094,8|0,0:0|0:0,0:0:0:0:
216,287,178017,2,0,P|269:221|221:126,1,176.000005371094,2|0,0:0|0:0,0:0:0:0:
129,21,178374,1,8,0:0:0:0:
35,217,178612,1,0,0:0:0:0:
35,217,178731,6,0,B|102:163|102:163|186:208,1,176.000005371094,2|0,0:0|0:0,0:0:0:0:
270,329,179088,2,0,L|460:311,1,176.000005371094,8|0,0:0|0:0,0:0:0:0:
366,215,179445,2,0,L|190:198,1,176.000005371094,0|0,0:0|0:0,0:0:0:0:
78,295,179802,1,8,0:0:0:0:
298,345,180040,1,0,0:0:0:0:
298,345,180159,6,0,B|393:308|387:383|494:346,1,176.000005371094,2|0,0:0|0:0,0:0:0:0:
361,233,180517,2,0,P|337:180|300:259,1,176.000005371094,8|0,0:0|0:0,0:0:0:0:
441,280,180874,1,2,0:0:0:0:
272,95,181112,1,0,0:0:0:0:
272,95,181231,1,10,0:0:0:0:
59,169,181469,1,0,0:0:0:0:
59,169,181588,6,0,P|132:142|227:179,1,176.000005371094,0|0,0:0|0:0,0:0:0:0:
328,236,181945,2,0,P|352:286|266:375,1,176.000005371094,8|0,0:0|0:0,0:0:0:0:
105,276,182302,2,0,B|149:277|170:253|170:253|205:296|268:285,1,176.000005371094,0|0,0:0|0:0,0:0:0:0:
414,250,182659,2,0,L|314:233,1,88.000002685547,8|0,3:2|0:0,0:0:0:0:
264,285,182898,1,0,3:2:0:0:
294,359,183017,6,0,L|494:335,1,176.000005371094,2|0,0:0|0:0,0:0:0:0:
488,200,183374,2,0,P|516:128|482:38,1,176.000005371094,8|0,0:0|0:0,0:0:0:0:
353,124,183731,2,0,B|268:82|268:82|199:153,1,176.000005371094,0|0,0:0|0:0,0:0:0:0:
119,218,184088,2,0,L|307:227,1,176.000005371094,8|0,0:0|0:0,0:0:0:0:
407,304,184445,6,0,P|364:342|256:298,1,176.000005371094,2|0,0:0|0:0,0:0:0:0:
375,222,184802,2,0,P|422:220|486:339,1,176.000005371094,8|0,0:0|0:0,0:0:0:0:
337,366,185159,2,0,L|225:377,1,88.000002685547,0|0,3:0|3:0,0:0:0:0:
146,346,185398,1,0,3:0:0:0:
231,267,185517,2,0,B|262:187|202:183|235:95,1,176.000005371094,10|0,0:0|0:0,0:0:0:0:
320,118,185874,5,10,0:0:0:0:
244,278,186112,2,0,L|113:265,1,88.000002685547,0|10,0:0|0:0,0:0:0:0:
356,195,186469,2,0,L|487:182,1,88.000002685547,0|10,0:0|0:0,0:0:0:0:
244,107,186826,2,0,L|113:94,1,88.000002685547,2|10,0:0|0:0,0:0:0:0:
32,223,187183,1,0,0:0:0:0:
32,223,187302,6,0,P|65:265|183:226,1,176.000005371094,2|0,0:0|0:0,0:0:0:0:
280,181,187659,2,0,L|99:202,1,176.000005371094,8|0,0:0|0:0,0:0:0:0:
222,317,188017,2,0,L|403:338,1,176.000005371094,0|0,0:0|0:0,0:0:0:0:
489,268,188374,1,10,0:0:0:0:
336,104,188612,1,0,0:0:0:0:
336,104,188731,6,0,P|261:86|196:156,1,176.000005371094,0|0,0:0|0:0,0:0:0:0:
344,182,189088,2,0,B|391:108|391:108|503:152,1,176.000005371094,8|0,0:0|0:0,0:0:0:0:
389,293,189445,2,0,P|314:311|249:241,1,176.000005371094,2|0,0:0|0:0,0:0:0:0:
235,87,189802,1,10,0:0:0:0:
40,154,190040,1,0,0:0:0:0:
40,154,190159,6,0,L|223:162,1,176.000005371094,2|0,0:0|0:0,0:0:0:0:
286,307,190517,2,0,L|85:296,1,176.000005371094,8|0,0:0|0:0,0:0:0:0:
216,162,190874,2,0,P|212:84|275:16,1,176.000005371094,0|0,0:0|0:0,0:0:0:0:
315,115,191231,1,8,0:0:0:0:
128,213,191469,1,0,0:0:0:0:
128,213,191588,6,0,B|112:291|112:291|131:407,1,176.000005371094,2|0,0:0|0:0,0:0:0:0:
256,299,191945,2,0,L|278:76,1,176.000005371094,8|0,0:0|0:0,0:0:0:0:
409,204,192302,2,0,L|426:379,1,176.000005371094,0|0,0:0|0:0,0:0:0:0:
495,275,192659,2,0,L|484:175,1,88.000002685547,10|0,0:0|0:0,0:0:0:0:
427,120,192898,1,0,0:0:0:0:
392,208,193017,6,0,B|315:240|303:160|217:205,1,176.000005371094,2|0,0:0|0:0,0:0:0:0:
128,300,193374,6,0,P|180:328|270:271,1,176.000005371094,12|0,0:0|0:0,0:0:0:0:
246,119,193731,2,0,P|194:91|104:148,1,176.000005371094,0|0,0:0|0:0,0:0:0:0:
26,256,194088,1,8,0:0:0:0:
257,194,194326,1,8,0:3:0:0:
257,194,194445,6,0,P|342:167|436:201,1,176.000005371094,2|0,0:0|0:0,0:0:0:0:
321,312,194802,2,0,P|237:287|155:314,1,176.000005371094,8|0,0:0|0:0,0:0:0:0:
36,249,195159,2,0,L|54:61,1,176.000005371094,0|0,0:0|0:0,0:0:0:0:
169,29,195517,1,10,0:0:0:0:
349,178,195755,1,0,0:0:0:0:
349,178,195874,5,2,0:0:0:0:
270,220,196231,1,2,0:0:0:0:
186,264,196588,1,2,0:0:0:0:
110,306,196945,1,2,0:0:0:0:
70,287,197064,1,2,0:0:0:0:
46,269,197183,6,0,P|22:222|75:113,1,180.000006866455,4|0,0:0|0:0,0:0:0:0:
145,81,197660,2,0,L|343:55,1,180.000006866455,2|0,0:0|0:0,0:0:0:0:
251,250,198374,1,2,0:0:0:0:
80,148,198731,6,0,P|157:176|203:152,1,120.000004577637,4|0,0:0|0:0,0:0:0:0:
239,97,199088,1,8,0:0:0:0:
251,94,199207,1,8,0:0:0:0:
262,90,199326,1,8,0:0:0:0:
273,86,199445,2,0,L|408:66,2,120.000004577637,8|8|8,0:0|0:0|0:0,0:0:0:0:
142,38,200159,6,0,P|125:96|161:159,1,120.000004577637,8|0,0:0|0:0,0:0:0:0:
185,224,200517,1,8,0:0:0:0:
186,235,200636,1,8,0:0:0:0:
186,245,200755,1,8,0:0:0:0:
187,254,200874,2,0,L|184:326,1,60.0000022888184,8|8,0:0|0:0,0:0:0:0:
264,300,201112,2,0,L|266:266,2,30.0000011444092,8|8|8,0:0|0:0|0:0,0:0:0:0:
340,322,201350,2,0,L|342:262,1,60.0000022888184,8|8,0:0|0:0,0:0:0:0:
390,131,201588,6,0,P|440:127|489:73,1,120.000004577637,8|0,0:0|0:0,0:0:0:0:
405,47,201945,1,8,0:0:0:0:
393,46,202064,1,8,0:0:0:0:
381,46,202183,1,8,0:0:0:0:
368,46,202302,2,0,L|215:37,2,120.000004577637,8|8|8,0:0|0:0|0:0,0:0:0:0:
303,117,202898,1,0,0:0:0:0:
303,117,203017,6,0,L|182:109,1,120.000004577637,8|0,0:0|0:0,0:0:0:0:
118,157,203374,1,8,0:0:0:0:
114,168,203493,1,8,0:0:0:0:
112,180,203612,1,8,0:0:0:0:
113,192,203731,2,0,B|183:199,1,60.0000022888184,8|8,0:0|0:0,0:0:0:0:
236,242,203969,2,0,B|306:249,1,60.0000022888184,8|8,0:0|0:0,0:0:0:0:
354,302,204207,2,0,B|424:309,1,60.0000022888184,8|8,0:0|0:0,0:0:0:0:
489,204,204445,6,0,P|412:232|366:208,1,120.000004577637,4|0,0:0|0:0,0:0:0:0:
330,153,204802,1,8,0:0:0:0:
318,150,204921,1,8,0:0:0:0:
307,146,205040,1,8,0:0:0:0:
296,142,205159,2,0,L|161:122,2,120.000004577637,8|8|8,0:0|0:0|0:0,0:0:0:0:
323,309,205873,6,0,P|265:326|202:290,1,120.000004577637,8|0,0:0|0:0,0:0:0:0:
137,266,206231,1,8,0:0:0:0:
126,265,206350,1,8,0:0:0:0:
116,265,206469,1,8,0:0:0:0:
107,264,206588,2,0,L|35:267,1,60.0000022888184,8|8,0:0|0:0,0:0:0:0:
61,187,206826,2,0,L|95:185,2,30.0000011444092,8|8|8,0:0|0:0|0:0,0:0:0:0:
39,111,207064,2,0,L|98:108,1,60.0000022888184,8|8,0:0|0:0,0:0:0:0:
228,151,207302,6,0,P|232:101|286:52,1,120.000004577637,8|0,0:0|0:0,0:0:0:0:
312,136,207659,1,8,0:0:0:0:
313,148,207778,1,8,0:0:0:0:
313,160,207897,1,8,0:0:0:0:
313,173,208016,2,0,L|322:326,2,120.000004577637,8|8|8,0:0|0:0|0:0,0:0:0:0:
233,121,208612,1,0,0:0:0:0:
233,121,208731,6,0,L|225:242,1,120.000004577637,8|0,0:0|0:0,0:0:0:0:
216,335,209088,1,8,0:0:0:0:
227,338,209207,1,8,0:0:0:0:
239,340,209326,1,8,0:0:0:0:
251,340,209445,2,0,B|258:270,1,60.0000022888184,8|8,0:0|0:0,0:0:0:0:
301,217,209683,2,0,B|308:147,1,60.0000022888184,8|8,0:0|0:0,0:0:0:0:
361,99,209921,2,0,B|368:29,1,60.0000022888184,8|8,0:0|0:0,0:0:0:0:
438,124,210159,6,0,P|381:176|293:141,1,160,4|0,0:0|0:0,0:0:0:0:
155,78,210517,2,0,P|212:26|300:61,1,160,10|0,0:0|0:0,0:0:0:0:
215,144,210874,2,0,L|57:106,1,160,2|0,0:0|0:0,0:0:0:0:
152,252,211231,2,0,L|310:214,1,160,8|0,0:0|0:0,0:0:0:0:
384,327,211588,6,0,B|309:352|309:352|224:313,1,160,2|2,0:0|0:0,0:0:0:0:
307,214,211945,1,8,0:0:0:0:
479,354,212183,1,2,0:0:0:0:
479,354,212302,2,0,L|501:191,1,160,8|4,0:3|0:3,0:0:0:0:
451,103,212659,2,0,P|411:78|370:71,2,80,10|2|2,0:0|0:0|0:0,0:0:0:0:
377,175,213017,5,2,0:0:0:0:
377,175,213374,2,0,L|365:363,1,160,10|0,0:0|0:0,0:0:0:0:
229,370,213731,2,0,B|149:347|148:405|60:369,1,160,2|0,0:0|0:0,0:0:0:0:
116,246,214088,2,0,B|196:223|197:281|285:245,1,160,10|0,0:0|0:0,0:0:0:0:
382,145,214445,6,0,P|285:125|213:174,1,160,2|0,0:0|0:0,0:0:0:0:
358,249,214802,1,10,0:0:0:0:
464,75,215040,1,2,0:0:0:0:
464,75,215159,2,0,L|481:196,1,80,0|0,3:0|3:0,0:0:0:0:
485,254,215398,1,0,3:0:0:0:
493,351,215517,2,0,P|423:379|343:336,1,160,8|0,0:0|0:0,0:0:0:0:
235,268,215874,6,0,L|401:241,1,160,2|0,0:0|0:0,0:0:0:0:
432,96,216231,2,0,L|274:121,1,160,10|0,0:0|0:0,0:0:0:0:
156,214,216588,2,0,P|136:252|148:310,1,80,2|2,3:2|3:2,0:0:0:0:
235,268,216826,1,2,3:2:0:0:
234,173,216945,2,0,P|177:130|89:150,1,160,8|0,3:2|0:0,0:0:0:0:
137,288,217302,6,0,L|306:311,1,160,0|0,0:0|0:0,0:0:0:0:
391,182,217659,2,0,L|222:205,1,160,10|0,0:0|0:0,0:0:0:0:
96,128,218017,2,0,P|153:112|194:127,1,80,2|2,3:2|3:2,0:0:0:0:
328,96,218255,1,2,3:2:0:0:
328,96,218374,2,0,P|271:80|230:95,1,80,8|0,3:2|3:2,0:0:0:0:
148,192,218612,1,2,3:2:0:0:
148,192,218731,6,0,P|125:279|219:344,1,160,2|0,0:0|0:0,0:0:0:0:
246,347,219088,1,8,0:0:0:0:
376,234,219326,1,0,0:0:0:0:
376,234,219445,2,0,L|212:254,1,160,2|0,0:0|0:0,0:0:0:0:
89,265,219802,1,8,0:0:0:0:
155,108,220040,1,0,0:0:0:0:
155,108,220159,6,0,B|217:98|227:58|227:58|268:81|325:67,1,160,2|8,0:0|0:3,0:0:0:0:
393,164,220517,2,0,P|346:198|262:152,1,160,0|4,0:0|0:3,0:0:0:0:
394,80,220874,1,2,3:2:0:0:
433,88,220993,1,2,3:2:0:0:
464,112,221112,1,2,3:2:0:0:
476,149,221231,1,2,3:2:0:0:
364,325,221469,1,0,0:0:0:0:
364,325,221588,6,0,P|312:346|216:290,1,120.000004577637,6|2,0:0|0:0,0:0:0:0:
182,278,221945,1,0,0:0:0:0:
182,278,222183,2,0,L|121:285,1,60.0000022888184,2|0,0:0|0:0,0:0:0:0:
0,194,222540,2,0,L|61:201,1,60.0000022888184,2|0,0:0|0:0,0:0:0:0:
194,144,222898,1,2,0:0:0:0:
194,144,223017,6,0,P|193:105|264:104,1,120.000004577637,2|0,0:0|0:0,0:0:0:0:
274,174,223374,2,0,L|353:156,2,60.0000022888184,2|2|2,0:0|0:0|0:0,0:0:0:0:
323,239,223731,2,0,L|401:248,2,60.0000022888184,2|2|2,0:0|0:0|0:0,0:0:0:0:
337,323,224088,2,0,L|393:348,2,60.0000022888184,2|2|2,0:0|0:0|0:0,0:0:0:0:
256,294,224445,5,2,0:0:0:0:
256,192,224564,12,0,226945,0:0:0:0:
279,96,227302,6,0,P|293:162|271:224,1,120,0|2,0:3|0:3,0:0:0:0:
178,329,228017,2,0,P|164:271|178:213,1,120,0|2,0:3|0:3,0:0:0:0:
279,96,228731,2,0,L|401:114,1,120,0|2,0:3|0:3,0:0:0:0:
297,231,229445,2,0,L|179:213,1,120,0|2,0:3|0:3,0:0:0:0:
58,112,230159,6,0,P|23:171|27:247,2,120,0|2|0,0:3|0:3|0:3,0:0:0:0:
194,35,231231,1,2,0:3:0:0:
264,174,231588,2,0,L|393:192,1,120,0|2,0:3|0:3,0:0:0:0:
276,304,232302,2,0,L|157:287,1,120,0|2,0:3|0:3,0:0:0:0:
74,154,233017,6,0,P|59:100|89:33,1,120,0|2,0:3|0:3,0:0:0:0:
218,115,233731,2,0,P|233:169|203:236,1,120,0|2,0:3|0:3,0:0:0:0:
123,355,234445,2,0,L|277:370,2,120,0|2|0,0:3|0:3|0:3,0:0:0:0:
19,237,235517,1,2,0:3:0:0:
171,202,235874,6,0,P|236:217|306:188,1,120,0|2,0:3|0:3,0:0:0:0:
291,46,236588,2,0,P|226:31|156:60,1,120,0|2,0:3|0:3,0:0:0:0:
93,218,237183,1,8,0:0:0:0:
93,218,237302,6,0,P|134:273|231:277,1,120.000004577637,6|0,0:0|0:0,0:0:0:0:
226,286,237659,1,2,0:0:0:0:
354,215,237898,1,8,0:0:0:0:
354,215,238017,6,0,L|181:187,1,120.000004577637,6|0,0:0|0:0,0:0:0:0:
188,186,238374,1,2,0:0:0:0:
331,299,238612,1,2,0:0:0:0:
331,299,238731,6,0,L|315:383,2,80,4|0|0,3:2|3:0|3:0,0:0:0:0:
460,281,239088,2,0,L|476:365,2,80,0|0|0,3:0|3:0|3:0,0:0:0:0:
391,169,239445,5,4,3:0:0:0:
303,171,239564,1,4,3:0:0:0:
214,174,239683,1,4,3:0:0:0:
294,78,239802,5,8,0:0:0:0:
301,181,239921,1,8,0:0:0:0:
306,284,240040,1,8,0:0:0:0:
200,324,240159,6,0,P|126:317|77:198,1,176.000005371094,6|0,0:0|0:0,0:0:0:0:
145,64,240517,2,0,L|172:252,1,165.000005035401,8|0,0:0|0:0,0:0:0:0:
291,337,240874,2,0,L|315:163,1,176.000005371094,0|0,0:0|0:0,0:0:0:0:
323,16,241231,1,8,0:0:0:0:
457,162,241469,1,0,0:0:0:0:
457,162,241588,6,0,P|475:226|392:298,1,176.000005371094,2|0,0:0|0:0,0:0:0:0:
315,162,241945,2,0,P|297:98|380:26,1,176.000005371094,8|0,0:0|0:0,0:0:0:0:
394,215,242302,2,0,L|202:234,1,176.000005371094,2|0,0:0|0:0,0:0:0:0:
84,241,242659,1,8,0:0:0:0:
26,72,242898,1,0,0:0:0:0:
26,72,243017,6,0,P|81:57|183:117,1,176.000005371094,2|0,0:0|0:0,0:0:0:0:
154,243,243374,2,0,P|99:258|-3:198,1,176.000005371094,8|0,0:0|0:0,0:0:0:0:
124,163,243731,2,0,L|318:145,1,176.000005371094,0|0,0:0|0:0,0:0:0:0:
442,136,244088,1,8,0:0:0:0:
442,136,244326,1,0,0:0:0:0:
373,215,244445,6,0,P|324:264|196:223,1,176.000005371094,2|0,0:0|0:0,0:0:0:0:
155,107,244802,2,0,P|228:106|284:195,1,176.000005371094,8|0,0:0|0:0,0:0:0:0:
132,217,245159,1,2,0:0:0:0:
257,35,245398,1,0,0:0:0:0:
257,35,245517,1,10,0:0:0:0:
291,266,245755,1,0,0:0:0:0:
291,266,245874,6,0,P|369:288|453:248,1,176.000005371094,0|0,0:0|0:0,0:0:0:0:
308,154,246231,2,0,P|230:176|146:136,1,176.000005371094,8|0,0:0|0:0,0:0:0:0:
62,36,246588,2,0,L|42:217,1,176.000005371094,0|0,0:0|0:0,0:0:0:0:
138,290,246945,2,0,P|187:298|249:305,1,88.000002685547,8|0,3:2|0:0,0:0:0:0:
327,280,247183,1,0,3:2:0:0:
240,210,247302,6,0,P|231:116|340:52,1,176.000005371094,2|0,0:0|0:0,0:0:0:0:
415,185,247659,2,0,B|361:239|361:239|299:134,1,176.000005371094,8|0,0:0|0:0,0:0:0:0:
420,96,248017,2,0,P|463:112|476:249,1,176.000005371094,0|0,0:0|0:0,0:0:0:0:
354,322,248374,2,0,L|172:315,1,176.000005371094,8|0,0:0|0:0,0:0:0:0:
33,244,248731,6,0,P|106:200|237:274,1,176.000005371094,2|0,0:0|0:0,0:0:0:0:
282,316,249088,2,0,L|291:130,1,176.000005371094,8|0,0:0|0:0,0:0:0:0:
193,48,249445,2,0,P|146:59|117:100,1,88.000002685547,0|0,3:0|3:0,0:0:0:0:
191,130,249683,1,0,3:0:0:0:
270,48,249802,2,0,B|329:59|329:59|382:48|382:48|450:65,1,176.000005371094,10|0,0:0|0:0,0:0:0:0:
382,128,250159,5,10,0:0:0:0:
206,151,250398,2,0,L|117:158,1,88.000002685547,0|10,0:0|0:0,0:0:0:0:
331,210,250755,2,0,L|420:217,1,88.000002685547,0|10,0:0|0:0,0:0:0:0:
225,305,251112,2,0,L|136:312,1,88.000002685547,2|10,0:0|0:0,0:0:0:0:
35,127,251469,1,0,0:0:0:0:
35,127,251588,6,0,P|88:99|190:159,1,176.000005371094,2|0,0:0|0:0,0:0:0:0:
304,191,251945,2,0,L|115:210,1,176.000005371094,8|0,0:0|0:0,0:0:0:0:
236,70,252302,2,0,L|425:89,1,176.000005371094,0|0,0:0|0:0,0:0:0:0:
484,183,252659,1,10,0:0:0:0:
326,327,252898,1,0,0:0:0:0:
326,327,253017,6,0,P|352:268|288:175,1,176.000005371094,0|0,0:0|0:0,0:0:0:0:
106,264,253374,2,0,B|167:285|167:285|212:245|284:264,1,176.000005371094,8|0,0:0|0:0,0:0:0:0:
110,184,253731,2,0,P|70:191|64:331,1,176.000005371094,2|0,0:0|0:0,0:0:0:0:
233,346,254088,1,10,0:0:0:0:
204,137,254326,1,0,0:0:0:0:
204,137,254445,6,0,L|383:123,1,176.000005371094,2|0,0:0|0:0,0:0:0:0:
282,251,254802,2,0,L|106:264,1,176.000005371094,8|0,0:0|0:0,0:0:0:0:
211,120,255159,2,0,L|390:106,1,176.000005371094,0|0,0:0|0:0,0:0:0:0:
475,213,255517,1,8,0:0:0:0:
282,251,255755,1,0,0:0:0:0:
282,251,255874,6,0,P|217:206|116:261,1,176.000005371094,2|0,0:0|0:0,0:0:0:0:
25,339,256231,2,0,L|40:144,1,176.000005371094,8|0,0:0|0:0,0:0:0:0:
191,110,256588,2,0,L|204:285,1,176.000005371094,0|0,0:0|0:0,0:0:0:0:
183,377,256945,2,0,P|143:354|116:305,1,88.000002685547,10|0,0:0|0:0,0:0:0:0:
116,207,257183,1,0,0:0:0:0:
116,207,257302,6,0,P|193:229|299:171,1,176.000005371094,2|0,0:0|0:0,0:0:0:0:
270,48,257659,2,0,P|192:25|86:83,1,176.000005371094,12|0,0:0|0:0,0:0:0:0:
19,146,258017,2,0,L|1:321,1,176.000005371094,0|0,0:0|0:0,0:0:0:0:
121,363,258374,1,8,0:0:0:0:
224,194,258612,1,0,0:0:0:0:
224,194,258731,6,0,B|288:220|319:147|407:194,1,176.000005371094,2|0,0:0|0:0,0:0:0:0:
268,271,259088,2,0,P|176:268|136:197,1,176.000005371094,8|0,0:0|0:0,0:0:0:0:
152,72,259445,2,0,P|231:120|213:208,1,176.000005371094,0|0,0:0|0:0,0:0:0:0:
57,159,259802,1,10,0:0:0:0:
142,366,260040,1,0,0:0:0:0:
142,366,260159,5,2,0:0:0:0:
100,287,260517,1,2,0:0:0:0:
56,203,260874,1,2,0:0:0:0:
14,127,261231,1,2,0:0:0:0:
33,87,261350,1,2,0:0:0:0:
51,63,261469,6,0,P|98:39|207:92,1,180.000006866455,4|0,0:0|0:0,0:0:0:0:
239,162,261946,2,0,L|214:362,1,180.000006866455,2|0,0:0|0:0,0:0:0:0:
51,242,262540,1,0,0:0:0:0:
51,242,262659,1,2,0:0:0:0:
51,242,263017,6,0,P|31:190|53:122,1,120,0|2,0:0|0:0,0:0:0:0:
240,136,263731,2,0,P|260:188|238:256,1,120,0|2,0:0|0:0,0:0:0:0:
166,73,264445,2,0,L|288:54,1,120,0|2,0:0|0:0,0:0:0:0:
154,196,265159,2,0,L|66:179,1,80,0|0,0:0|0:0,0:0:0:0:
37,169,265517,1,2,0:0:0:0:
37,169,265874,5,0,0:0:0:0:
201,269,266231,1,2,0:0:0:0:
8,269,266588,1,0,0:0:0:0:
172,169,266945,1,2,0:0:0:0:
105,349,267302,5,2,0:3:0:0:
256,192,267421,12,0,269743,0:0:0:0:
367,184,270159,6,0,P|309:164|250:178,1,120,2|0,0:3|0:0,0:0:0:0:
121,234,270755,1,0,0:0:0:0:
121,234,270874,2,0,L|127:125,1,80,2|0,0:3|0:0,0:0:0:0:
197,142,271231,2,0,L|193:222,1,80,0|0,0:0|0:0,0:0:0:0:
168,290,271588,5,2,0:3:0:0:
376,349,271945,2,0,P|425:353|486:329,1,80,0|0,0:0|0:0,0:0:0:0:
484,280,272302,2,0,L|494:201,1,80,0|0,0:0|0:0,0:0:0:0:
464,136,272659,2,0,L|474:57,1,80,2|0,0:0|0:0,0:0:0:0:
410,25,273017,6,0,P|371:16|325:26,1,80,0|0,0:0|0:0,0:0:0:0:
275,67,273374,2,0,P|236:76|190:66,1,80,2|0,0:0|0:0,0:0:0:0:
127,58,273731,2,0,L|118:155,1,80,0|0,0:0|0:0,0:0:0:0:
72,192,274088,2,0,L|63:289,1,80,2|0,0:0|0:0,0:0:0:0:
130,302,274445,6,0,P|169:293|215:303,1,80,0|0,0:0|0:0,0:0:0:0:
265,344,274802,2,0,P|304:353|350:343,1,80,2|0,0:0|0:0,0:0:0:0:
402,305,275159,1,0,0:0:0:0:
402,305,275517,1,0,0:0:0:0:
402,305,275874,6,0,P|450:253|268:209,1,360,2|0,0:3|0:0,0:0:0:0:
203,240,277302,1,2,0:3:0:0:
256,192,277421,12,8,278612,0:0:0:0:
260,194,278731,5,6,0:0:0:0:
260,194,279326,1,8,0:0:0:0:
260,194,279445,1,2,0:0:0:0:
260,194,280040,1,8,0:0:0:0:
260,194,280159,6,0,P|231:132|279:33,1,160,2|0,0:0|0:0,0:0:0:0:
335,121,280517,5,2,0:0:0:0:
361,216,280636,1,0,0:0:0:0:
304,291,280755,1,2,0:0:0:0:
197,262,280874,5,8,3:2:0:0:
117,255,280993,1,8,3:0:0:0:
37,248,281112,1,8,3:0:0:0:
46,232,281231,5,8,3:2:0:0:
126,239,281350,1,8,3:2:0:0:
206,246,281469,1,8,3:2:0:0:
301,226,281588,6,0,P|334:164|275:43,1,160,6|0,0:0|0:0,0:0:0:0:
478,36,281945,2,0,P|445:98|504:219,1,160,10|0,0:0|0:0,0:0:0:0:
428,333,282302,2,0,L|225:346,1,160,2|0,0:0|0:0,0:0:0:0:
161,384,282659,1,8,0:0:0:0:
93,207,282898,1,0,0:0:0:0:
93,207,283017,6,0,P|30:157|22:66,1,160,2|0,0:0|0:0,0:0:0:0:
131,99,283374,2,0,L|289:77,1,160,10|0,0:0|0:0,0:0:0:0:
444,187,283731,2,0,L|285:165,1,160,2|0,0:0|0:0,0:0:0:0:
222,239,284088,2,0,P|268:262|335:250,2,80,10|0|0,3:2|3:2|3:2,0:0:0:0:
139,319,284445,6,0,L|110:149,1,160,2|0,0:0|0:0,0:0:0:0:
24,61,284802,2,0,P|95:23|197:87,1,160,10|0,0:0|0:0,0:0:0:0:
267,140,285159,2,0,B|331:159|331:159|460:128,1,160,2|0,0:0|0:0,0:0:0:0:
340,52,285517,1,8,0:0:0:0:
304,281,285755,1,0,0:0:0:0:
304,281,285874,6,0,L|470:256,1,160,2|0,0:0|0:0,0:0:0:0:
317,186,286231,2,0,L|158:162,1,160,10|0,0:0|0:0,0:0:0:0:
62,301,286588,2,0,L|220:324,1,160,2|0,0:0|0:0,0:0:0:0:
378,253,286945,2,0,P|398:209|360:106,1,160,10|0,0:0|0:0,0:0:0:0:
234,41,287302,5,2,0:0:0:0:
234,41,287659,6,0,B|160:28|165:101|40:48,1,160,12|0,0:0|0:0,0:0:0:0:
216,115,288017,2,0,L|198:296,1,160,2|0,0:0|0:0,0:0:0:0:
191,384,288374,1,10,0:0:0:0:
312,281,288612,1,0,0:0:0:0:
312,281,288731,6,0,P|376:298|483:228,1,160,0|0,0:0|0:0,0:0:0:0:
390,130,289088,2,0,L|375:245,2,80,10|2|2,0:0|0:0|0:0,0:0:0:0:
321,60,289445,5,2,0:0:0:0:
245,39,289564,1,2,0:0:0:0:
171,68,289683,1,2,0:0:0:0:
124,133,289802,5,10,0:0:0:0:
122,172,289921,1,2,0:0:0:0:
120,212,290040,1,2,0:0:0:0:
151,287,290159,5,2,0:0:0:0:
344,270,290517,1,2,0:3:0:0:
158,311,290874,1,2,0:0:0:0:
357,287,291231,1,2,0:0:0:0:
357,287,291350,1,2,0:0:0:0:
357,287,291469,6,0,P|390:202|339:111,1,180.000006866455,4|0,0:0|0:0,0:0:0:0:
279,62,291945,1,2,0:0:0:0:
87,106,292302,2,0,L|113:245,1,120.000004577637,2|0,0:0|0:0,0:0:0:0:
131,308,292659,1,2,0:0:0:0:
131,308,293017,6,0,P|178:318|258:283,1,120,2|2,0:0|0:0,0:0:0:0:
359,189,293731,2,0,P|304:166|245:176,1,120,2|2,0:0|0:0,0:0:0:0:
110,97,294445,1,2,0:0:0:0:
255,41,294802,2,0,L|320:30,2,40,2|2|2,0:0|0:0|0:0,0:0:0:0:
204,53,295159,1,2,0:0:0:0:
103,172,295517,1,2,0:0:0:0:
257,194,295874,6,0,P|269:261|223:322,1,120,2|2,0:0|0:0,0:0:0:0:
106,375,296588,2,0,L|95:235,1,120,2|2,0:0|0:0,0:0:0:0:
146,107,297302,1,2,0:0:0:0:
270,201,297659,2,0,L|326:209,2,40,2|2|2,0:0|0:0|0:0,0:0:0:0:
217,196,298017,1,2,0:0:0:0:
334,93,298374,1,2,0:0:0:0:
386,239,298731,6,0,P|396:285|364:359,1,120,2|2,0:0|0:0,0:0:0:0:
223,300,299445,2,0,P|213:241|238:187,1,120,2|2,0:0|0:0,0:0:0:0:
357,87,300159,1,2,0:0:0:0:
386,239,300517,2,0,L|396:292,2,40,2|2|2,0:0|0:0|0:0,0:0:0:0:
375,188,300874,1,2,0:0:0:0:
279,64,301231,1,2,0:0:0:0:
177,182,301588,5,2,0:0:0:0:
177,182,301945,2,0,L|118:171,2,40,2|2|2,0:0|0:0|0:0,0:0:0:0:
228,192,302302,1,2,0:0:0:0:
355,282,302659,2,0,L|414:271,2,40,2|2|2,0:0|0:0|0:0,0:0:0:0:
304,292,303016,1,2,0:0:0:0:
115,292,303374,1,2,0:0:0:0:
201,162,303731,5,2,0:0:0:0:
201,162,304445,2,0,P|231:115|396:153,1,240,2|2,0:0|0:0,0:0:0:0:
401,155,305520,1,2,0:0:0:0:
412,171,305638,1,2,0:3:0:0:
256,192,305757,12,2,309804,0:0:0:0:
