osu file format v10

[General]
AudioFilename: shiny steps!!.mp3
AudioLeadIn: 1500
PreviewTime: 56910
Countdown: 0
SampleSet: Soft
StackLeniency: 0.7
Mode: 0
LetterboxInBreaks: 1

[Editor]
DistanceSpacing: 1
BeatDivisor: 4
GridSize: 4

[Metadata]
Title:shiny steps!!
TitleUnicode:shiny steps!!
Artist:Mimori Suzuko & Terakawa Aimi
ArtistUnicode:Mimori Suzuko & Terakawa Aimi
Creator:Laurier
Version:2nd
Source:D.C.III ~Da Capo III~
Tags:circus hentai eroge game visual novel
BeatmapID:178224
BeatmapSetID:59353

[Difficulty]
HPDrainRate:3
CircleSize:3
OverallDifficulty:2
ApproachRate:4
SliderMultiplier:0.999999999999999
SliderTickRate:2

[Events]
//Background and Video events
0,0,"BG.jpg"
//Break Periods
2,79235,89705
//Storyboard Layer 0 (Background)
//Storyboard Layer 1 (Fail)
//Storyboard Layer 2 (Pass)
//Storyboard Layer 3 (Foreground)
//Storyboard Sound Samples
//Background Colour Transformations
3,100,163,162,255

[TimingPoints]
1035,375,4,2,1,5,1,0
1785,-100,4,2,1,10,0,0
2535,-100,4,2,1,20,0,0
3285,-100,4,2,1,30,0,0
4035,-100,4,2,1,40,0,0
4785,-100,4,2,1,5,0,0
5535,-100,4,2,1,60,0,0
5628,-100,4,2,2,60,0,0
6285,-100,4,2,1,40,0,0
6660,-100,4,2,1,30,0,0
6753,-100,4,2,2,40,0,0
17535,-100,4,2,1,60,0,0
18378,-100,4,2,2,60,0,0
29535,-100,4,2,1,60,0,0
29910,-100,4,1,1,60,0,0
30191,-100,4,2,1,60,0,0
30378,-100,4,1,1,60,0,0
30941,-100,4,2,1,60,0,0
31128,-100,4,1,1,60,0,0
34316,-100,4,2,1,60,0,0
34503,-100,4,1,1,60,0,0
35066,-100,4,2,1,60,0,0
35253,-100,4,1,1,60,0,0
36191,-100,4,2,1,60,0,0
36378,-100,4,1,1,60,0,0
36941,-100,4,2,1,60,0,0
37128,-100,4,1,1,60,0,0
38816,-100,4,2,1,60,0,0
39003,-100,4,1,1,60,0,0
39566,-100,4,2,1,60,0,0
39753,-100,4,1,1,60,0,0
41535,-100,4,2,1,60,0,0
41628,-100,4,2,2,60,0,0
50535,-100,4,2,1,60,0,0
50628,-100,4,2,2,60,0,0
50816,-100,4,2,1,60,0,0
51003,-100,4,2,2,60,0,0
51566,-100,4,2,1,60,0,0
51753,-100,4,2,2,60,0,0
52410,-100,4,1,1,60,0,0
53535,-100,4,2,1,60,0,0
53628,-100,4,2,2,60,0,0
53816,-100,4,2,1,60,0,0
54003,-100,4,2,2,60,0,0
54191,-100,4,2,1,60,0,0
55035,-100,4,2,2,60,0,0
56910,-100,4,2,1,30,0,0
57003,-100,4,2,2,30,0,0
57191,-100,4,2,1,40,0,0
57378,-100,4,2,2,40,0,0
57566,-100,4,2,1,50,0,0
58035,-100,4,1,1,60,0,1
58316,-100,4,2,1,60,0,1
58503,-100,4,1,1,60,0,1
59253,-100,4,2,1,60,0,1
59441,-100,4,1,1,60,0,1
61316,-100,4,2,1,60,0,1
61503,-100,4,1,1,60,0,1
62816,-100,4,2,1,60,0,1
63003,-100,4,1,1,60,0,1
64316,-100,4,2,1,60,0,1
64503,-100,4,2,2,60,0,1
64691,-100,4,1,2,60,0,1
67316,-100,4,2,1,60,0,1
67503,-100,4,1,1,60,0,1
68253,-100,4,2,1,60,0,1
68441,-100,4,1,1,60,0,1
71253,-100,4,2,1,60,0,1
71441,-100,4,1,1,60,0,1
73316,-100,4,2,1,60,0,1
73691,-100,4,1,1,60,0,1
75378,-100,4,2,1,60,0,1
75566,-100,4,1,1,60,0,1
79035,-100,4,2,1,60,0,0
91785,-100,4,1,1,60,0,0
92066,-100,4,2,1,60,0,0
92253,-100,4,1,1,60,0,0
93660,-100,4,2,1,60,0,0
93941,-100,4,1,1,60,0,0
94316,-100,4,2,1,60,0,0
94503,-100,4,1,1,60,0,0
95441,-100,4,2,1,60,0,0
95628,-100,4,1,1,60,0,0
97691,-100,4,2,1,60,0,0
97878,-100,4,1,1,60,0,0
98816,-100,4,2,1,60,0,0
99003,-100,4,1,1,60,0,0
102566,-100,4,2,1,60,0,0
102753,-100,4,1,1,60,0,0
104628,-100,4,2,1,60,0,0
104816,-100,4,1,1,60,0,0
105378,-100,4,2,1,60,0,0
105566,-100,4,1,1,60,0,0
107441,-100,4,2,1,60,0,0
107628,-100,4,1,1,60,0,0
108191,-100,4,2,1,60,0,0
108378,-100,4,1,1,60,0,0
111191,-100,4,2,1,60,0,0
111378,-100,4,1,1,60,0,0
112691,-100,4,2,1,60,0,0
112878,-100,4,1,1,60,0,0
113816,-100,4,2,1,60,0,0
114191,-100,4,1,1,60,0,0
115035,-100,4,2,1,60,0,0
115128,-100,4,2,2,60,0,0
124035,-100,4,2,1,60,0,0
124128,-100,4,2,2,60,0,0
124316,-100,4,2,1,60,0,0
124503,-100,4,2,2,60,0,0
125066,-100,4,2,1,60,0,0
125253,-100,4,2,2,60,0,0
125347,-100,4,2,1,60,0,0
125910,-100,4,1,1,60,0,0
127035,-100,4,2,1,60,0,0
127128,-100,4,2,2,60,0,0
127316,-100,4,2,1,60,0,0
127503,-100,4,1,1,60,0,0
128535,-100,4,2,2,60,0,0
130410,-100,4,2,1,30,0,0
130503,-100,4,2,2,30,0,0
130691,-100,4,2,1,40,0,0
130878,-100,4,2,2,40,0,0
131066,-100,4,2,1,50,0,0
131535,-100,4,1,1,60,0,1
131816,-100,4,2,1,60,0,1
132003,-100,4,1,1,60,0,1
132753,-100,4,2,1,60,0,1
132941,-100,4,1,1,60,0,1
134816,-100,4,2,1,60,0,1
135003,-100,4,1,1,60,0,1
135566,-100,4,2,1,60,0,1
135753,-100,4,1,1,60,0,1
137816,-100,4,2,1,60,0,1
138003,-100,4,1,1,60,0,1
138753,-100,4,2,1,60,0,1
138941,-100,4,1,1,60,0,1
140816,-100,4,2,1,60,0,1
141003,-100,4,1,1,60,0,1
141753,-100,4,2,1,60,0,1
141941,-100,4,1,1,60,0,1
144753,-100,4,2,1,60,0,1
144941,-100,4,1,1,60,0,1
146816,-100,4,2,1,60,0,1
147003,-100,4,1,1,60,0,1
147753,-100,4,2,1,60,0,1
147941,-100,4,1,1,60,0,1
148878,-100,4,2,1,60,0,1
149066,-100,4,1,1,60,0,1
152535,-100,4,2,1,60,0,0
153285,-100,4,2,1,40,0,0
153378,-100,4,2,2,60,0,0
154035,-100,4,2,1,30,0,0
154128,-100,4,2,2,60,0,0
164535,-100,4,2,1,60,0,0
165753,-100,4,2,2,60,0,0
176535,-100,4,2,1,60,0,0
178410,-100,4,2,1,30,0,0
178785,-100,4,2,1,40,0,0
179160,-100,4,2,1,50,0,0
179535,-100,4,1,1,60,0,0
180660,-100,4,2,2,60,0,0
181410,-100,4,2,1,60,0,0
181503,-100,4,2,2,60,0,0
183191,-100,4,2,1,60,0,0
183378,-100,4,2,2,60,0,0
184410,-100,4,2,1,60,0,0
185628,-100,4,2,2,60,0,0
185816,-100,4,2,1,60,0,0
186003,-100,4,2,2,60,0,0
186660,-100,4,2,1,60,0,0
187410,-100,4,2,1,30,0,0
187785,-100,4,2,1,40,0,0
188160,-100,4,2,1,50,0,0
188535,-100,4,2,1,60,0,0
188628,-100,4,2,2,60,0,0
188816,-100,4,2,1,60,0,0
189003,-100,4,2,2,60,0,0
189660,-100,4,2,1,60,0,0
191535,-100,4,2,2,60,0,1
191816,-100,4,2,1,60,0,1
192003,-100,4,1,1,60,0,1
192753,-100,4,2,1,60,0,1
192941,-100,4,1,1,60,0,1
194816,-100,4,2,1,60,0,1
195003,-100,4,1,1,60,0,1
200535,-100,4,1,1,60,0,0
202128,-100,4,2,1,60,0,0
202316,-100,4,1,1,60,0,0
207566,-100,4,2,1,60,0,0
208691,-100,4,2,2,60,0,0
209160,-100,4,1,1,60,0,0
219378,-100,4,2,1,60,0,0
219660,-100,4,1,1,60,0,0
220128,-100,4,2,1,60,0,0
220316,-100,4,1,1,60,0,0
221066,-100,4,2,1,60,0,0
221253,-100,4,2,2,60,0,0
222285,-100,4,2,1,40,0,0
224535,-100,4,2,1,60,0,0
224628,-100,4,2,2,60,0,0
238035,-100,4,2,2,20,0,0
239535,-100,4,2,2,5,0,0

[Colours]
Combo1 : 255,219,164
Combo2 : 255,179,255
Combo3 : 196,255,255
Combo4 : 255,255,255

[HitObjects]
256,192,1035,12,0,4785,0:0:0
332,256,5535,6,0,B|312:308|256:332,2,99.9999999999999,4|0|4,0:0|0:0|0:0,0:0:0
256,192,6660,2,0,B|276:140|332:116,2,99.9999999999999,4|0|0,0:0|0:0|0:0,0:0:0
188,264,7785,2,0,B|136:288|88:264,1,99.9999999999999,2|0,0:0|0:0,0:0:0
136,176,8535,5,2,0:0:0
88,88,8910,2,0,B|140:64|188:88,1,99.9999999999999,2|0,0:0|0:0,0:0:0
284,88,9660,2,0,B|336:64|384:88,2,99.9999999999999,2|0|2,0:0|0:0|0:0,0:0:0
336,172,10785,2,0,B|389:191|406:242,1,99.9999999999999,2|0,0:0|0:0,0:0:0
384,336,11535,6,0,B|288:292|184:340,1,200,4|2,0:0|0:0,0:0:0
116,272,12660,2,0,B|96:224|60:184,2,99.9999999999999,2|0|2,0:0|0:0|0:0,0:0:0
208,236,13785,2,0,B|276:160|252:48,1,200,2|4,0:0|0:0,0:0:0
352,32,14910,6,0,B|404:44|436:84,1,99.9999999999999,2|0,0:0|0:0,0:0:0
348,132,15660,1,2,0:0:0
422,199,16035,1,2,0:0:0
348,266,16410,1,2,0:0:0
273,199,16785,2,0,B|177:155|77:203,1,200,2|4,0:0|0:0,0:0:0
25,117,17910,5,0,0:0:0
124,100,18285,2,0,B|172:72|196:24,2,99.9999999999999,0|2|0,0:0|0:0|0:0,0:0:0
124,300,19785,1,2,0:0:0
212,348,20160,1,0,0:0:0
300,300,20535,6,0,B|348:288|364:212|348:148|288:136,1,200,2|0,0:0|0:0,0:0:0
236,60,21660,2,0,B|188:72|172:148|188:212|248:224,1,200,2|0,0:0|0:0,0:0:0
196,312,22785,2,0,B|160:348|104:356,2,99.9999999999999,2|0|2,0:0|0:0|0:0,0:0:0
112,256,23910,6,0,B|76:220|68:164,1,99.9999999999999,0|0,0:0|0:0,0:0:0
116,80,24660,2,0,B|128:32|204:16|268:32|280:91,1,200,2|0,0:0|0:0,0:0:0
196,136,25785,2,0,B|208:184|284:200|348:184|360:124,1,200,2|0,0:0|0:0,0:0:0
412,52,26910,1,2,0:0:0
492,112,27285,1,0,0:0:0
444,200,27660,6,0,B|428:252|448:308,1,99.9999999999999,2|0,0:0|0:0,0:0:0
360,352,28410,1,0,0:0:0
332,256,28785,2,0,B|320:208|252:192|180:208|168:268,1,200,2|4,0:0|0:0,0:0:0
112,336,29910,6,0,B|64:324|48:256|64:184|124:172,2,200,0|0|0,0:0|0:0|0:0,0:0:0
212,340,31785,1,0,0:0:0
160,256,32160,1,0,0:0:0
212,172,32535,6,0,B|212:116|160:88,2,99.9999999999999,0|0|0,0:0|0:0|0:0,0:0:0
256,260,33660,1,0,0:0:0
304,172,34035,2,0,B|316:124|384:108|456:124|468:184,2,200
384,232,35910,2,0,B|372:280|304:296|232:280|220:220,2,200
304,172,37785,5,0,0:0:0
256,84,38160,1,0,0:0:0
204,168,38535,2,0,B|192:216|124:232|52:216|40:156,2,200,4|0|0,0:0|0:0|0:0,0:0:0
384,92,40785,2,0,B|364:140|384:188,1,99.9999999999999,0|0,0:0|0:0,0:0:0
428,280,41535,6,0,B|396:336|308:368|204:340|168:280,1,300,4|0,0:0|0:0,0:0:0
96,348,43035,2,0,B|56:272|100:204,1,150
144,188,43785,2,0,B|164:136|144:88,1,99.9999999999999
236,48,44535,6,0,B|298:31|383:70|436:163|419:231,1,300,4|0,0:0|0:0,0:0:0
352,304,46035,2,0,B|316:264|324:208,2,99.9999999999999,4|0|0,0:0|0:0|0:0,0:0:0
256,128,47535,6,0,B|232:88|144:88|116:136,1,150,4|0,0:0|0:0,0:0:0
72,132,48285,2,0,B|48:184|76:236,1,99.9999999999999
136,304,49035,2,0,B|168:360|256:392|360:364|396:304,1,300
336,224,50535,6,0,B|276:168|300:76,1,150,4|0,0:0|0:0,0:0:0
372,20,51472,2,0,B|408:60|392:116,1,99.9999999999999
324,248,52410,1,0,0:0:0
260,324,52785,1,0,0:0:0
168,288,53160,1,0,0:0:0
164,188,53535,6,0,B|152:140|84:124|12:140|0:200,1,200,4|8,0:0|0:0,0:0:0
136,40,55035,2,0,B|148:88|216:104|288:88|300:28,1,200,4|0,0:0|0:0,0:0:0
256,336,56910,6,0,B|232:288|256:236,2,99.9999999999999,4|4|4,0:0|0:0|0:0,0:0:0
344,288,58035,2,0,B|386:313|445:276|485:214|451:163,1,200,4|0,0:0|0:0,0:0:0
400,92,59160,2,0,B|400:28,2,50
336,168,59910,1,0,0:0:0
256,228,60285,1,0,0:0:0
176,168,60660,1,0,0:0:0
256,108,61035,6,0,B|244:60|176:44|104:60|92:120,1,200,4|0,0:0|0:0,0:0:0
176,168,62160,1,0,0:0:0
256,228,62535,2,0,B|244:276|176:292|104:276|92:216,1,200
176,168,63660,1,0,0:0:0
256,228,64035,6,0,B|332:264|404:224,1,150,4|0,0:0|0:0,0:0:0
384,180,64785,2,0,B|416:136|404:80,2,99.9999999999999
312,112,65910,1,0,0:0:0
212,124,66285,1,0,0:0:0
188,220,66660,1,0,0:0:0
256,292,67035,6,0,B|268:340|336:356|408:340|420:280,1,200,4|0,0:0|0:0,0:0:0
336,232,68160,2,0,B|336:172,2,50
256,292,68910,5,0,0:0:0
176,352,69285,1,0,0:0:0
96,292,69660,1,0,0:0:0
136,200,70035,6,0,B|180:168|180:112,1,99.9999999999999,0|4,0:0|0:0,0:0:0
124,32,70785,1,0,0:0:0
76,120,71160,2,0,B|28:120,2,50
136,200,71910,1,0,0:0:0
96,292,72285,1,0,0:0:0
176,352,72660,1,0,0:0:0
256,296,73035,6,0,B|344:288|376:208,1,150,4|0,0:0|0:0,0:0:0
328,196,73785,2,0,B|348:148|328:96,1,99.9999999999999
240,52,74535,2,0,B|220:100|240:152,1,99.9999999999999
328,196,75285,2,0,B|392:196,2,50
256,264,76035,5,0,0:0:0
168,308,76410,1,0,0:0:0
96,240,76785,2,0,B|80:208|112:184|96:140,1,99.9999999999999
256,192,77347,12,4,79035,0:0:0
256,196,91035,6,0,B|256:248,2,50,8|0|8,0:0|0:0|0:0,0:0:0
256,96,91785,2,0,B|268:48|337:32|408:49|421:109,1,200
336,152,92910,1,0,0:0:0
416,212,93285,2,0,B|396:256|312:268|280:232,1,150
256,196,94035,6,0,B|244:148|175:132|104:149|91:209,1,200,4|0,0:0|0:0,0:0:0
16,256,95160,2,0,B|28:304|97:320|168:303|181:243,1,200,0|0,0:0|0:0,0:0:0
260,308,96285,1,0,0:0:0
344,256,96660,2,0,B|396:280|440:256,1,99.9999999999999,0|4,0:0|0:0,0:0:0
492,172,97410,6,0,B|517:129|479:69|417:31|366:64,1,200,0|0,0:0|0:0,0:0:0
400,156,98535,2,0,B|388:203|319:220|248:203|235:143,1,200,0|0,0:0|0:0,0:0:0
300,76,99660,1,0,0:0:0
200,64,100035,6,0,B|148:64|100:40,2,99.9999999999999
240,156,101160,2,0,B|222:204|174:228,1,99.9999999999999
176,328,101910,1,0,0:0:0
264,284,102285,2,0,B|276:331|345:348|415:331|428:271,1,200,0|4,0:0|0:0,0:0:0
344,224,103410,6,0,B|364:176|344:128,1,99.9999999999999
256,76,104160,1,0,0:0:0
170,127,104535,2,0,B|122:155,2,50
256,176,105285,2,0,B|256:232,2,50
256,76,106035,5,4,0:0:0
352,48,106410,1,0,0:0:0
412,128,106785,1,0,0:0:0
352,208,107160,2,0,B|326:250|364:310|426:348|477:315,2,200
452,216,109035,5,4,0:0:0
412,124,109410,2,0,B|368:96|312:112,1,99.9999999999999
300,12,110160,2,0,B|249:23|220:74,1,99.9999999999999
124,56,110910,2,0,B|98:98|136:158|198:196|249:163,1,200
336,192,112035,1,0,0:0:0
436,200,112410,2,0,B|461:157|423:97|361:59|310:92,1,200
336,192,113535,6,0,B|336:272|264:320,1,150
228,288,114285,2,0,B|180:308|128:288,1,99.9999999999999
36,256,115035,6,0,B|36:176|108:128,1,150,4|0,0:0|0:0,0:0:0
132,172,115785,2,0,B|180:152|228:172,1,99.9999999999999,0|0,0:0|0:0,0:0:0
308,232,116535,2,0,B|384:264|456:228,1,150
432,184,117285,2,0,B|464:140|464:80,1,99.9999999999999
364,112,118035,6,0,B|296:140|216:112,1,150
188,72,118785,2,0,B|136:52|88:76,1,99.9999999999999
40,160,119535,2,0,B|92:180|140:156,2,99.9999999999999,4|0|0,0:0|0:0|0:0,0:0:0
208,268,121035,6,0,B|240:324|328:356|432:328|468:268,1,300,4|0,0:0|0:0,0:0:0
408,188,122535,2,0,B|444:108|404:36,1,150
356,44,123285,2,0,B|296:24,2,50
328,140,124035,6,0,B|296:216|212:232,1,150,4|0,0:0|0:0,0:0:0
124,192,124972,2,0,B|152:144|208:136,1,99.9999999999999,0|4,0:0|0:0,0:0:0
352,140,125910,1,0,0:0:0
412,220,126285,1,0,0:0:0
352,300,126660,1,0,0:0:0
256,276,127035,6,0,B|246:227|175:210|106:226|94:274,1,200,4|0,0:0|0:0,0:0:0
16,88,128535,2,0,B|25:136|96:153|165:137|177:89,1,200,4|0,0:0|0:0,0:0:0
460,196,130410,2,0,B|456:144|412:104,2,99.9999999999999,4|4|4,0:0|0:0|0:0,0:0:0
360,196,131535,6,0,B|350:244|279:261|210:245|198:197,1,200,4|0,0:0|0:0,0:0:0
280,140,132660,2,0,B|280:80,2,50
360,196,133410,1,0,0:0:0
452,156,133785,1,0,0:0:0
424,60,134160,1,0,0:0:0
328,88,134535,6,0,B|318:136|247:153|178:137|166:89,2,200,4|0|0,0:0|0:0|0:0,0:0:0
248,28,136410,1,0,0:0:0
152,52,136785,2,0,B|100:68|76:120,1,99.9999999999999
168,156,137535,6,0,B|141:197|179:259|239:296|281:271,1,200,4|0,0:0|0:0,0:0:0
368,224,138660,2,0,B|380:252|376:292,2,50
288,164,139410,1,0,0:0:0
368,104,139785,1,0,0:0:0
448,164,140160,1,0,0:0:0
368,224,140535,6,0,B|358:272|287:289|218:273|206:225,1,200
288,164,141660,2,0,B|288:104,2,50
368,224,142410,1,0,0:0:0
340,320,142785,1,0,0:0:0
240,320,143160,1,0,0:0:0
206,228,143535,6,0,B|208:168|172:136,1,99.9999999999999,0|4,0:0|0:0,0:0:0
76,112,144285,1,0,0:0:0
108,208,144660,2,0,B|68:248,2,50
206,228,145410,1,0,0:0:0
300,192,145785,1,0,0:0:0
316,92,146160,1,0,0:0:0
376,12,146535,6,0,B|424:22|441:93|425:162|377:174,1,200,4|0,0:0|0:0,0:0:0
316,92,147660,2,0,B|256:92,2,50
380,172,148410,1,0,0:0:0
316,248,148785,2,0,B|316:312,2,50
252,172,149535,5,0,0:0:0
184,244,149910,1,0,0:0:0
116,172,150285,2,0,B|104:136|128:108|112:68,1,99.9999999999999
256,192,150847,12,0,152535,0:0:0
392,292,153285,6,0,B|344:312|288:288,1,99.9999999999999,4|0,0:0|0:0,0:0:0
352,209,154035,2,0,B|380:129|456:104,2,150,4|2|2,0:0|0:0|0:0,0:0:0
260,173,155535,2,0,B|223:97|259:25,2,150,4|2|0,0:0|0:0|0:0,0:0:0
188,244,157035,2,0,B|108:215|83:139,2,150,4|2|0,0:0|0:0|0:0,0:0:0
256,316,158535,5,4,0:0:0
396,268,159097,2,0,B|428:192|396:116,1,150,2|0,0:0|0:0,0:0:0
300,136,160035,2,0,B|268:59|192:28,2,150,4|2|0,0:0|0:0|0:0,0:0:0
208,172,161535,6,0,B|140:204|60:172,2,150,4|2|0,0:0|0:0|0:0,0:0:0
304,204,163035,2,0,B|376:172|452:204,2,150,4|2|0,0:0|0:0|0:0,0:0:0
256,292,164535,6,0,B|256:352,2,50,4|0|0,0:0|0:0|0:0,0:0:0
180,224,165285,1,0,0:0:0
120,304,165660,2,0,B|72:294|55:223|71:154|119:142,1,200,2|0,0:0|0:0,0:0:0
180,224,166785,2,0,B|220:192|216:128,1,99.9999999999999,2|0,0:0|0:0,0:0:0
292,72,167535,6,0,B|302:24|373:7|442:23|454:71,1,200,2|0,0:0|0:0,0:0:0
376,132,168660,2,0,B|366:180|295:197|226:181|214:133,1,200,2|0,0:0|0:0,0:0:0
140,72,169785,2,0,B|104:32,2,50,2|0|0,0:0|0:0|0:0,0:0:0
116,168,170535,5,2,0:0:0
156,260,170910,2,0,B|188:300|204:352,1,99.9999999999999
256,264,171660,1,2,0:0:0
356,260,172035,2,0,B|324:300|308:352,1,99.9999999999999
256,264,172785,2,0,B|232:200|284:140|256:64,1,200,2|0,0:0|0:0,0:0:0
256,192,173722,12,4,176535,0:0:0
256,196,178410,5,4,0:0:0
196,276,178785,1,4,0:0:0
96,268,179160,1,4,0:0:0
32,192,179535,2,0,B|-16:182|-33:111|-17:42|31:30,1,200,4|0,0:0|0:0,0:0:0
84,112,180660,2,0,B|136:132|184:112,1,99.9999999999999
280,112,181410,6,0,B|332:92|377:111,2,99.9999999999999,8|0|0,0:0|0:0|0:0,0:0:0
332,196,182535,2,0,B|342:244|413:261|482:245|492:188,2,200,4|8|0,0:0|0:0|0:0,0:0:0
280,112,184410,1,0,0:0:0
188,76,184785,2,0,B|136:60,2,50,8|0|0,0:0|0:0|0:0,0:0:0
204,176,185535,6,0,B|194:224|123:241|53:225|44:168,1,200,4|0,0:0|0:0,0:0:0
126,115,186660,2,0,B|126:55,2,50,8|0|0,0:0|0:0|0:0,0:0:0
204,176,187410,1,4,0:0:0
300,204,187785,1,4,0:0:0
304,304,188160,1,4,0:0:0
388,248,188535,6,0,B|436:238|453:167|437:97|380:88,1,200,4|0,0:0|0:0,0:0:0
287,87,189660,2,0,B|223:67,2,50,8|0|0,0:0|0:0|0:0,0:0:0
341,171,190410,1,2,0:0:0
256,224,190785,1,2,0:0:0
170,171,191160,1,2,0:0:0
108,92,191535,6,0,B|60:102|43:173|59:242|116:252,1,200,4|0,0:0|0:0,0:0:0
170,171,192660,2,0,B|206:127,2,50
213,259,193410,2,0,B|205:311|153:339,2,99.9999999999999
170,170,194535,6,0,B|186:124|257:111|325:124|337:178,1,200
257,234,195660,1,0,0:0:0
350,270,196035,2,0,B|406:254|422:202,2,99.9999999999999
257,234,197160,1,0,0:0:0
162,270,197535,6,0,B|106:254|90:202,2,99.9999999999999,4|0|0,0:0|0:0|0:0,0:0:0
257,234,198660,1,0,0:0:0
256,192,198847,12,4,200535,0:0:0
340,192,201285,6,0,B|308:236|308:292,1,99.9999999999999
344,320,201847,2,0,B|252:368|148:324,1,200
80,192,203160,1,0,0:0:0
148,116,203535,6,0,B|104:84|48:96,1,99.9999999999999
80,192,204285,2,0,B|124:224|180:212,1,99.9999999999999
212,180,204847,2,0,B|244:140|304:140,2,99.9999999999999,0|0|2,0:0|0:0|0:0,0:0:0
256,324,206160,1,0,0:0:0
288,228,206535,6,0,B|343:228|375:188,1,99.9999999999999,4|0,0:0|0:0,0:0:0
476,180,207285,2,0,B|476:124|432:84|376:88,1,150,0|2,0:0|0:0,0:0:0
284,116,208222,1,2,0:0:0
212,48,208597,2,0,B|176:88|188:152,1,99.9999999999999,2|0,0:0|0:0,0:0:0
216,184,209160,6,0,B|208:240|164:272,1,99.9999999999999
68,268,209910,1,0,0:0:0
32,176,210285,2,0,B|12:120|36:72,1,99.9999999999999
120,32,211035,2,0,B|140:80|116:136,2,99.9999999999999
320,56,212535,5,4,0:0:0
392,124,212910,1,0,0:0:0
300,160,213285,2,0,B|284:200|312:228|296:268,1,99.9999999999999
268,300,213847,2,0,B|220:320|164:300,2,99.9999999999999,0|0|0,0:0|0:0|0:0,0:0:0
388,208,215160,1,0,0:0:0
300,160,215535,6,0,B|264:128|256:72,1,99.9999999999999,4|0,0:0|0:0,0:0:0
356,72,216285,2,0,B|392:104|400:160,1,99.9999999999999
388,208,216847,2,0,B|396:260|440:296,2,99.9999999999999,0|0|0,0:0|0:0|0:0,0:0:0
196,48,218535,5,4,0:0:0
100,72,218910,1,0,0:0:0
128,168,219285,2,0,B|84:200,2,50
172,144,219847,2,0,B|216:244|164:340,1,200
264,324,220972,2,0,B|340:308|416:308,1,150
440,108,222285,5,4,0:0:0
256,28,223035,1,4,0:0:0
72,108,223785,1,4,0:0:0
72,308,224535,6,0,B|82:356|153:373|222:357|232:300,1,200,4|0,0:0|0:0,0:0:0
244,208,225660,1,2,0:0:0
256,108,226035,2,0,B|266:60|337:43|406:59|416:116,1,200
336,172,227160,2,0,B|348:204|328:236|340:272,1,99.9999999999999,2|0,0:0|0:0,0:0:0
256,328,227910,5,0,0:0:0
196,248,228285,2,0,B|164:200|104:192,1,99.9999999999999,0|2,0:0|0:0,0:0:0
52,272,229035,2,0,B|4:262|-13:191|3:122|60:112,1,200
152,100,230160,1,2,0:0:0
176,196,230535,6,0,B|186:244|257:261|326:245|336:188,1,200,4|0,0:0|0:0,0:0:0
256,132,231660,1,2,0:0:0
348,96,232035,2,0,B|400:104|424:156,2,99.9999999999999
256,132,233160,1,2,0:0:0
192,56,233535,6,0,B|140:112|100:188,1,150,4|2,0:0|0:0,0:0:0
188,304,234660,1,0,0:0:0
264,368,235035,2,2,B|316:312|356:236,1,150,4|0,0:0|0:0,0:0:0
256,132,236160,1,0,0:0:0
256,192,236535,12,0,239535,0:0:0
