osu file format v13

[General]
AudioFilename: Sayonara Usotsuki.mp3
AudioLeadIn: 0
PreviewTime: 43207
Countdown: 0
SampleSet: Soft
StackLeniency: 0.7
Mode: 1
LetterboxInBreaks: 0
WidescreenStoryboard: 0

[Editor]
DistanceSpacing: 1.5
BeatDivisor: 4
GridSize: 4
TimelineZoom: 2.799999

[Metadata]
Title:Sayonara Usotsuki (TV Size)
TitleUnicode:サヨナラ嘘ツキ (TV Size)
Artist:MimimemeMIMI
ArtistUnicode:みみめめMIMI
Creator:Shina
Version:Futsuu
Source:Blade and Soul
Tags:ブレイドアンドソウル kin nozhomi mingmichael mmorpg
BeatmapID:424505
BeatmapSetID:165633

[Difficulty]
HPDrainRate:5
CircleSize:5
OverallDifficulty:5
ApproachRate:5
SliderMultiplier:1.4
SliderTickRate:2

[Events]
//Background and Video events
0,0,"baka_shina.jpg",0,0
//Break Periods
//Storyboard Layer 0 (Background)
//Storyboard Layer 1 (Fail)
//Storyboard Layer 2 (Pass)
//Storyboard Layer 3 (Foreground)
//Storyboard Sound Samples
//Background Colour Transformations
3,100,163,162,255

[TimingPoints]
1008,329.67032967033,4,2,0,100,1,0
55074,-100,4,2,0,100,0,1
76173,-100,4,2,0,100,0,0

[HitObjects]
176,124,1008,5,0,0:0:0:0:
176,124,1337,1,0,0:0:0:0:
176,124,1667,1,0,0:0:0:0:
176,124,1997,1,0,0:0:0:0:
176,124,2326,1,2,0:0:0:0:
120,208,2656,1,0,0:0:0:0:
120,208,2986,1,0,0:0:0:0:
120,208,3315,1,0,0:0:0:0:
120,208,3645,1,2,0:0:0:0:
192,168,3975,1,0,0:0:0:0:
192,168,4304,1,0,0:0:0:0:
236,176,4634,1,0,0:0:0:0:
236,176,4964,1,2,0:0:0:0:
236,176,5293,1,0,0:0:0:0:
136,188,5458,1,6,0:0:0:0:
28,184,5788,1,6,0:0:0:0:
28,184,6117,1,6,0:0:0:0:
296,144,6447,1,2,0:0:0:0:
296,144,6612,1,2,0:0:0:0:
296,144,6942,1,0,0:0:0:0:
296,144,7106,1,0,0:0:0:0:
88,196,7271,1,0,0:0:0:0:
296,144,7601,1,6,0:0:0:0:
100,168,7931,1,0,0:0:0:0:
100,168,8095,1,2,0:0:0:0:
64,208,8425,1,0,0:0:0:0:
144,172,8590,1,2,0:0:0:0:
180,172,8920,1,4,0:0:0:0:
156,216,9414,1,0,0:0:0:0:
260,180,9744,1,0,0:0:0:0:
260,180,10073,1,2,0:0:0:0:
36,196,10403,1,0,0:0:0:0:
36,196,10568,1,0,0:0:0:0:
36,196,10733,1,0,0:0:0:0:
400,304,11392,1,0,0:0:0:0:
400,304,11557,1,2,0:0:0:0:
400,304,11887,1,0,0:0:0:0:
188,172,12051,1,0,0:0:0:0:
400,304,12216,1,2,0:0:0:0:
256,268,12711,1,0,0:0:0:0:
316,280,12876,1,2,0:0:0:0:
316,280,13205,1,0,0:0:0:0:
316,280,13535,1,0,0:0:0:0:
316,280,13865,1,0,0:0:0:0:
252,200,14194,1,2,0:0:0:0:
116,144,14524,1,0,0:0:0:0:
116,144,14854,1,0,0:0:0:0:
116,144,15183,1,0,0:0:0:0:
116,144,15513,1,2,0:0:0:0:
232,284,16008,1,0,0:0:0:0:
208,224,16172,1,0,0:0:0:0:
232,284,16337,1,0,0:0:0:0:
236,248,16667,1,0,0:0:0:0:
96,128,16832,1,2,0:0:0:0:
104,80,17326,1,0,0:0:0:0:
184,240,17491,1,2,0:0:0:0:
144,172,17986,1,0,0:0:0:0:
144,172,18150,1,2,0:0:0:0:
44,176,18645,1,2,0:0:0:0:
44,176,18810,1,2,0:0:0:0:
44,176,18975,1,0,0:0:0:0:
44,176,19139,1,0,0:0:0:0:
44,176,19304,1,0,0:0:0:0:
44,176,19469,1,2,0:0:0:0:
140,172,19799,1,0,0:0:0:0:
140,172,20128,1,0,0:0:0:0:
140,172,20623,1,2,0:0:0:0:
140,172,20788,1,2,0:0:0:0:
104,172,21117,1,0,0:0:0:0:
104,172,21447,1,0,0:0:0:0:
104,172,21777,1,0,0:0:0:0:
140,172,22106,1,6,0:0:0:0:
188,88,22601,1,0,0:0:0:0:
188,88,22766,1,2,0:0:0:0:
212,244,23260,1,0,0:0:0:0:
212,244,23425,1,2,0:0:0:0:
72,152,23590,1,0,0:0:0:0:
0,148,23755,1,2,0:0:0:0:
72,152,24084,1,0,0:0:0:0:
72,152,24414,1,0,0:0:0:0:
72,152,24744,1,6,0:0:0:0:
124,108,25073,1,0,0:0:0:0:
124,108,25403,1,2,0:0:0:0:
124,108,25733,1,0,0:0:0:0:
124,108,26062,1,2,0:0:0:0:
120,164,26392,1,0,0:0:0:0:
120,164,26722,1,0,0:0:0:0:
120,164,27216,1,0,0:0:0:0:
120,164,27381,1,2,0:0:0:0:
188,176,27876,1,0,0:0:0:0:
188,176,28040,1,2,0:0:0:0:
108,124,28535,1,0,0:0:0:0:
108,124,28700,1,2,0:0:0:0:
72,152,29194,1,0,0:0:0:0:
72,152,29359,1,2,0:0:0:0:
12,152,29524,1,0,0:0:0:0:
12,152,29689,1,0,0:0:0:0:
12,152,29854,1,0,0:0:0:0:
12,152,30018,1,2,0:0:0:0:
144,148,30348,1,6,0:0:0:0:
144,148,30678,1,6,0:0:0:0:
144,148,31008,1,6,0:0:0:0:
144,148,31337,1,6,0:0:0:0:
112,172,31667,1,2,0:0:0:0:
112,172,31832,1,0,0:0:0:0:
112,172,31997,1,6,0:0:0:0:
4,156,32326,1,2,0:0:0:0:
4,156,32491,1,0,0:0:0:0:
104,216,32821,1,0,0:0:0:0:
104,216,32986,1,0,0:0:0:0:
104,216,33150,1,0,0:0:0:0:
188,184,33315,1,2,0:0:0:0:
4,156,33645,1,0,0:0:0:0:
4,156,33810,1,0,0:0:0:0:
184,140,34139,1,2,0:0:0:0:
224,132,34469,1,2,0:0:0:0:
180,88,34634,1,0,0:0:0:0:
180,80,34964,1,0,0:0:0:0:
112,240,35293,1,2,0:0:0:0:
128,208,35458,1,0,0:0:0:0:
232,252,35623,1,0,0:0:0:0:
232,252,35788,1,0,0:0:0:0:
232,252,35953,1,2,0:0:0:0:
44,148,36282,1,0,0:0:0:0:
44,148,36447,1,2,0:0:0:0:
156,160,36777,1,0,0:0:0:0:
156,160,37106,1,0,0:0:0:0:
156,160,37436,1,0,0:0:0:0:
156,160,37601,1,0,0:0:0:0:
156,160,37766,1,0,0:0:0:0:
156,160,37931,1,2,0:0:0:0:
64,168,38260,1,0,0:0:0:0:
64,168,38425,1,2,0:0:0:0:
64,168,38590,1,2,0:0:0:0:
180,128,38920,1,2,0:0:0:0:
180,128,39084,1,2,0:0:0:0:
180,128,39249,1,0,0:0:0:0:
248,88,39579,1,4,0:0:0:0:
248,88,39909,1,4,0:0:0:0:
248,88,40238,1,0,0:0:0:0:
248,88,40568,1,4,0:0:0:0:
0,144,40898,1,2,0:0:0:0:
164,200,41062,1,2,0:0:0:0:
0,144,41227,1,2,0:0:0:0:
164,200,41557,1,0,0:0:0:0:
192,196,41722,1,0,0:0:0:0:
192,196,41887,1,2,0:0:0:0:
128,140,42216,1,2,0:0:0:0:
128,140,42546,1,2,0:0:0:0:
264,268,42876,1,0,0:0:0:0:
264,268,43040,1,0,0:0:0:0:
168,36,43370,1,0,0:0:0:0:
168,36,43535,1,0,0:0:0:0:
292,244,43700,1,0,0:0:0:0:
112,60,43865,1,2,0:0:0:0:
168,160,44194,1,2,0:0:0:0:
168,160,44359,1,0,0:0:0:0:
168,160,44689,1,0,0:0:0:0:
168,160,44854,1,0,0:0:0:0:
168,160,45018,1,2,0:0:0:0:
28,148,45348,1,0,0:0:0:0:
84,136,45678,1,0,0:0:0:0:
84,136,46008,1,2,0:0:0:0:
84,136,46172,1,0,0:0:0:0:
184,72,46337,1,0,0:0:0:0:
184,72,46502,1,2,0:0:0:0:
184,72,46832,1,0,0:0:0:0:
184,72,46997,1,2,0:0:0:0:
184,72,47326,1,0,0:0:0:0:
184,72,47656,1,2,0:0:0:0:
184,72,47986,1,0,0:0:0:0:
160,128,48150,1,0,0:0:0:0:
160,128,48315,1,0,0:0:0:0:
160,128,48480,1,2,0:0:0:0:
192,168,48975,1,0,0:0:0:0:
192,168,49304,1,0,0:0:0:0:
192,168,49469,1,0,0:0:0:0:
192,168,49634,1,0,0:0:0:0:
192,168,49799,1,2,0:0:0:0:
136,148,50293,1,0,0:0:0:0:
88,160,50623,1,0,0:0:0:0:
88,160,50788,1,0,0:0:0:0:
88,160,50953,1,0,0:0:0:0:
136,148,51117,1,2,0:0:0:0:
208,136,51447,1,0,0:0:0:0:
208,136,51777,1,0,0:0:0:0:
208,136,51942,1,0,0:0:0:0:
208,136,52106,1,0,0:0:0:0:
208,136,52271,1,2,0:0:0:0:
140,236,52601,2,0,L|72:232,12,35
116,176,53755,1,2,0:0:0:0:
136,300,53920,1,2,0:0:0:0:
324,228,54084,1,0,0:0:0:0:
308,208,54414,1,2,0:0:0:0:
196,200,54744,1,2,0:0:0:0:
196,132,55074,1,2,0:0:0:0:
152,148,55403,1,0,0:0:0:0:
60,160,55568,1,2,0:0:0:0:
128,216,55733,1,0,0:0:0:0:
128,212,56063,1,0,0:0:0:0:
100,116,56392,1,2,0:0:0:0:
152,148,56722,1,0,0:0:0:0:
60,160,56887,1,2,0:0:0:0:
228,96,57216,1,0,0:0:0:0:
228,96,57381,1,0,0:0:0:0:
228,96,57546,1,2,0:0:0:0:
60,160,57876,1,0,0:0:0:0:
164,120,58041,1,0,0:0:0:0:
80,144,58205,5,2,0:0:0:0:
116,140,58370,1,2,0:0:0:0:
164,332,58700,1,2,0:0:0:0:
164,120,58865,1,2,0:0:0:0:
164,120,59029,1,0,0:0:0:0:
188,184,59194,1,0,0:0:0:0:
188,184,59524,1,2,0:0:0:0:
164,120,59854,1,0,0:0:0:0:
176,96,60183,1,0,0:0:0:0:
232,92,60348,1,2,0:0:0:0:
136,148,60678,1,0,0:0:0:0:
136,148,60843,1,0,0:0:0:0:
136,148,61008,1,2,0:0:0:0:
68,152,61337,1,2,0:0:0:0:
68,152,61502,1,0,0:0:0:0:
144,184,61667,1,0,0:0:0:0:
68,152,61997,1,2,0:0:0:0:
68,152,62161,1,0,0:0:0:0:
68,152,62326,1,2,0:0:0:0:
76,96,62656,1,0,0:0:0:0:
128,104,62986,1,6,0:0:0:0:
132,136,63315,1,0,0:0:0:0:
132,136,63480,1,2,0:0:0:0:
128,104,63810,1,0,0:0:0:0:
128,104,64139,1,2,0:0:0:0:
216,112,64469,1,0,0:0:0:0:
88,152,64634,1,0,0:0:0:0:
216,112,64799,1,2,0:0:0:0:
152,132,65128,1,0,0:0:0:0:
152,132,65293,1,0,0:0:0:0:
152,132,65458,1,2,0:0:0:0:
88,152,65623,1,2,0:0:0:0:
260,108,65953,1,0,0:0:0:0:
260,108,66282,1,2,0:0:0:0:
260,108,66447,1,2,0:0:0:0:
260,108,66777,1,0,0:0:0:0:
236,248,67271,1,2,0:0:0:0:
236,248,67436,1,0,0:0:0:0:
236,248,67601,1,2,0:0:0:0:
236,248,67931,1,0,0:0:0:0:
236,248,68095,1,2,0:0:0:0:
236,248,68260,1,0,0:0:0:0:
128,144,68590,1,0,0:0:0:0:
128,144,68920,1,2,0:0:0:0:
128,144,69084,1,2,0:0:0:0:
104,124,69414,1,0,0:0:0:0:
104,124,69744,1,0,0:0:0:0:
128,144,69909,1,0,0:0:0:0:
128,144,70074,1,2,0:0:0:0:
64,136,70403,1,0,0:0:0:0:
64,136,70568,1,0,0:0:0:0:
64,136,70898,1,0,0:0:0:0:
164,144,71063,1,0,0:0:0:0:
128,144,71227,1,2,0:0:0:0:
124,184,71557,1,0,0:0:0:0:
124,184,71887,1,0,0:0:0:0:
152,168,72216,1,0,0:0:0:0:
152,168,72381,1,0,0:0:0:0:
180,120,72546,1,2,0:0:0:0:
80,168,72876,1,0,0:0:0:0:
80,168,73370,1,0,0:0:0:0:
80,168,73535,1,0,0:0:0:0:
180,120,73700,1,0,0:0:0:0:
180,120,73865,1,0,0:0:0:0:
80,168,74194,1,2,0:0:0:0:
220,152,74524,1,0,0:0:0:0:
220,152,74689,1,0,0:0:0:0:
220,152,74854,1,2,0:0:0:0:
120,160,75183,1,6,0:0:0:0:
120,160,75513,1,6,0:0:0:0:
220,152,75843,1,6,0:0:0:0:
144,180,76172,1,0,0:0:0:0:
104,136,76667,1,0,0:0:0:0:
268,208,77161,1,6,0:0:0:0:
208,176,77491,1,6,0:0:0:0:
136,228,77986,1,0,0:0:0:0:
56,160,78480,1,6,0:0:0:0:
100,172,78810,1,6,0:0:0:0:
200,280,79304,1,0,0:0:0:0:
208,128,79799,1,0,0:0:0:0:
232,176,79964,1,6,0:0:0:0:
184,260,80293,1,0,0:0:0:0:
176,224,80458,1,2,0:0:0:0:
184,260,80788,1,6,0:0:0:0:
184,260,81117,1,6,0:0:0:0:
184,260,81447,1,6,0:0:0:0:
56,184,81942,1,0,0:0:0:0:
56,184,82436,1,6,0:0:0:0:
56,184,82766,1,6,0:0:0:0:
100,168,83260,1,0,0:0:0:0:
40,160,83755,1,6,0:0:0:0:
0,168,84084,1,6,0:0:0:0:
0,168,84579,1,0,0:0:0:0:
0,168,85074,1,2,0:0:0:0:
8,160,85238,1,2,0:0:0:0:
264,292,85568,1,0,0:0:0:0:
264,292,85898,1,0,0:0:0:0:
264,292,86227,1,0,0:0:0:0:
256,192,87052,12,0,89360,0:0:0:0:
