osu file format v13

[General]
AudioFilename: Hong Kong no Kijutsushi.mp3
AudioLeadIn: 0
PreviewTime: 59700
Countdown: 1
SampleSet: Normal
StackLeniency: 0.7
Mode: 1
LetterboxInBreaks: 1
WidescreenStoryboard: 0

[Editor]
DistanceSpacing: 1.2
BeatDivisor: 2
GridSize: 32
TimelineZoom: 1

[Metadata]
Title:Hong Kong no Kijutsushi
TitleUnicode:香港ノ奇術師
Artist:Mimi
ArtistUnicode:Mimi
Creator:tetsutaro
Version:Oni
Source:Dynamix
Tags:mikako kaiya
BeatmapID:570737
BeatmapSetID:248050

[Difficulty]
HPDrainRate:6
CircleSize:5
OverallDifficulty:6
ApproachRate:5
SliderMultiplier:1.4
SliderTickRate:1

[Events]
//Background and Video events
//Break Periods
//Storyboard Layer 0 (Background)
//Storyboard Layer 1 (Fail)
//Storyboard Layer 2 (Pass)
//Storyboard Layer 3 (Foreground)
//Storyboard Sound Samples

[TimingPoints]
2400,300,4,1,0,100,1,0
2400,-200,4,1,0,100,0,0
19200,-100,4,1,0,100,0,0
60000,-100,4,1,0,100,0,1
98400,-100,4,1,0,100,0,0

[HitObjects]
256,160,2400,5,0,0:0:0:0:
256,160,3600,1,0,0:0:0:0:
256,160,4200,1,8,0:0:0:0:
256,160,4800,1,0,0:0:0:0:
256,160,6000,1,0,0:0:0:0:
256,160,6600,1,8,0:0:0:0:
256,160,7200,1,0,0:0:0:0:
256,160,8400,1,0,0:0:0:0:
256,160,9000,1,0,0:0:0:0:
256,160,9600,1,8,0:0:0:0:
256,160,10800,1,0,0:0:0:0:
256,160,11700,1,0,0:0:0:0:
256,160,11850,1,0,0:0:0:0:
256,160,12000,1,0,0:0:0:0:
256,160,12600,1,0,0:0:0:0:
256,160,12900,1,8,0:0:0:0:
256,160,13200,1,0,0:0:0:0:
256,160,13500,1,0,0:0:0:0:
256,160,13800,1,8,0:0:0:0:
256,160,14100,1,8,0:0:0:0:
256,160,14400,1,0,0:0:0:0:
256,160,14700,1,0,0:0:0:0:
256,160,15000,1,0,0:0:0:0:
256,160,15300,1,8,0:0:0:0:
256,160,15600,1,0,0:0:0:0:
256,160,15900,1,0,0:0:0:0:
256,160,16200,1,0,0:0:0:0:
256,160,16350,1,0,0:0:0:0:
256,160,16500,1,0,0:0:0:0:
256,160,16650,1,0,0:0:0:0:
256,192,16800,12,0,18900,0:0:0:0:
256,160,19200,5,0,0:0:0:0:
256,160,19500,1,8,0:0:0:0:
256,160,19800,1,0,0:0:0:0:
256,160,19950,1,0,0:0:0:0:
256,160,20100,1,8,0:0:0:0:
256,160,20400,1,0,0:0:0:0:
256,160,20700,1,8,0:0:0:0:
256,160,21150,1,8,0:0:0:0:
256,160,21300,1,8,0:0:0:0:
256,160,21600,5,0,0:0:0:0:
256,160,21900,1,8,0:0:0:0:
256,160,22200,1,0,0:0:0:0:
256,160,22350,1,0,0:0:0:0:
256,160,22500,1,8,0:0:0:0:
256,160,22800,1,0,0:0:0:0:
256,160,23100,1,8,0:0:0:0:
256,160,23550,1,0,0:0:0:0:
256,160,23700,1,8,0:0:0:0:
256,160,23850,1,8,0:0:0:0:
256,160,24000,5,0,0:0:0:0:
256,160,24300,1,8,0:0:0:0:
256,160,24600,1,0,0:0:0:0:
256,160,24750,1,0,0:0:0:0:
256,160,24900,1,8,0:0:0:0:
256,160,25200,1,0,0:0:0:0:
256,160,25500,1,8,0:0:0:0:
256,160,25950,1,8,0:0:0:0:
256,160,26100,1,8,0:0:0:0:
256,160,26400,5,0,0:0:0:0:
256,160,26700,1,8,0:0:0:0:
256,160,27000,1,0,0:0:0:0:
256,160,27150,1,0,0:0:0:0:
256,160,27300,1,8,0:0:0:0:
256,160,27600,1,0,0:0:0:0:
256,160,27900,1,8,0:0:0:0:
256,160,28350,1,0,0:0:0:0:
256,160,28500,1,8,0:0:0:0:
256,160,28650,1,8,0:0:0:0:
256,160,28800,1,0,0:0:0:0:
256,160,29100,1,8,0:0:0:0:
256,160,29400,1,0,0:0:0:0:
256,160,29550,1,0,0:0:0:0:
256,160,29700,1,8,0:0:0:0:
256,160,30000,1,0,0:0:0:0:
256,160,30300,1,8,0:0:0:0:
256,160,30450,1,0,0:0:0:0:
256,160,30750,1,8,0:0:0:0:
256,160,30900,1,8,0:0:0:0:
256,160,31200,1,0,0:0:0:0:
256,160,31500,1,8,0:0:0:0:
256,160,31800,1,0,0:0:0:0:
256,160,31950,1,0,0:0:0:0:
256,160,32100,1,8,0:0:0:0:
256,160,32400,1,0,0:0:0:0:
256,160,32700,1,8,0:0:0:0:
256,160,32850,1,0,0:0:0:0:
256,160,33150,1,0,0:0:0:0:
256,160,33300,1,8,0:0:0:0:
256,160,33450,1,8,0:0:0:0:
256,160,33600,1,4,0:0:0:0:
256,160,33900,1,8,0:0:0:0:
256,160,34200,1,4,0:0:0:0:
256,160,34500,1,8,0:0:0:0:
256,160,34800,1,4,0:0:0:0:
256,160,35100,1,8,0:0:0:0:
256,160,35400,1,4,0:0:0:0:
256,160,35700,1,8,0:0:0:0:
256,160,36000,1,0,0:0:0:0:
256,160,36300,1,8,0:0:0:0:
256,160,36600,1,0,0:0:0:0:
256,160,36750,1,0,0:0:0:0:
256,160,36900,1,8,0:0:0:0:
256,160,37200,1,0,0:0:0:0:
256,160,37500,1,8,0:0:0:0:
256,160,37650,1,0,0:0:0:0:
256,160,37950,1,0,0:0:0:0:
256,160,38100,1,8,0:0:0:0:
256,160,38250,1,8,0:0:0:0:
256,160,38400,1,0,0:0:0:0:
256,160,39000,1,0,0:0:0:0:
256,160,39150,1,0,0:0:0:0:
256,160,39300,1,8,0:0:0:0:
256,160,39450,1,8,0:0:0:0:
256,160,39600,1,0,0:0:0:0:
256,160,40200,1,0,0:0:0:0:
256,160,40350,1,8,0:0:0:0:
256,160,40500,1,0,0:0:0:0:
256,160,40650,1,8,0:0:0:0:
256,160,40800,1,0,0:0:0:0:
256,160,41400,1,0,0:0:0:0:
256,160,41550,1,8,0:0:0:0:
256,160,41700,1,8,0:0:0:0:
256,160,41850,1,0,0:0:0:0:
256,160,42000,1,0,0:0:0:0:
256,160,42600,1,8,0:0:0:0:
256,160,43200,1,0,0:0:0:0:
256,160,43800,1,0,0:0:0:0:
256,160,43950,1,0,0:0:0:0:
256,160,44100,1,8,0:0:0:0:
256,160,44250,1,8,0:0:0:0:
256,160,44400,1,8,0:0:0:0:
256,160,45000,1,8,0:0:0:0:
256,160,45150,1,8,0:0:0:0:
256,160,45300,1,0,0:0:0:0:
256,160,45450,1,8,0:0:0:0:
256,160,45600,1,0,0:0:0:0:
256,160,45750,1,0,0:0:0:0:
256,160,45900,1,8,0:0:0:0:
256,160,46050,1,8,0:0:0:0:
256,160,46200,1,0,0:0:0:0:
256,160,46350,1,0,0:0:0:0:
256,160,46500,1,8,0:0:0:0:
256,160,46650,1,8,0:0:0:0:
256,160,46800,1,0,0:0:0:0:
256,160,48000,1,0,0:0:0:0:
256,160,48600,1,0,0:0:0:0:
256,160,48750,1,0,0:0:0:0:
256,160,48900,1,8,0:0:0:0:
256,160,49050,1,8,0:0:0:0:
256,160,49200,1,0,0:0:0:0:
256,160,49800,1,0,0:0:0:0:
256,160,49950,1,8,0:0:0:0:
256,160,50100,1,0,0:0:0:0:
256,160,50250,1,8,0:0:0:0:
256,160,50400,1,0,0:0:0:0:
256,160,51000,1,0,0:0:0:0:
256,160,51150,1,8,0:0:0:0:
256,160,51300,1,8,0:0:0:0:
256,160,51450,1,0,0:0:0:0:
256,160,51600,1,0,0:0:0:0:
256,160,52200,1,8,0:0:0:0:
256,160,52800,1,4,0:0:0:0:
256,160,53100,1,8,0:0:0:0:
256,160,53400,1,4,0:0:0:0:
256,160,53700,1,8,0:0:0:0:
256,160,54000,1,4,0:0:0:0:
256,160,54300,1,8,0:0:0:0:
256,160,54600,1,4,0:0:0:0:
256,160,54900,1,8,0:0:0:0:
256,160,55200,1,0,0:0:0:0:
256,160,55350,1,0,0:0:0:0:
256,160,55500,1,8,0:0:0:0:
256,160,55650,1,8,0:0:0:0:
256,160,55800,1,0,0:0:0:0:
256,160,55950,1,0,0:0:0:0:
256,160,56100,1,8,0:0:0:0:
256,160,56250,1,8,0:0:0:0:
256,160,56400,2,0,B|256:256|256:256|256:288|320:288|320:256|320:256|320:64|320:64|320:32|288:32,1,420
256,192,57600,12,0,59400,0:0:0:0:
256,160,59700,5,8,0:0:0:0:
256,160,59775,1,8,0:0:0:0:
256,160,59850,1,8,0:0:0:0:
256,160,59925,1,8,0:0:0:0:
256,160,60000,1,8,0:0:0:0:
256,160,60300,1,8,0:0:0:0:
256,160,60600,1,0,0:0:0:0:
256,160,60750,1,8,0:0:0:0:
256,160,61050,1,0,0:0:0:0:
256,160,61350,1,0,0:0:0:0:
256,160,61650,1,0,0:0:0:0:
256,160,61950,1,8,0:0:0:0:
256,160,62100,1,8,0:0:0:0:
256,160,62250,1,0,0:0:0:0:
256,160,62400,1,0,0:0:0:0:
256,160,62700,1,0,0:0:0:0:
256,160,63000,1,0,0:0:0:0:
256,160,63150,1,8,0:0:0:0:
256,160,63450,1,0,0:0:0:0:
256,160,63750,1,0,0:0:0:0:
251,164,63900,1,8,0:0:0:0:
256,160,64050,1,0,0:0:0:0:
256,160,64200,1,0,0:0:0:0:
244,162,64500,1,8,0:0:0:0:
244,162,64650,1,8,0:0:0:0:
256,160,64800,1,0,0:0:0:0:
256,160,65100,1,8,0:0:0:0:
256,160,65400,1,0,0:0:0:0:
256,160,65550,1,0,0:0:0:0:
256,160,65700,1,8,0:0:0:0:
256,160,65850,1,0,0:0:0:0:
256,160,66150,1,0,0:0:0:0:
256,160,66300,1,8,0:0:0:0:
256,160,66600,1,0,0:0:0:0:
256,160,66750,1,0,0:0:0:0:
256,160,66900,1,8,0:0:0:0:
256,160,67200,1,0,0:0:0:0:
256,160,67500,1,8,0:0:0:0:
256,160,67800,1,0,0:0:0:0:
256,160,67950,1,0,0:0:0:0:
256,160,68100,1,8,0:0:0:0:
244,162,68250,1,8,0:0:0:0:
244,162,68400,1,0,0:0:0:0:
256,160,68700,1,8,0:0:0:0:
256,160,69000,1,0,0:0:0:0:
256,160,69300,1,8,0:0:0:0:
256,160,69600,1,8,0:0:0:0:
256,160,69900,1,8,0:0:0:0:
256,160,70200,1,0,0:0:0:0:
256,160,70350,1,8,0:0:0:0:
256,160,70650,1,0,0:0:0:0:
256,160,70950,1,0,0:0:0:0:
256,160,71250,1,0,0:0:0:0:
256,160,71550,1,8,0:0:0:0:
256,160,71700,1,8,0:0:0:0:
256,160,71850,1,0,0:0:0:0:
256,160,72000,1,0,0:0:0:0:
256,160,72300,1,0,0:0:0:0:
256,160,72600,1,0,0:0:0:0:
256,160,72750,1,8,0:0:0:0:
256,160,73050,1,0,0:0:0:0:
256,160,73350,1,0,0:0:0:0:
236,151,73500,1,8,0:0:0:0:
256,160,73650,1,0,0:0:0:0:
256,160,73800,1,0,0:0:0:0:
246,160,74100,1,8,0:0:0:0:
246,160,74250,1,8,0:0:0:0:
256,160,74400,1,0,0:0:0:0:
256,160,74700,1,8,0:0:0:0:
256,160,75000,1,0,0:0:0:0:
256,160,75150,1,0,0:0:0:0:
256,160,75300,1,8,0:0:0:0:
256,160,75450,1,0,0:0:0:0:
256,160,75750,1,0,0:0:0:0:
256,160,75900,1,8,0:0:0:0:
256,160,76200,1,0,0:0:0:0:
256,160,76350,1,0,0:0:0:0:
256,160,76500,1,8,0:0:0:0:
256,160,76800,1,0,0:0:0:0:
256,160,77100,1,8,0:0:0:0:
256,160,77400,1,0,0:0:0:0:
256,160,77550,1,0,0:0:0:0:
256,160,77700,1,8,0:0:0:0:
256,160,77850,1,8,0:0:0:0:
256,160,78000,1,0,0:0:0:0:
256,160,78300,1,8,0:0:0:0:
256,160,78600,1,0,0:0:0:0:
256,160,78900,1,8,0:0:0:0:
256,160,79200,1,0,0:0:0:0:
256,160,79350,1,8,0:0:0:0:
256,160,79500,1,0,0:0:0:0:
256,160,79800,1,0,0:0:0:0:
256,160,79950,1,8,0:0:0:0:
256,160,80100,1,0,0:0:0:0:
256,160,80400,1,0,0:0:0:0:
256,160,80550,1,8,0:0:0:0:
256,160,80700,1,0,0:0:0:0:
256,160,80850,1,8,0:0:0:0:
256,160,81000,1,0,0:0:0:0:
256,160,81150,1,8,0:0:0:0:
256,160,81300,1,0,0:0:0:0:
256,160,81600,1,0,0:0:0:0:
256,160,81750,1,0,0:0:0:0:
256,160,81900,1,8,0:0:0:0:
256,160,82200,1,0,0:0:0:0:
256,160,82350,1,0,0:0:0:0:
256,160,82500,1,8,0:0:0:0:
256,160,82800,1,0,0:0:0:0:
256,160,82950,1,0,0:0:0:0:
256,160,83100,1,8,0:0:0:0:
256,160,83250,1,8,0:0:0:0:
256,160,83400,1,0,0:0:0:0:
256,160,83550,1,0,0:0:0:0:
256,160,83700,1,8,0:0:0:0:
256,160,83850,1,8,0:0:0:0:
256,160,84000,1,0,0:0:0:0:
256,160,84150,1,8,0:0:0:0:
256,160,84300,1,0,0:0:0:0:
256,160,84600,1,0,0:0:0:0:
256,160,84750,1,8,0:0:0:0:
256,160,84900,1,0,0:0:0:0:
256,160,85200,1,0,0:0:0:0:
256,160,85350,1,8,0:0:0:0:
256,160,85500,1,0,0:0:0:0:
256,160,85650,1,8,0:0:0:0:
256,160,85800,1,0,0:0:0:0:
256,160,85950,1,8,0:0:0:0:
256,160,86100,1,0,0:0:0:0:
256,160,86400,1,0,0:0:0:0:
256,160,86550,1,0,0:0:0:0:
256,160,86700,1,8,0:0:0:0:
256,160,87000,1,0,0:0:0:0:
256,160,87150,1,0,0:0:0:0:
256,160,87300,1,8,0:0:0:0:
256,160,87600,1,0,0:0:0:0:
256,160,87750,1,0,0:0:0:0:
256,160,87900,1,8,0:0:0:0:
256,160,88050,1,8,0:0:0:0:
256,160,88200,1,0,0:0:0:0:
256,160,88350,1,0,0:0:0:0:
256,160,88500,1,8,0:0:0:0:
256,160,88650,1,8,0:0:0:0:
256,160,88800,1,0,0:0:0:0:
256,160,88950,1,8,0:0:0:0:
256,160,89100,1,0,0:0:0:0:
256,160,89400,1,0,0:0:0:0:
256,160,89550,1,8,0:0:0:0:
256,160,89700,1,0,0:0:0:0:
256,160,89850,1,8,0:0:0:0:
256,160,90150,1,0,0:0:0:0:
256,160,90300,1,8,0:0:0:0:
256,160,90600,1,0,0:0:0:0:
256,160,90750,1,8,0:0:0:0:
256,160,90900,1,0,0:0:0:0:
256,160,91200,1,0,0:0:0:0:
256,160,91350,1,0,0:0:0:0:
256,160,91500,1,8,0:0:0:0:
256,160,91800,1,0,0:0:0:0:
256,160,91950,1,0,0:0:0:0:
256,160,92100,1,8,0:0:0:0:
256,160,92250,1,0,0:0:0:0:
256,160,92550,1,0,0:0:0:0:
256,160,92700,1,8,0:0:0:0:
256,160,93000,1,0,0:0:0:0:
256,160,93150,1,0,0:0:0:0:
256,160,93300,1,8,0:0:0:0:
256,160,93600,1,0,0:0:0:0:
256,160,93900,1,8,0:0:0:0:
256,160,94050,1,0,0:0:0:0:
256,160,94350,1,0,0:0:0:0:
256,160,94500,1,8,0:0:0:0:
256,160,94650,1,0,0:0:0:0:
256,160,94950,1,0,0:0:0:0:
256,160,95100,1,8,0:0:0:0:
256,160,95400,1,0,0:0:0:0:
256,160,95550,1,0,0:0:0:0:
256,160,95700,1,8,0:0:0:0:
256,160,96000,1,0,0:0:0:0:
256,160,96300,1,8,0:0:0:0:
256,160,96450,1,0,0:0:0:0:
256,160,96750,1,0,0:0:0:0:
256,160,96900,1,8,0:0:0:0:
256,160,97050,1,0,0:0:0:0:
256,160,97350,1,0,0:0:0:0:
256,160,97500,1,8,0:0:0:0:
256,160,97650,1,0,0:0:0:0:
256,160,97800,1,0,0:0:0:0:
256,160,97950,1,0,0:0:0:0:
256,160,98100,1,8,0:0:0:0:
256,160,98400,1,0,0:0:0:0:
256,160,98700,1,8,0:0:0:0:
256,160,99000,1,0,0:0:0:0:
256,160,99150,1,0,0:0:0:0:
256,160,99300,1,8,0:0:0:0:
256,160,99600,1,0,0:0:0:0:
256,160,99900,1,8,0:0:0:0:
256,160,100050,1,0,0:0:0:0:
256,160,100350,1,8,0:0:0:0:
256,160,100500,1,8,0:0:0:0:
256,160,100800,1,0,0:0:0:0:
256,160,101100,1,8,0:0:0:0:
256,160,101400,1,0,0:0:0:0:
256,160,101550,1,0,0:0:0:0:
256,160,101700,1,8,0:0:0:0:
256,160,102000,1,0,0:0:0:0:
256,160,102300,1,8,0:0:0:0:
256,160,102450,1,0,0:0:0:0:
256,160,102750,1,0,0:0:0:0:
256,160,102900,1,8,0:0:0:0:
256,160,103050,1,8,0:0:0:0:
256,160,103200,1,0,0:0:0:0:
256,160,103500,1,8,0:0:0:0:
256,160,103800,1,0,0:0:0:0:
256,160,103950,1,0,0:0:0:0:
256,160,104100,1,8,0:0:0:0:
256,160,104400,1,0,0:0:0:0:
256,160,104700,1,8,0:0:0:0:
256,160,104850,1,0,0:0:0:0:
256,160,105150,1,8,0:0:0:0:
256,160,105300,1,8,0:0:0:0:
256,160,105600,1,0,0:0:0:0:
256,160,105900,1,8,0:0:0:0:
256,160,106200,1,0,0:0:0:0:
256,160,106350,1,0,0:0:0:0:
256,160,106500,1,8,0:0:0:0:
256,160,106800,1,0,0:0:0:0:
256,160,107100,1,8,0:0:0:0:
256,160,107250,1,0,0:0:0:0:
256,160,107550,1,0,0:0:0:0:
256,160,107700,1,8,0:0:0:0:
256,160,107850,1,8,0:0:0:0:
256,160,108000,1,0,0:0:0:0:
256,160,108150,1,8,0:0:0:0:
256,160,108300,1,0,0:0:0:0:
256,160,108600,1,0,0:0:0:0:
256,160,108750,1,8,0:0:0:0:
256,160,108900,1,0,0:0:0:0:
256,160,109200,1,0,0:0:0:0:
256,160,109350,1,8,0:0:0:0:
256,160,109500,1,0,0:0:0:0:
256,160,109650,1,8,0:0:0:0:
256,160,109800,1,0,0:0:0:0:
256,160,109950,1,8,0:0:0:0:
256,160,110100,1,0,0:0:0:0:
256,160,110400,1,0,0:0:0:0:
256,160,110550,1,8,0:0:0:0:
256,160,110700,1,0,0:0:0:0:
256,160,110850,1,8,0:0:0:0:
256,160,111000,1,0,0:0:0:0:
256,160,111150,1,8,0:0:0:0:
256,160,111300,1,0,0:0:0:0:
256,160,111450,1,8,0:0:0:0:
256,160,111600,1,0,0:0:0:0:
256,160,111750,1,0,0:0:0:0:
256,160,111900,1,0,0:0:0:0:
256,160,112050,1,0,0:0:0:0:
256,160,112200,1,0,0:0:0:0:
256,160,112350,1,0,0:0:0:0:
256,160,112500,1,0,0:0:0:0:
256,160,112650,1,0,0:0:0:0:
256,192,112800,12,0,115200,0:0:0:0:
