osu file format v13

[General]
AudioFilename: Hong Kong no Kijutsushi.mp3
AudioLeadIn: 0
PreviewTime: 59700
Countdown: 1
SampleSet: None
StackLeniency: 0.7
Mode: 1
LetterboxInBreaks: 1
WidescreenStoryboard: 1

[Editor]
DistanceSpacing: 1.2
BeatDivisor: 2
GridSize: 32
TimelineZoom: 1

[Metadata]
Title:Hong Kong no Kijutsushi
TitleUnicode:香港ノ奇術師
Artist:Mimi
ArtistUnicode:Mimi
Creator:tetsutaro
Version:Muzukashii
Source:Dynamix
Tags:mikako kaiya
BeatmapID:570750
BeatmapSetID:248050

[Difficulty]
HPDrainRate:5
CircleSize:5
OverallDifficulty:6
ApproachRate:5
SliderMultiplier:1.4
SliderTickRate:1

[Events]
//Background and Video events
//Break Periods
//Storyboard Layer 0 (Background)
//Storyboard Layer 1 (Fail)
//Storyboard Layer 2 (Pass)
//Storyboard Layer 3 (Foreground)
//Storyboard Sound Samples

[TimingPoints]
2400,300,4,1,0,100,1,0
2400,-200,4,1,0,100,0,0
19200,-100,4,1,0,100,0,0
60000,-100,4,1,0,100,0,1
98400,-100,4,1,0,100,0,0

[HitObjects]
256,160,2400,5,0,0:0:0:0:
256,160,3600,1,0,0:0:0:0:
256,160,4200,1,8,0:0:0:0:
256,160,4800,1,0,0:0:0:0:
256,160,6000,1,0,0:0:0:0:
256,160,6600,1,8,0:0:0:0:
256,160,7200,1,0,0:0:0:0:
256,160,8400,1,0,0:0:0:0:
256,160,9000,1,0,0:0:0:0:
256,160,9600,1,8,0:0:0:0:
256,160,10800,1,0,0:0:0:0:
256,160,12000,1,0,0:0:0:0:
256,160,12600,1,0,0:0:0:0:
256,160,12900,1,8,0:0:0:0:
256,160,13200,1,0,0:0:0:0:
256,160,13500,1,0,0:0:0:0:
256,160,13800,1,8,0:0:0:0:
256,160,14100,1,8,0:0:0:0:
256,160,14400,1,0,0:0:0:0:
256,160,14700,1,0,0:0:0:0:
256,160,15000,1,8,0:0:0:0:
256,160,15300,1,8,0:0:0:0:
256,192,15600,12,0,16800,0:0:0:0:
256,160,19200,5,0,0:0:0:0:
256,160,19500,1,8,0:0:0:0:
256,160,20100,1,8,0:0:0:0:
256,160,20400,1,0,0:0:0:0:
256,160,20700,1,8,0:0:0:0:
256,160,21300,1,8,0:0:0:0:
256,160,21600,1,0,0:0:0:0:
256,160,21900,1,8,0:0:0:0:
256,160,22500,1,8,0:0:0:0:
256,160,22800,1,0,0:0:0:0:
256,160,23100,1,8,0:0:0:0:
256,160,23700,1,8,0:0:0:0:
256,160,23850,1,8,0:0:0:0:
256,160,24000,1,0,0:0:0:0:
256,160,24300,1,8,0:0:0:0:
256,160,24900,1,8,0:0:0:0:
256,160,25200,1,0,0:0:0:0:
256,160,25500,1,8,0:0:0:0:
256,160,26100,1,8,0:0:0:0:
256,160,26400,1,0,0:0:0:0:
256,160,26700,1,8,0:0:0:0:
256,160,27300,1,8,0:0:0:0:
256,160,27600,1,0,0:0:0:0:
256,160,27900,1,8,0:0:0:0:
256,160,28500,1,8,0:0:0:0:
256,160,28650,1,8,0:0:0:0:
256,160,28800,1,0,0:0:0:0:
256,160,29100,1,8,0:0:0:0:
256,128,29400,1,0,0:0:0:0:
256,128,29700,1,8,0:0:0:0:
256,128,30000,1,0,0:0:0:0:
256,128,30300,1,8,0:0:0:0:
256,128,30600,1,0,0:0:0:0:
256,128,30750,1,0,0:0:0:0:
256,128,30900,1,8,0:0:0:0:
256,128,31200,1,0,0:0:0:0:
256,128,31500,1,8,0:0:0:0:
256,128,31800,1,0,0:0:0:0:
256,128,32100,1,8,0:0:0:0:
256,128,32400,1,0,0:0:0:0:
256,128,32700,1,8,0:0:0:0:
256,128,32850,1,0,0:0:0:0:
256,128,33150,1,0,0:0:0:0:
256,128,33300,1,8,0:0:0:0:
256,128,33450,1,8,0:0:0:0:
256,128,33600,1,0,0:0:0:0:
256,128,33900,1,8,0:0:0:0:
256,128,34200,1,0,0:0:0:0:
256,128,34500,1,8,0:0:0:0:
256,128,34800,1,0,0:0:0:0:
256,128,35100,1,8,0:0:0:0:
256,128,35400,1,0,0:0:0:0:
256,128,35550,1,0,0:0:0:0:
256,128,35700,1,8,0:0:0:0:
256,128,36000,1,0,0:0:0:0:
256,128,36300,1,8,0:0:0:0:
256,128,36600,1,0,0:0:0:0:
256,128,36900,1,8,0:0:0:0:
256,128,37200,1,0,0:0:0:0:
256,128,37500,1,8,0:0:0:0:
256,128,37650,1,0,0:0:0:0:
256,128,37950,1,0,0:0:0:0:
256,128,38100,1,8,0:0:0:0:
256,128,38250,1,8,0:0:0:0:
256,160,38400,1,0,0:0:0:0:
256,160,39000,1,0,0:0:0:0:
256,160,39150,1,0,0:0:0:0:
256,160,39300,1,0,0:0:0:0:
256,160,39450,1,0,0:0:0:0:
256,160,39600,1,0,0:0:0:0:
256,160,40200,1,8,0:0:0:0:
256,160,40350,1,8,0:0:0:0:
256,160,40500,1,8,0:0:0:0:
256,160,40650,1,8,0:0:0:0:
256,160,40800,1,8,0:0:0:0:
256,160,41400,1,0,0:0:0:0:
256,160,41550,1,0,0:0:0:0:
256,160,41700,1,0,0:0:0:0:
256,160,41850,1,0,0:0:0:0:
256,160,42000,1,0,0:0:0:0:
256,160,42600,1,0,0:0:0:0:
256,160,43200,1,0,0:0:0:0:
256,160,43800,1,0,0:0:0:0:
256,160,43950,1,0,0:0:0:0:
256,160,44100,1,0,0:0:0:0:
256,160,44250,1,0,0:0:0:0:
256,160,44400,1,0,0:0:0:0:
256,160,45000,1,8,0:0:0:0:
256,160,45150,1,8,0:0:0:0:
256,160,45300,1,8,0:0:0:0:
256,160,45450,1,8,0:0:0:0:
256,160,45600,1,0,0:0:0:0:
256,160,45750,1,0,0:0:0:0:
256,160,45900,1,0,0:0:0:0:
256,160,46200,1,0,0:0:0:0:
256,160,46350,1,0,0:0:0:0:
256,160,46500,1,0,0:0:0:0:
105,168,46800,2,0,P|231:266|428:123,1,420
256,160,48000,1,0,0:0:0:0:
256,160,48600,1,0,0:0:0:0:
256,160,48750,1,0,0:0:0:0:
256,160,48900,1,0,0:0:0:0:
256,160,49050,1,0,0:0:0:0:
256,160,49200,1,0,0:0:0:0:
256,160,49800,1,8,0:0:0:0:
256,160,49950,1,8,0:0:0:0:
256,160,50100,1,8,0:0:0:0:
256,160,50250,1,8,0:0:0:0:
256,160,50400,1,8,0:0:0:0:
256,160,51000,1,0,0:0:0:0:
256,160,51150,1,0,0:0:0:0:
256,160,51300,1,0,0:0:0:0:
256,160,51450,1,0,0:0:0:0:
256,160,51600,1,0,0:0:0:0:
256,160,52200,1,0,0:0:0:0:
268,129,52800,1,0,0:0:0:0:
268,129,53400,1,0,0:0:0:0:
268,129,53550,1,0,0:0:0:0:
268,129,53700,1,0,0:0:0:0:
268,129,53850,1,0,0:0:0:0:
268,129,54000,1,0,0:0:0:0:
268,129,54600,1,8,0:0:0:0:
268,129,54750,1,8,0:0:0:0:
268,129,54900,1,8,0:0:0:0:
268,129,55050,1,8,0:0:0:0:
256,160,55200,1,0,0:0:0:0:
241,143,55350,1,0,0:0:0:0:
256,160,55500,1,0,0:0:0:0:
256,160,55800,1,0,0:0:0:0:
241,143,55950,1,0,0:0:0:0:
256,160,56100,1,0,0:0:0:0:
256,160,56400,2,0,B|256:256|256:256|256:288|320:288|320:256|320:256|320:64|320:64|320:32|288:32,1,420
256,192,57600,12,0,59700,0:0:0:0:
224,160,60000,5,0,0:0:0:0:
224,160,60300,1,8,0:0:0:0:
224,160,60600,1,0,0:0:0:0:
224,160,60750,1,8,0:0:0:0:
224,160,61050,1,0,0:0:0:0:
224,160,61350,1,0,0:0:0:0:
224,160,61650,1,0,0:0:0:0:
224,160,61950,1,8,0:0:0:0:
224,160,62100,1,8,0:0:0:0:
224,160,62400,1,0,0:0:0:0:
224,160,62700,1,8,0:0:0:0:
224,160,63000,1,0,0:0:0:0:
224,160,63150,1,8,0:0:0:0:
224,160,63450,1,0,0:0:0:0:
224,160,63750,1,0,0:0:0:0:
224,160,64050,1,0,0:0:0:0:
224,160,64350,1,0,0:0:0:0:
224,160,64500,1,8,0:0:0:0:
224,160,64800,1,0,0:0:0:0:
224,160,65100,1,8,0:0:0:0:
224,160,65550,1,0,0:0:0:0:
224,160,65700,1,8,0:0:0:0:
224,160,66000,1,0,0:0:0:0:
224,160,66300,1,8,0:0:0:0:
224,160,66750,1,0,0:0:0:0:
224,160,66900,1,8,0:0:0:0:
224,160,67200,1,0,0:0:0:0:
224,160,67500,1,8,0:0:0:0:
224,160,67950,1,0,0:0:0:0:
224,160,68100,1,8,0:0:0:0:
224,160,68400,1,0,0:0:0:0:
224,160,68700,1,8,0:0:0:0:
224,160,68850,1,0,0:0:0:0:
224,160,69150,1,0,0:0:0:0:
224,160,69300,1,8,0:0:0:0:
224,160,69450,1,8,0:0:0:0:
224,160,69600,1,0,0:0:0:0:
224,160,69900,1,8,0:0:0:0:
224,160,70200,1,0,0:0:0:0:
224,160,70350,1,8,0:0:0:0:
224,160,70650,1,0,0:0:0:0:
224,160,70950,1,0,0:0:0:0:
224,160,71250,1,0,0:0:0:0:
224,160,71550,1,8,0:0:0:0:
224,160,71700,1,8,0:0:0:0:
224,160,72000,1,0,0:0:0:0:
224,160,72300,1,8,0:0:0:0:
224,160,72600,1,0,0:0:0:0:
224,160,72750,1,8,0:0:0:0:
256,128,73050,1,0,0:0:0:0:
256,128,73350,1,0,0:0:0:0:
256,128,73650,1,0,0:0:0:0:
256,128,73950,1,0,0:0:0:0:
256,128,74100,1,8,0:0:0:0:
256,128,74400,1,0,0:0:0:0:
256,128,74700,1,8,0:0:0:0:
256,128,75150,1,0,0:0:0:0:
256,128,75300,1,8,0:0:0:0:
256,128,75600,1,0,0:0:0:0:
256,128,75900,1,8,0:0:0:0:
256,128,76350,1,0,0:0:0:0:
256,128,76500,1,8,0:0:0:0:
256,128,76800,1,0,0:0:0:0:
256,128,77100,1,8,0:0:0:0:
256,128,77550,1,0,0:0:0:0:
256,128,77700,1,8,0:0:0:0:
256,128,78000,1,0,0:0:0:0:
256,128,78300,1,8,0:0:0:0:
256,128,78450,1,0,0:0:0:0:
256,128,78750,1,0,0:0:0:0:
256,128,78900,1,8,0:0:0:0:
256,128,79050,1,8,0:0:0:0:
256,128,79200,1,0,0:0:0:0:
256,128,79500,1,8,0:0:0:0:
256,128,79800,1,0,0:0:0:0:
256,128,80100,1,8,0:0:0:0:
256,128,80400,1,0,0:0:0:0:
256,128,80700,1,8,0:0:0:0:
256,128,81000,1,0,0:0:0:0:
256,128,81150,1,0,0:0:0:0:
256,128,81300,1,8,0:0:0:0:
256,128,81600,1,0,0:0:0:0:
256,128,81900,1,8,0:0:0:0:
256,128,82200,1,0,0:0:0:0:
256,128,82500,1,8,0:0:0:0:
256,128,82800,1,0,0:0:0:0:
256,128,83100,1,8,0:0:0:0:
256,128,83250,1,0,0:0:0:0:
256,128,83550,1,0,0:0:0:0:
256,128,83700,1,8,0:0:0:0:
256,128,83850,1,8,0:0:0:0:
256,128,84000,1,0,0:0:0:0:
256,128,84300,1,8,0:0:0:0:
256,128,84600,1,0,0:0:0:0:
256,128,84900,1,8,0:0:0:0:
256,128,85200,1,0,0:0:0:0:
256,128,85500,1,8,0:0:0:0:
256,128,85800,1,0,0:0:0:0:
256,128,85950,1,0,0:0:0:0:
256,128,86100,1,8,0:0:0:0:
256,128,86400,1,0,0:0:0:0:
256,128,86700,1,8,0:0:0:0:
256,128,87000,1,0,0:0:0:0:
256,128,87300,1,8,0:0:0:0:
256,128,87600,1,0,0:0:0:0:
256,128,87900,1,8,0:0:0:0:
256,128,88050,1,0,0:0:0:0:
256,128,88350,1,0,0:0:0:0:
256,128,88500,1,8,0:0:0:0:
256,128,88650,1,8,0:0:0:0:
256,128,88800,1,0,0:0:0:0:
256,128,89100,1,8,0:0:0:0:
256,128,89400,1,0,0:0:0:0:
256,128,89700,1,8,0:0:0:0:
256,128,90000,1,0,0:0:0:0:
256,128,90300,1,8,0:0:0:0:
256,128,90600,1,0,0:0:0:0:
256,128,90750,1,0,0:0:0:0:
256,128,90900,1,8,0:0:0:0:
256,128,91200,1,0,0:0:0:0:
256,128,91500,1,8,0:0:0:0:
256,128,91800,1,0,0:0:0:0:
256,128,92100,1,8,0:0:0:0:
256,128,92400,1,0,0:0:0:0:
256,128,92700,1,8,0:0:0:0:
256,128,92850,1,0,0:0:0:0:
256,128,93150,1,0,0:0:0:0:
256,128,93300,1,8,0:0:0:0:
256,128,93450,1,8,0:0:0:0:
256,128,93600,1,0,0:0:0:0:
256,128,93900,1,8,0:0:0:0:
256,128,94200,1,0,0:0:0:0:
256,128,94500,1,8,0:0:0:0:
256,128,94800,1,0,0:0:0:0:
256,128,95100,1,8,0:0:0:0:
256,128,95400,1,0,0:0:0:0:
256,128,95550,1,0,0:0:0:0:
256,128,95700,1,8,0:0:0:0:
256,128,96000,1,0,0:0:0:0:
256,128,96300,1,8,0:0:0:0:
256,128,96600,1,0,0:0:0:0:
256,128,96900,1,8,0:0:0:0:
256,128,97200,1,0,0:0:0:0:
256,128,97500,1,8,0:0:0:0:
256,128,97650,1,0,0:0:0:0:
256,128,97950,1,0,0:0:0:0:
256,128,98100,1,8,0:0:0:0:
256,128,98250,1,8,0:0:0:0:
224,96,98400,1,0,0:0:0:0:
256,128,99600,1,0,0:0:0:0:
256,128,100200,1,8,0:0:0:0:
256,128,100800,1,0,0:0:0:0:
256,128,102000,1,0,0:0:0:0:
256,128,102600,1,8,0:0:0:0:
256,128,103200,1,0,0:0:0:0:
256,128,104400,1,0,0:0:0:0:
256,128,105000,1,0,0:0:0:0:
256,128,105600,1,8,0:0:0:0:
256,128,106800,1,0,0:0:0:0:
256,128,108000,1,0,0:0:0:0:
256,128,108300,1,8,0:0:0:0:
256,128,108600,1,0,0:0:0:0:
248,111,108750,1,0,0:0:0:0:
256,128,108900,1,8,0:0:0:0:
256,128,109200,1,0,0:0:0:0:
256,128,109500,1,8,0:0:0:0:
256,128,109800,1,0,0:0:0:0:
256,128,109950,1,0,0:0:0:0:
256,128,110100,1,8,0:0:0:0:
256,128,110400,1,0,0:0:0:0:
256,128,110700,1,0,0:0:0:0:
256,128,111000,1,0,0:0:0:0:
256,128,111300,1,0,0:0:0:0:
256,128,111600,1,0,0:0:0:0:
256,128,111900,1,0,0:0:0:0:
256,128,112200,1,0,0:0:0:0:
256,128,112350,1,0,0:0:0:0:
256,96,112500,1,0,0:0:0:0:
256,128,112650,1,0,0:0:0:0:
256,192,112800,12,0,115200,0:0:0:0:
