osu file format v12

[General]
AudioFilename: bgm_event1.mp3
AudioLeadIn: 0
PreviewTime: -1
Countdown: 0
SampleSet: None
StackLeniency: 0.5
Mode: 0
LetterboxInBreaks: 1
WidescreenStoryboard: 0

[Editor]
Bookmarks: 5647,67764,73411
DistanceSpacing: 0.7
BeatDivisor: 4
GridSize: 4

[Metadata]
Title:Battle Bgm
TitleUnicode:妖精戰
Artist:Millionarthur
ArtistUnicode:擴散性百萬亞瑟王
Creator:OrangeNeKo
Version:crz17
Source:
Tags:SquareEnix ma
BeatmapID:319684
BeatmapSetID:125618

[Difficulty]
HPDrainRate:7
CircleSize:5
OverallDifficulty:7
ApproachRate:9
SliderMultiplier:2
SliderTickRate:2

[Events]
//Background and Video events
0,0,"c75f04d3d539b600e21f45eee850352ac75cb72c.jpg",0,0
//Break Periods
//Storyboard Layer 0 (Background)
//Storyboard Layer 1 (Fail)
//Storyboard Layer 2 (Pass)
//Storyboard Layer 3 (Foreground)
//Storyboard Sound Samples
//Background Colour Transformations
3,100,163,162,255

[TimingPoints]
5,352.941176470588,4,2,0,100,1,0
11294,-100,4,2,0,100,0,1
22588,-100,4,2,0,100,0,0
33882,-100,4,2,0,100,0,1
45176,-100,4,2,0,100,0,0
64941,-100,4,2,0,100,0,1
67764,-100,4,2,0,100,0,0

[Colours]
Combo1 : 0,255,0
Combo2 : 255,255,181

[HitObjects]
216,328,5,1,0,0:0:0:0:
152,300,92,1,0,0:0:0:0:
96,256,180,1,0,0:0:0:0:
64,196,268,1,0,0:0:0:0:
56,128,357,2,0,P|100:96|160:80,1,100
276,112,710,2,0,L|152:184,1,100
332,184,1063,2,0,P|312:240|332:288,1,100
436,172,1416,2,0,P|460:120|448:68,1,100
414,54,1769,2,0,P|364:55|316:44,1,100
292,124,2122,1,0,0:0:0:0:
156,84,2299,2,2,L|201:63,2,50
300,324,2828,5,0,0:0:0:0:
364,296,2916,1,0,0:0:0:0:
404,240,3004,1,0,0:0:0:0:
392,172,3093,1,0,0:0:0:0:
344,124,3181,2,0,P|320:188|336:236,1,100
240,104,3534,2,0,P|247:54|273:12,1,100
148,72,3887,2,0,L|52:168,1,100
88,284,4240,2,0,L|160:164,1,100
200,288,4593,2,0,L|200:204,1,50
264,236,4769,2,0,L|264:172,1,50
204,160,4946,2,2,P|132:172|88:168,1,100
272,256,5299,2,2,P|340:240|392:244,1,100
324,112,5652,6,2,L|264:68,2,50
404,96,6004,2,0,L|312:24,1,100
152,96,6357,2,0,P|216:24|228:-8,1,100
104,36,6710,2,0,P|72:88|88:144,1,100
248,160,7063,1,0,0:0:0:0:
248,160,7152,1,0,0:0:0:0:
248,160,7240,2,0,P|225:104|240:24,1,100
360,120,7593,2,0,P|360:172|348:244,1,100
236,312,7946,1,2,0:0:0:0:
236,312,8122,2,0,P|264:244|296:192,1,100
412,184,8475,5,0,0:0:0:0:
412,184,8563,1,0,0:0:0:0:
412,184,8652,2,0,P|428:128|424:72,1,100
176,80,9004,2,0,B|232:52|232:52|264:64|284:40,1,100
280,184,9357,1,4,0:0:0:0:
280,184,9534,2,0,B|224:156|224:156|192:168|172:144,1,100
36,320,9887,1,0,0:0:0:0:
36,320,10063,2,0,L|116:324,1,50
136,336,10240,2,0,L|28:320,1,100
152,192,10593,1,0,0:0:0:0:
56,228,10769,2,2,B|48:196|48:196|96:188|108:132,1,100
48,104,11299,5,2,0:0:0:0:
48,104,11387,1,2,0:0:0:0:
48,104,11476,2,0,P|112:48|156:32,1,100
152,124,11828,2,0,P|224:68|232:32,1,100
312,160,12181,1,0,0:0:0:0:
312,160,12357,2,2,L|280:72,1,50
336,24,12533,2,0,L|360:80,1,50
396,152,12710,2,0,P|392:208|384:264,1,100
272,340,13063,2,0,P|296:272|300:224,1,100
216,264,13416,2,0,P|216:192|240:160,1,100
112,272,13769,1,0,0:0:0:0:
112,272,13857,1,0,0:0:0:0:
112,272,13946,2,0,P|56:228|32:188,1,100
32,176,14210,1,0,0:0:0:0:
40,144,14299,2,0,P|96:112|136:72,1,100
180,176,14652,2,0,P|92:124|68:24,1,200
152,44,15181,1,0,0:0:0:0:
224,80,15357,1,0,0:0:0:0:
304,128,15534,2,0,P|360:60|360:8,1,100
412,148,15887,2,0,L|392:248,1,100
256,308,16240,1,2,0:0:0:0:
256,308,16328,1,2,0:0:0:0:
256,308,16416,2,2,P|224:232|216:176,1,100
64,140,16946,6,0,P|116:180|136:232,1,100
136,72,17299,1,0,0:0:0:0:
136,72,17387,1,0,0:0:0:0:
136,72,17476,2,0,L|248:4,1,100
216,120,17829,2,0,L|344:28,1,150
360,68,18181,2,0,L|264:112,1,100
240,228,18534,2,0,L|300:136,1,100
412,152,18887,2,0,L|368:212,4,50
336,324,19416,2,0,P|320:264|320:216,1,100
128,112,19769,6,0,P|138:134|152:155,2,50
164,88,20034,2,0,P|224:96|264:140,1,100
268,140,20299,1,0,0:0:0:0:
280,164,20388,2,0,P|284:236|252:300,1,100
268,296,20652,2,0,P|307:265|352:243,1,100
388,244,20917,2,0,P|384:184|392:140,1,100
404,112,21182,2,0,L|417:45,1,50
320,64,21446,2,0,L|260:16,2,50
192,136,21799,2,0,L|208:64,2,50
192,256,22152,1,0,0:0:0:0:
192,256,22241,1,0,0:0:0:0:
192,256,22329,2,0,L|264:232,2,50
188,256,22593,1,0,0:0:0:0:
340,328,22769,5,0,0:0:0:0:
340,328,22857,1,0,0:0:0:0:
340,328,22946,2,0,P|416:256|416:224,1,100
340,220,23299,2,0,P|348:152|364:120,1,100
300,48,23652,2,0,P|352:100|364:140,1,100
184,188,24004,1,0,0:0:0:0:
176,52,24181,1,0,0:0:0:0:
116,340,24357,5,0,0:0:0:0:
116,340,24446,1,0,0:0:0:0:
116,340,24534,2,0,P|120:256|112:216,1,100
232,132,24887,2,0,P|264:188|260:232,1,100
376,172,25240,1,0,0:0:0:0:
248,292,25416,1,0,0:0:0:0:
248,292,25504,1,0,0:0:0:0:
248,292,25593,2,0,P|324:320|372:316,1,100
440,224,25946,1,0,0:0:0:0:
440,224,26122,2,0,P|348:236|300:220,1,100
164,216,26475,2,0,P|240:184|288:176,1,100
352,112,26828,1,0,0:0:0:0:
352,112,27004,5,0,0:0:0:0:
80,92,27181,1,0,0:0:0:0:
288,148,27357,1,0,0:0:0:0:
116,152,27534,1,0,0:0:0:0:
264,232,27710,1,0,0:0:0:0:
168,208,27887,1,0,0:0:0:0:
164,212,28063,1,0,0:0:0:0:
156,220,28240,2,0,L|92:268,2,50
292,324,28593,1,0,0:0:0:0:
292,324,28769,1,0,0:0:0:0:
292,324,28857,1,0,0:0:0:0:
292,324,28946,2,0,L|356:332,2,50
356,252,29299,6,0,P|376:200|404:156,1,100
320,76,29652,1,0,0:0:0:0:
320,76,29740,1,0,0:0:0:0:
320,76,29828,2,0,P|264:116|216:136,1,100
200,244,30181,1,0,0:0:0:0:
96,192,30357,1,0,0:0:0:0:
72,88,30534,1,0,0:0:0:0:
144,24,30710,2,0,P|228:48|264:64,1,100
320,228,31063,6,0,P|356:156|364:120,1,100
372,68,31416,2,0,P|336:116|316:176,1,100
232,132,31769,2,0,L|200:80,2,50
180,128,32034,2,0,L|120:100,2,50
140,156,32299,2,0,L|72:160,3,50
124,200,32652,2,0,L|64:248,3,50
140,256,33005,2,0,L|88:304,3,50
212,303,33357,2,0,P|256:281|291:245,1,100
404,212,33710,1,0,0:0:0:0:
404,212,33887,2,0,P|380:264|372:308,1,100
304,224,34240,2,0,P|308:152|348:84,1,150
336,88,34593,2,0,P|297:154|252:184,1,100
208,96,34946,1,0,0:0:0:0:
248,64,35034,1,0,0:0:0:0:
292,40,35122,2,0,P|344:20|400:28,1,100
96,88,35475,5,0,0:0:0:0:
96,88,35563,1,0,0:0:0:0:
96,88,35652,2,0,P|88:164|104:200,1,100
172,284,36004,2,0,P|188:200|176:160,1,100
60,296,36357,1,0,0:0:0:0:
272,200,36534,1,0,0:0:0:0:
272,200,36622,1,0,0:0:0:0:
272,200,36710,2,0,P|340:144|392:140,1,100
172,284,37063,1,0,0:0:0:0:
404,324,37240,2,0,P|392:252|404:180,1,100
140,60,37593,2,0,L|244:136,1,100
252,120,37857,1,0,0:0:0:0:
280,108,37946,2,0,L|192:40,1,100
108,212,38299,2,0,P|84:152|88:112,1,100
240,260,38652,1,0,0:0:0:0:
208,176,38828,2,0,L|160:152,1,50
164,152,39004,5,0,0:0:0:0:
164,152,39093,1,0,0:0:0:0:
164,152,39181,2,0,P|224:100|248:88,1,100
368,168,39534,1,0,0:0:0:0:
368,88,39710,2,0,L|296:16|296:16,1,100
316,264,40063,2,0,P|284:196|284:164,1,100
432,236,40416,1,0,0:0:0:0:
432,236,40504,1,0,0:0:0:0:
432,236,40593,2,0,P|468:312|464:348,1,100
188,288,40946,1,0,0:0:0:0:
376,336,41122,1,0,0:0:0:0:
188,288,41299,1,0,0:0:0:0:
376,336,41475,1,0,0:0:0:0:
232,176,41652,2,0,P|204:120|208:76,1,100
232,64,41916,1,0,0:0:0:0:
256,40,42004,2,0,P|292:100|296:140,1,100
292,236,42357,5,0,0:0:0:0:
268,260,42446,1,0,0:0:0:0:
244,272,42534,1,0,0:0:0:0:
216,284,42622,1,0,0:0:0:0:
192,284,42710,1,0,0:0:0:0:
168,276,42799,1,0,0:0:0:0:
152,260,42887,1,0,0:0:0:0:
144,240,42975,2,0,L|128:192,3,50
128,164,43328,1,0,0:0:0:0:
140,140,43416,2,0,L|160:88,3,50
176,76,43769,5,0,0:0:0:0:
200,68,43857,1,0,0:0:0:0:
224,60,43946,1,0,0:0:0:0:
248,52,44034,1,0,0:0:0:0:
276,44,44122,2,0,P|312:36|336:32,3,50
360,40,44475,1,0,0:0:0:0:
392,92,44563,1,0,0:0:0:0:
392,152,44652,1,0,0:0:0:0:
364,208,44740,1,0,0:0:0:0:
312,240,44828,1,0,0:0:0:0:
256,252,44916,2,0,P|208:324|208:388,1,150
292,360,45357,2,0,P|216:304|208:280,1,100
176,232,45710,6,0,P|216:152|252:120,1,100
288,108,46063,1,0,0:0:0:0:
288,108,46152,1,0,0:0:0:0:
288,108,46240,2,0,L|196:24,1,100
96,120,46593,2,0,L|212:88,1,100
80,260,46946,1,0,0:0:0:0:
96,120,47122,1,0,0:0:0:0:
200,196,47299,2,0,L|288:172,1,50
328,224,47475,2,0,L|268:248,1,50
208,288,47652,2,0,P|280:328|344:320,1,150
376,308,48004,2,0,L|420:264,2,50
404,144,48357,5,0,0:0:0:0:
240,80,48534,1,0,0:0:0:0:
148,136,48710,2,0,P|184:64|208:36,1,100
336,80,49063,1,0,0:0:0:0:
344,252,49240,2,0,P|316:196|312:152,1,100
148,260,49593,1,0,0:0:0:0:
148,260,49681,1,0,0:0:0:0:
148,260,49769,2,0,L|224:184,1,100
248,368,50122,2,0,L|252:256,1,100
376,328,50475,1,0,0:0:0:0:
252,268,50652,1,0,0:0:0:0:
364,192,50828,1,0,0:0:0:0:
364,192,50916,1,0,0:0:0:0:
364,192,51004,1,0,0:0:0:0:
304,108,51181,2,0,P|348:48|384:20,1,100
264,176,51534,2,0,P|216:244|192:260,1,100
88,104,51887,1,0,0:0:0:0:
204,80,52063,1,0,0:0:0:0:
88,236,52240,1,0,0:0:0:0:
224,188,52416,2,0,L|176:224,2,50
304,136,52769,1,0,0:0:0:0:
304,136,52857,1,0,0:0:0:0:
304,136,52946,2,0,P|340:72|360:20,1,100
216,40,53652,6,0,P|132:96|96:160,1,150
100,168,54004,2,0,P|104:276|128:336,1,150
148,308,54357,2,0,L|216:260,2,50
232,168,54710,1,0,0:0:0:0:
360,208,54887,1,0,0:0:0:0:
244,248,55063,2,0,L|356:292,1,100
152,116,55416,1,0,0:0:0:0:
320,108,55593,2,0,L|224:68,1,100
152,116,55946,2,0,P|220:88|268:88,1,100
340,328,56475,6,0,P|404:208|408:152,1,150
400,176,56828,2,0,P|330:79|274:39,1,150
292,88,57181,2,0,L|267:151,2,50
264,240,57534,1,0,0:0:0:0:
264,240,57710,2,0,P|200:208|180:164,1,100
172,148,57975,1,0,0:0:0:0:
172,104,58063,2,0,P|236:80|284:80,1,100
116,248,58416,1,0,0:0:0:0:
120,168,58593,2,0,P|80:128|64:88,1,100
192,276,58946,1,0,0:0:0:0:
192,276,59034,1,0,0:0:0:0:
192,276,59122,2,0,L|312:304,1,100
312,284,59475,6,0,L|212:260,1,100
376,232,59828,2,0,L|308:152,1,100
416,168,60181,1,0,0:0:0:0:
416,168,60357,2,0,L|404:48,1,100
220,192,60710,1,0,0:0:0:0:
144,80,60886,1,0,0:0:0:0:
144,80,60975,1,0,0:0:0:0:
144,80,61063,2,0,P|224:40|244:40,1,100
232,72,61328,1,0,0:0:0:0:
232,104,61416,2,0,P|176:148|136:156,1,100
116,272,61769,2,0,L|168:308,2,50
224,256,62122,2,0,P|304:232|328:208,1,100
364,120,62475,5,0,0:0:0:0:
364,120,62563,1,0,0:0:0:0:
364,120,62652,2,0,P|288:144|256:180,1,100
420,276,63004,2,0,P|420:196|412:164,1,100
260,308,63357,1,0,0:0:0:0:
260,308,63534,2,0,P|248:232|196:176,1,150
184,168,63887,2,0,P|148:116|171:24,1,150
180,36,64240,2,0,P|264:48|340:28,1,150
360,24,64593,2,0,L|412:48,2,50
348,124,64946,2,0,P|340:164|340:248,1,100
380,308,65299,2,0,L|392:236,2,50
352,332,65563,1,0,0:0:0:0:
324,360,65652,2,0,L|264:348,2,50
324,360,65916,2,0,P|304:304|312:192,1,150
216,144,66357,6,0,P|196:228|204:276,1,100
216,264,66622,1,0,0:0:0:0:
240,288,66710,2,0,P|264:224|264:184,1,100
284,112,67063,2,0,P|240:68|184:44,1,100
120,172,67416,2,0,P|112:104|124:64,1,100
124,256,67769,2,0,L|136:324,2,50
216,264,68122,2,0,L|248:312,2,50
320,264,68475,2,0,L|384:292,2,50
416,224,68828,1,0,0:0:0:0:
240,160,69004,1,0,0:0:0:0:
376,112,69181,1,0,0:0:0:0:
192,60,69357,1,0,0:0:0:0:
112,144,69534,5,0,0:0:0:0:
112,144,69622,1,0,0:0:0:0:
112,144,69710,2,0,P|80:228|76:272,1,100
168,348,70063,2,0,P|176:256|168:220,1,100
264,232,70416,1,0,0:0:0:0:
264,232,70593,2,0,L|296:172,2,50
356,228,70946,2,0,L|380:176,2,50
324,128,71299,2,0,L|348:76,2,50
264,52,71652,2,0,L|288:0,2,50
168,128,72004,1,0,0:0:0:0:
112,180,72181,1,0,0:0:0:0:
228,184,72357,5,0,0:0:0:0:
136,264,72534,1,0,0:0:0:0:
296,224,72710,1,0,0:0:0:0:
168,368,72887,1,0,0:0:0:0:
388,232,73063,1,0,0:0:0:0:
388,232,73152,1,0,0:0:0:0:
388,232,73240,2,0,L|372:140,2,50
