osu file format v12

[General]
AudioFilename: bgm_event1.mp3
AudioLeadIn: 0
PreviewTime: -1
Countdown: 0
SampleSet: None
StackLeniency: 0.2
Mode: 0
LetterboxInBreaks: 1
WidescreenStoryboard: 1

[Editor]
Bookmarks: 5647,67764,73411
DistanceSpacing: 1
BeatDivisor: 4
GridSize: 4

[Metadata]
Title:Battle Bgm
TitleUnicode:妖精戰
Artist:Millionarthur
ArtistUnicode:擴散性百萬亞瑟王
Creator:OrangeNeKo
Version:Lv4.L4D
Source:
Tags:SquareEnix ma
BeatmapID:319685
BeatmapSetID:125618

[Difficulty]
HPDrainRate:7
CircleSize:4
OverallDifficulty:7
ApproachRate:9
SliderMultiplier:1.8
SliderTickRate:1

[Events]
//Background and Video events
0,0,"c75f04d3d539b600e21f45eee850352ac75cb72c.jpg",0,0
//Break Periods
//Storyboard Layer 0 (Background)
//Storyboard Layer 1 (Fail)
//Storyboard Layer 2 (Pass)
//Storyboard Layer 3 (Foreground)
//Storyboard Sound Samples
//Background Colour Transformations
3,100,163,162,255

[TimingPoints]
5,352.941176470588,4,2,0,90,1,0
10946,-100,4,2,0,80,0,0
11299,-83.3333333333333,4,1,0,60,0,1
12004,-100,4,1,0,60,0,1
12710,-83.3333333333333,4,1,0,60,0,1
13416,-100,4,1,0,60,0,1
14122,-83.3333333333333,4,1,0,60,0,1
14828,-100,4,1,0,60,0,1
15710,-83.3333333333333,4,1,0,60,0,1
16593,-100,4,1,0,60,0,1
16946,-83.3333333333333,4,1,0,60,0,1
17652,-100,4,1,0,60,0,1
18181,-83.3333333333333,4,1,0,60,0,1
19063,-100,4,1,0,60,0,1
22593,-100,4,1,0,60,0,0
27534,-100,4,1,0,50,0,0
27887,-100,4,1,0,60,0,0
33887,-83.3333333333333,4,1,0,60,0,1
34593,-100,4,1,0,60,0,1
34946,-83.3333333333333,4,1,0,60,0,1
36004,-100,4,1,0,60,0,1
36357,-83.3333333333333,4,1,0,60,0,1
37416,-100,4,1,0,60,0,1
38299,-83.3333333333333,4,1,0,60,0,1
39181,-100,4,1,0,60,0,1
39534,-83.3333333333333,4,1,0,60,0,1
40240,-100,4,1,0,60,0,1
40593,-83.3333333333333,4,1,0,60,0,1
41652,-100,4,1,0,60,0,1
45181,-83.3333333333333,4,1,0,60,0,0
45534,-83.3333333333333,4,2,0,80,0,0
64946,-83.3333333333333,4,1,0,60,0,1
67769,-83.3333333333333,4,1,0,60,0,0

[Colours]
Combo1 : 0,255,0
Combo2 : 255,255,181

[HitObjects]
168,280,5,6,0,P|232:276|280:280,1,90
344,104,357,2,0,P|280:108|232:104,1,90,2|0,0:0|0:0,0:0:0:0:
344,280,710,2,0,P|340:216|344:168,1,90
168,104,1063,2,0,P|172:168|168:216,1,90,2|0,0:0|0:0,0:0:0:0:
64,316,1416,6,0,P|96:224|100:196,1,90,0|0,0:0|0:0,0:0:0:0:
136,20,1769,2,0,P|168:112|172:140,1,90,2|0,0:0|0:0,0:0:0:0:
264,356,2122,2,0,P|232:264|228:236,1,90,0|0,0:0|0:0,0:0:0:0:
336,60,2475,2,0,P|304:152|300:180,1,90,2|0,0:0|0:0,0:0:0:0:
232,271,2828,6,0,L|132:256,1,90
56,152,3181,2,0,L|156:167,1,90,2|0,0:0|0:0,0:0:0:0:
279,112,3534,2,0,L|380:128,1,90
456,232,3887,2,0,L|355:216,1,90,2|0,0:0|0:0,0:0:0:0:
268,200,4240,5,0,0:0:0:0:
300,292,4416,1,0,0:0:0:0:
368,220,4593,1,2,0:0:0:0:
168,180,4769,1,0,0:0:0:0:
236,108,4946,1,0,0:0:0:0:
368,220,5122,1,0,0:0:0:0:
200,272,5298,1,2,0:0:0:0:
68,160,5475,1,0,0:0:0:0:
136,88,5652,6,0,P|188:88|232:84,1,90,0|0,0:0|0:0,0:0:0:0:
360,72,6004,2,0,P|360:124|364:168,1,90,2|0,0:0|0:0,0:0:0:0:
376,296,6357,1,0,0:0:0:0:
152,312,6534,1,0,0:0:0:0:
136,88,6710,1,2,0:0:0:0:
360,72,6887,1,0,0:0:0:0:
440,132,7063,6,0,P|448:192|464:232,1,90
308,352,7416,2,0,L|296:256,1,90,2|0,0:0|0:0,0:0:0:0:
216,120,7769,2,0,L|204:24,1,90,0|0,0:0|0:0,0:0:0:0:
72,252,8122,2,0,P|64:192|48:152,1,90,2|0,0:0|0:0,0:0:0:0:
152,308,8475,5,0,0:0:0:0:
216,232,8652,1,0,0:0:0:0:
308,192,8828,2,0,P|308:104|312:60,1,90,2|0,0:0|0:0,0:0:0:0:
400,232,9181,2,0,P|400:320|404:364,1,90,0|0,0:0|0:0,0:0:0:0:
492,280,9534,1,2,0:0:0:0:
308,288,9710,1,0,0:0:0:0:
224,340,9887,5,0,0:0:0:0:
132,172,10063,1,0,0:0:0:0:
200,244,10240,1,2,0:0:0:0:
40,136,10416,1,0,0:0:0:0:
68,272,10593,1,0,0:0:0:0:
176,112,10769,1,0,0:0:0:0:
336,220,10946,1,10,0:0:0:0:
336,220,11299,6,0,P|332:156|348:88,1,107.999996704102,2|0,0:0|0:0,0:0:0:0:
272,348,11652,2,0,L|140:320,1,107.999996704102,8|0,0:0|0:0,0:0:0:0:
68,92,12004,2,0,P|76:180|60:300,1,180,2|8,0:0|0:0,0:0:0:0:
68,92,12534,1,2,0:0:0:0:
68,92,12622,1,0,0:0:0:0:
68,92,12710,2,0,P|128:96|192:104,1,107.999996704102,0|0,0:0|0:0,0:0:0:0:
336,120,13063,1,8,0:0:0:0:
236,248,13240,1,0,0:0:0:0:
68,92,13416,2,0,P|176:84|280:84,2,180,2|0|2,0:0|0:0|0:0,0:0:0:0:
200,308,14299,6,0,P|208:216|216:184,1,107.999996704102,0|8,0:0|0:0,0:0:0:0:
72,304,14652,1,0,0:0:0:0:
68,92,14828,2,0,B|56:160|56:160|108:188|140:248,1,180,2|8,0:0|0:0,0:0:0:0:
268,380,15357,2,0,P|264:284|292:204,1,180,0|0,0:0|0:0,0:0:0:0:
412,332,15887,1,8,0:0:0:0:
476,172,16063,1,0,0:0:0:0:
356,44,16240,2,0,P|304:48|236:44,1,107.999996704102,2|0,0:0|0:0,0:0:0:0:
112,208,16593,2,0,P|208:204|304:208,1,180,8|2,0:0|0:0,0:0:0:0:
291,207,17122,5,0,0:0:0:0:
204,356,17299,1,8,0:0:0:0:
60,124,17475,1,0,0:0:0:0:
112,208,17652,2,0,P|168:148|120:56,1,180,2|8,0:0|0:0,0:0:0:0:
196,264,18181,1,2,0:0:0:0:
196,264,18269,1,0,0:0:0:0:
196,264,18357,2,0,L|328:260,1,107.999996704102,0|0,0:0|0:0,0:0:0:0:
480,164,18710,2,0,L|348:168,1,107.999996704102,8|0,0:0|0:0,0:0:0:0:
196,88,19063,2,0,P|212:172|196:264,1,180,2|0,0:0|0:0,0:0:0:0:
340,376,19769,5,0,0:0:0:0:
320,340,19857,1,0,0:0:0:0:
324,300,19946,1,0,0:0:0:0:
348,268,20034,1,0,0:0:0:0:
388,256,20122,5,0,0:0:0:0:
424,236,20210,1,0,0:0:0:0:
444,200,20299,1,0,0:0:0:0:
432,160,20387,1,0,0:0:0:0:
404,128,20475,2,0,L|408:60,3,45
320,44,20828,2,0,L|316:112,3,45,0|0|0|0,0:0|0:0|0:0|0:0,0:0:0:0:
228,68,21181,5,0,0:0:0:0:
192,48,21269,1,0,0:0:0:0:
152,36,21357,1,0,0:0:0:0:
112,40,21446,1,0,0:0:0:0:
76,60,21534,1,0,0:0:0:0:
92,96,21622,1,0,0:0:0:0:
96,136,21710,1,0,0:0:0:0:
72,168,21799,1,0,0:0:0:0:
36,188,21887,6,0,L|24:124,1,45,0|0,0:0|0:0,0:0:0:0:
120,272,22063,2,0,L|128:212,1,45,0|0,0:0|0:0,0:0:0:0:
212,188,22240,2,0,L|200:124,1,45,0|0,0:0|0:0,0:0:0:0:
300,276,22416,2,0,L|308:216,1,45,0|0,0:0|0:0,0:0:0:0:
388,188,22593,5,0,0:0:0:0:
388,188,22681,1,0,0:0:0:0:
388,188,22769,2,0,L|372:80,1,90,0|8,0:0|0:0,0:0:0:0:
300,276,23122,1,0,0:0:0:0:
288,276,23210,1,0,0:0:0:0:
276,276,23299,1,0,0:0:0:0:
264,276,23387,1,0,0:0:0:0:
252,276,23475,2,0,L|128:276,1,90,0|8,0:0|0:0,0:0:0:0:
40,40,23828,6,0,P|52:92|56:160,1,90,2|0,0:0|0:0,0:0:0:0:
28,212,24093,1,0,0:0:0:0:
28,212,24181,2,0,L|16:340,1,90,0|8,0:0|0:0,0:0:0:0:
136,156,24534,1,0,0:0:0:0:
136,156,24622,1,0,0:0:0:0:
56,128,24799,1,0,0:0:0:0:
56,128,24887,1,0,0:0:0:0:
112,244,25063,2,0,P|192:244|232:248,1,90,8|2,0:0|0:0,0:0:0:0:
300,76,25416,5,0,0:0:0:0:
304,116,25504,1,0,0:0:0:0:
292,156,25593,1,0,0:0:0:0:
200,244,25769,1,8,0:0:0:0:
96,128,25946,1,0,0:0:0:0:
132,116,26034,1,0,0:0:0:0:
168,108,26122,1,0,0:0:0:0:
204,108,26210,1,0,0:0:0:0:
240,112,26299,1,0,0:0:0:0:
336,192,26475,2,0,L|408:112,1,90,8|2,0:0|0:0,0:0:0:0:
256,272,26828,5,0,0:0:0:0:
176,192,27004,1,0,0:0:0:0:
256,112,27181,1,0,0:0:0:0:
336,192,27357,1,0,0:0:0:0:
368,84,27534,2,2,P|388:20|404:-12,1,90,0|2,0:0|0:0,0:0:0:0:
336,192,27887,1,2,0:0:0:0:
176,32,28063,1,2,0:0:0:0:
148,136,28240,5,0,0:0:0:0:
148,136,28328,1,0,0:0:0:0:
148,136,28416,2,0,B|152:184|152:184|148:248,1,90,0|8,0:0|0:0,0:0:0:0:
64,304,28769,1,0,0:0:0:0:
32,272,28857,1,0,0:0:0:0:
24,228,28946,1,0,0:0:0:0:
32,184,29034,1,0,0:0:0:0:
60,148,29122,1,0,0:0:0:0:
148,224,29299,2,0,P|228:220|272:220,1,90,8|2,0:0|0:0,0:0:0:0:
400,148,29652,5,0,0:0:0:0:
400,148,29740,1,0,0:0:0:0:
400,148,29828,2,0,P|320:152|276:152,1,90,0|8,0:0|0:0,0:0:0:0:
492,140,30181,1,0,0:0:0:0:
492,140,30269,1,0,0:0:0:0:
396,44,30446,1,0,0:0:0:0:
396,44,30534,1,0,0:0:0:0:
312,240,30710,2,0,P|316:188|300:132,1,90,8|2,0:0|0:0,0:0:0:0:
252,308,31064,5,0,0:0:0:0:
212,328,31152,1,0,0:0:0:0:
168,332,31240,1,0,0:0:0:0:
124,320,31328,1,0,0:0:0:0:
88,292,31416,5,0,0:0:0:0:
84,268,31504,1,0,0:0:0:0:
80,244,31593,1,0,0:0:0:0:
76,224,31681,1,0,0:0:0:0:
104,188,31769,1,0,0:0:0:0:
108,164,31857,1,0,0:0:0:0:
112,140,31946,1,0,0:0:0:0:
116,120,32034,1,0,0:0:0:0:
104,76,32122,5,0,0:0:0:0:
140,48,32210,1,0,0:0:0:0:
184,40,32299,1,0,0:0:0:0:
224,56,32387,1,0,0:0:0:0:
256,88,32475,1,0,0:0:0:0:
280,128,32563,1,0,0:0:0:0:
324,144,32652,1,0,0:0:0:0:
368,128,32740,1,0,0:0:0:0:
404,100,32828,6,0,L|412:32,1,45,0|0,0:0|0:0,0:0:0:0:
428,216,33004,2,0,L|460:260,1,45
316,260,33181,2,0,L|284:304,1,45
288,140,33357,2,0,L|256:96,1,45
200,224,33534,1,0,0:0:0:0:
188,220,33622,1,0,0:0:0:0:
176,216,33710,1,0,0:0:0:0:
164,212,33799,1,0,0:0:0:0:
148,208,33887,6,0,L|40:208,1,107.999996704102,2|0,0:0|0:0,0:0:0:0:
180,28,34240,2,0,P|180:108|204:152,1,107.999996704102,8|0,0:0|0:0,0:0:0:0:
268,336,34593,2,0,P|312:260|256:196,1,180,2|8,0:0|0:0,0:0:0:0:
408,152,35122,2,0,L|384:276,1,107.999996704102,2|0,0:0|0:0,0:0:0:0:
268,336,35475,2,0,L|292:212,1,107.999996704102,0|8,0:0|0:0,0:0:0:0:
168,308,35828,1,0,0:0:0:0:
104,148,36004,2,0,P|156:224|164:340,1,180,2|8,0:0|0:0,0:0:0:0:
104,148,36534,1,0,0:0:0:0:
8,196,36710,6,0,L|-28:48,1,107.999996704102,2|0,0:0|0:0,0:0:0:0:
96,248,37063,2,0,P|156:224|232:208,1,107.999996704102,8|0,0:0|0:0,0:0:0:0:
300,52,37416,2,0,P|272:132|304:232,1,180,2|8,0:0|0:0,0:0:0:0:
172,332,37946,2,0,P|200:252|168:152,1,180,0|0,0:0|0:0,0:0:0:0:
268,324,38475,2,0,P|336:320|396:320,1,107.999996704102,8|0,0:0|0:0,0:0:0:0:
432,228,38828,2,0,P|352:196|300:184,1,107.999996704102,2|0,0:0|0:0,0:0:0:0:
80,156,39181,2,0,P|164:196|288:216,1,180,8|2,0:0|0:0,0:0:0:0:
312,272,39710,5,0,0:0:0:0:
268,128,39887,1,8,0:0:0:0:
168,316,40063,1,0,0:0:0:0:
80,156,40240,2,0,B|128:160|176:140|176:140|212:160|276:168,1,180,2|8,0:0|0:0,0:0:0:0:
372,72,40769,1,2,0:0:0:0:
372,72,40857,1,0,0:0:0:0:
372,72,40946,2,0,P|364:144|368:200,1,107.999996704102,0|0,0:0|0:0,0:0:0:0:
284,356,41299,1,8,0:0:0:0:
172,236,41475,1,0,0:0:0:0:
100,304,41652,6,0,P|72:220|128:144,2,180,2|8|0,0:0|0:0|0:0,0:0:0:0:
144,316,42446,1,0,0:0:0:0:
188,324,42534,1,0,0:0:0:0:
232,332,42622,1,0,0:0:0:0:
264,300,42710,1,0,0:0:0:0:
308,308,42798,1,0,0:0:0:0:
352,316,42886,1,0,0:0:0:0:
396,324,42975,1,0,0:0:0:0:
408,284,43063,6,0,L|420:208,3,45
468,180,43416,2,0,L|544:192,3,45
444,68,43769,2,0,L|432:144,3,45
384,164,44122,2,0,L|308:152,3,45
272,216,44475,5,0,0:0:0:0:
252,220,44563,1,0,0:0:0:0:
232,224,44652,1,0,0:0:0:0:
212,228,44740,1,0,0:0:0:0:
168,216,44828,1,0,0:0:0:0:
148,220,44916,1,0,0:0:0:0:
128,224,45005,1,0,0:0:0:0:
108,228,45093,1,0,0:0:0:0:
80,232,45181,2,0,B|68:176|68:176|80:116,1,107.999996704102,0|0,0:0|0:0,0:0:0:0:
160,40,45534,6,0,P|224:32|300:32,1,107.999996704102,8|0,0:0|0:0,0:0:0:0:
344,108,45887,1,0,0:0:0:0:
184,240,46063,2,0,P|192:176|160:88,2,107.999996704102,0|8|0,0:0|0:0|0:0,0:0:0:0:
268,308,46593,1,0,0:0:0:0:
328,220,46769,2,0,L|452:204,1,107.999996704102,0|8,0:0|0:0,0:0:0:0:
240,144,47122,1,0,0:0:0:0:
116,256,47299,1,0,0:0:0:0:
268,308,47476,1,0,0:0:0:0:
328,220,47652,2,0,P|360:140|288:40,1,215.999993408203,8|0,0:0|0:0,0:0:0:0:
240,144,48181,6,0,P|184:148|112:160,2,107.999996704102,0|8|0,0:0|0:0|0:0,0:0:0:0:
328,220,48710,2,0,P|384:224|456:236,1,107.999996704102
492,112,49063,2,0,P|440:120|364:128,1,107.999996704102,8|0,0:0|0:0,0:0:0:0:
240,144,49416,1,0,0:0:0:0:
300,44,49593,1,0,0:0:0:0:
384,124,49769,1,8,0:0:0:0:
328,220,49946,1,0,0:0:0:0:
152,248,50122,1,0,0:0:0:0:
124,72,50299,1,0,0:0:0:0:
152,248,50475,2,0,L|172:368,1,107.999996704102,8|0,0:0|0:0,0:0:0:0:
340,356,50828,6,0,L|360:236,1,107.999996704102,0|0,0:0|0:0,0:0:0:0:
248,56,51181,2,0,P|272:120|312:176,1,107.999996704102,8|0,0:0|0:0,0:0:0:0:
412,148,51534,2,0,P|460:112|520:88,1,107.999996704102
356,248,51887,2,0,P|316:184|280:140,1,107.999996704102,8|0,0:0|0:0,0:0:0:0:
192,104,52240,1,0,0:0:0:0:
84,156,52416,1,0,0:0:0:0:
188,216,52593,1,8,0:0:0:0:
292,276,52769,5,0,0:0:0:0:
316,244,52857,1,0,0:0:0:0:
308,208,52946,2,0,P|296:148|312:88,1,107.999996704102
408,244,53299,1,8,0:0:0:0:
484,168,53475,1,0,0:0:0:0:
356,36,53652,2,0,P|376:84|380:160,1,107.999996704102
512,272,54004,2,0,P|492:224|488:148,1,107.999996704102,8|0,0:0|0:0,0:0:0:0:
356,36,54357,6,0,P|288:44|202:65,1,107.999996704102
152,168,54710,2,0,P|84:176|-1:197,1,107.999996704102,8|0,0:0|0:0,0:0:0:0:
156,348,55063,2,0,P|224:340|309:318,1,107.999996704102
360,216,55416,2,0,P|428:208|513:186,1,107.999996704102,8|0,0:0|0:0,0:0:0:0:
280,88,55769,5,8,0:0:0:0:
152,168,55946,1,8,0:0:0:0:
232,296,56122,1,8,0:0:0:0:
360,216,56299,1,8,0:0:0:0:
152,168,56475,2,0,P|64:168|12:176,1,107.999996704102
148,344,56828,2,0,P|124:284|88:220,1,107.999996704102,8|0,0:0|0:0,0:0:0:0:
244,144,57181,2,0,P|220:204|184:268,1,107.999996704102,0|0,0:0|0:0,0:0:0:0:
344,112,57534,2,0,P|324:44|192:56,1,215.999993408203,8|0,0:0|0:0,0:0:0:0:
108,108,58063,6,0,L|100:-16,1,107.999996704102,0|8,0:0|0:0,0:0:0:0:
116,216,58416,1,0,0:0:0:0:
116,216,58504,1,0,0:0:0:0:
116,216,58593,2,0,P|180:208|240:208,1,107.999996704102
392,132,58946,2,0,P|328:124|268:124,1,107.999996704102,8|0,0:0|0:0,0:0:0:0:
468,312,59299,2,0,P|464:248|472:180,1,107.999996704102,0|0,0:0|0:0,0:0:0:0:
392,132,59652,5,8,0:0:0:0:
336,284,59828,1,0,0:0:0:0:
284,180,60004,1,0,0:0:0:0:
392,132,60181,1,0,0:0:0:0:
336,284,60357,1,8,0:0:0:0:
176,228,60534,1,0,0:0:0:0:
232,76,60710,2,0,L|352:76,1,107.999996704102
124,124,61063,6,0,L|4:124,1,107.999996704102,8|0,0:0|0:0,0:0:0:0:
176,228,61416,1,8,0:0:0:0:
124,124,61593,1,8,0:0:0:0:
284,180,61769,1,8,0:0:0:0:
232,76,61946,1,8,0:0:0:0:
284,180,62122,6,0,P|292:240|280:296,1,107.999996704102
360,88,62475,2,0,L|492:80,1,107.999996704102,8|0,0:0|0:0,0:0:0:0:
284,180,62828,2,0,B|204:188|204:188|140:180|140:180|28:192,1,215.999993408203,0|8,0:0|0:0,0:0:0:0:
252,328,63357,1,0,0:0:0:0:
156,324,63534,2,0,P|192:256|228:220,1,107.999996704102,4|0,0:0|0:0,0:0:0:0:
124,92,63887,2,0,P|192:128|228:164,1,107.999996704102,4|0,0:0|0:0,0:0:0:0:
388,292,64240,2,0,P|320:256|284:220,1,107.999996704102,4|0,0:0|0:0,0:0:0:0:
356,60,64593,2,0,P|320:128|284:164,1,107.999996704102,4|0,0:0|0:0,0:0:0:0:
256,192,64946,12,4,67769,0:0:0:0:
