osu file format v12

[General]
AudioFilename: bgm_event1.mp3
AudioLeadIn: 0
PreviewTime: 10941
Countdown: 0
SampleSet: None
StackLeniency: 0.5
Mode: 0
LetterboxInBreaks: 1
WidescreenStoryboard: 1

[Editor]
Bookmarks: 5647,16240,28152,39446,50740,56387,67764,68122,73411
DistanceSpacing: 0.8
BeatDivisor: 4
GridSize: 4

[Metadata]
Title:Battle Bgm
TitleUnicode:妖精戰
Artist:Millionarthur
ArtistUnicode:擴散性百萬亞瑟王
Creator:OrangeNeKo
Version:AR9 CS5
Source:
Tags:SquareEnix ma
BeatmapID:319683
BeatmapSetID:125618

[Difficulty]
HPDrainRate:8
CircleSize:5
OverallDifficulty:8
ApproachRate:9
SliderMultiplier:2.1
SliderTickRate:2

[Events]
//Background and Video events
0,0,"c75f04d3d539b600e21f45eee850352ac75cb72c.jpg",0,0
//Break Periods
//Storyboard Layer 0 (Background)
//Storyboard Layer 1 (Fail)
//Storyboard Layer 2 (Pass)
//Storyboard Layer 3 (Foreground)
//Storyboard Sound Samples
//Background Colour Transformations
3,100,163,162,255

[TimingPoints]
5,352.941176470588,4,2,10,70,1,0
5563,-100,4,2,10,70,0,0
10857,-100,4,2,11,70,0,0
11034,-100,4,2,10,70,0,0
11299,-83.3333333333333,4,2,12,70,0,1
16152,-83.3333333333333,4,1,0,70,0,1
16328,-83.3333333333333,4,2,12,70,0,1
22593,-100,4,2,13,60,0,0
31769,-83.3333333333333,4,2,13,60,0,0
32475,-66.6666666666667,4,2,13,60,0,0
33181,-100,4,2,13,60,0,0
33887,-83.3333333333333,4,2,12,70,0,1
45181,-100,4,2,10,60,0,0
56034,-100,4,2,11,60,0,0
56210,-100,4,2,10,60,0,0
64152,-166.666666666667,4,2,10,60,0,0
64504,-100,4,2,10,60,0,0
64946,-100,4,2,12,70,0,1
67769,-166.666666666667,4,2,0,70,0,0
68034,-166.666666666667,4,2,0,5,0,0

[Colours]
Combo1 : 0,255,0
Combo2 : 255,255,128

[HitObjects]
256,192,5,6,0,P|216:232|168:224,1,105
176,144,357,2,0,P|276:172|320:264,1,210,8|0,0:0|0:0,0:0:0:0:
256,320,887,1,0,0:0:0:0:
132,320,1063,1,8,0:0:0:0:
68,212,1240,1,0,0:0:0:0:
52,296,1416,6,0,L|52:184,1,105
80,112,1769,2,0,B|140:68|140:68|280:52,1,210,8|0,0:0|0:0,0:0:0:0:
352,84,2299,1,0,0:0:0:0:
280,188,2475,1,8,0:0:0:0:
204,88,2652,1,8,0:0:0:0:
280,128,2828,6,0,P|224:160|216:200,1,105,8|0,0:0|0:0,0:0:0:0:
132,208,3181,2,0,P|232:252|260:348,1,210,8|0,0:0|0:0,0:0:0:0:
328,288,3710,1,0,0:0:0:0:
424,208,3887,1,8,0:0:0:0:
424,332,4063,1,0,0:0:0:0:
380,260,4240,6,0,P|356:216|372:164,1,105
452,144,4593,2,0,P|368:88|288:144,1,210,8|8,0:0|0:0,0:0:0:0:
256,64,5122,1,8,0:0:0:0:
312,216,5299,1,8,0:0:0:0:
256,64,5475,1,8,0:0:0:0:
212,160,5652,6,0,P|200:204|144:228,1,105,2|0,0:0|0:0,0:0:0:0:
68,252,6004,2,0,P|72:152|156:172,1,210,8|2,0:0|0:0,0:0:0:0:
196,96,6534,1,0,0:0:0:0:
320,96,6710,1,8,0:0:0:0:
212,160,6887,1,0,0:0:0:0:
300,160,7063,6,0,P|364:148|384:112,1,105,2|0,0:0|0:0,0:0:0:0:
428,48,7416,2,0,P|404:116|484:220,1,210,8|2,0:0|0:0,0:0:0:0:
424,284,7946,1,0,0:0:0:0:
316,348,8122,1,8,0:0:0:0:
360,228,8299,1,8,0:0:0:0:
392,352,8475,5,2,0:0:0:0:
392,352,8563,1,0,0:0:0:0:
392,352,8652,1,0,0:0:0:0:
296,272,8828,1,8,0:0:0:0:
240,336,9004,2,0,P|188:352|140:340,1,105,0|2,0:0|0:0,0:0:0:0:
184,268,9357,1,0,0:0:0:0:
64,304,9534,1,8,0:0:0:0:
184,268,9710,1,0,0:0:0:0:
108,236,9887,5,2,0:0:0:0:
108,236,9975,1,0,0:0:0:0:
108,236,10063,1,0,0:0:0:0:
132,112,10240,1,2,0:0:0:0:
64,160,10416,1,2,0:0:0:0:
204,72,10593,1,2,0:0:0:0:
64,160,10946,1,8,0:0:0:0:
380,244,11299,5,2,0:0:0:0:
312,136,11475,1,0,0:0:0:0:
440,136,11652,1,8,0:0:0:0:
368,240,11828,1,0,0:0:0:0:
316,124,12004,2,0,B|388:124|388:124|352:224|240:192,1,251.999992309571,2|8,0:0|0:0,0:0:0:0:
148,108,12534,1,0,0:0:0:0:
156,100,12622,1,0,0:0:0:0:
164,92,12710,1,2,0:0:0:0:
236,196,12887,1,0,0:0:0:0:
112,196,13063,5,8,0:0:0:0:
256,224,13240,1,0,0:0:0:0:
88,228,13416,2,0,P|132:332|256:332,1,251.999992309571,2|8,0:0|0:0,0:0:0:0:
424,268,13946,1,2,0:0:0:0:
316,336,14122,5,2,0:0:0:0:
376,224,14299,1,0,0:0:0:0:
256,224,14475,1,8,0:0:0:0:
308,108,14652,1,0,0:0:0:0:
376,224,14828,2,0,P|304:132|176:144,1,251.999992309571,2|8,0:0|0:0,0:0:0:0:
72,72,15357,5,0,0:0:0:0:
72,72,15446,1,0,0:0:0:0:
72,72,15534,1,2,0:0:0:0:
160,164,15710,1,0,0:0:0:0:
36,188,15887,1,8,0:0:0:0:
160,164,16063,1,0,0:0:0:0:
56,308,16240,5,4,0:0:0:0:
232,328,16416,1,2,0:0:0:0:
160,164,16593,2,0,P|136:224|160:280,1,125.999996154785,8|2,0:0|0:0,0:0:0:0:
272,220,16946,5,2,0:0:0:0:
288,96,17122,1,0,0:0:0:0:
412,112,17299,1,8,0:0:0:0:
396,236,17475,1,0,0:0:0:0:
268,232,17652,2,0,P|168:292|60:220,1,251.999992309571,2|8,0:0|0:0,0:0:0:0:
108,108,18181,1,0,0:0:0:0:
108,108,18269,1,0,0:0:0:0:
108,108,18357,1,2,0:0:0:0:
224,160,18534,1,0,0:0:0:0:
100,176,18710,5,8,0:0:0:0:
156,64,18887,1,0,0:0:0:0:
224,160,19063,2,0,B|296:168|348:100|348:100|392:56|448:72,1,251.999992309571,2|8,0:0|0:0,0:0:0:0:
420,248,19593,1,2,0:0:0:0:
344,148,19769,5,2,0:0:0:0:
368,148,19857,1,0,0:0:0:0:
392,148,19946,1,0,0:0:0:0:
416,148,20034,1,0,0:0:0:0:
372,200,20122,5,8,0:0:0:0:
348,200,20210,1,0,0:0:0:0:
324,200,20299,1,0,0:0:0:0:
300,200,20387,1,0,0:0:0:0:
236,248,20475,5,2,0:0:0:0:
268,248,20563,1,0,0:0:0:0:
300,248,20652,1,0,0:0:0:0:
332,248,20740,1,0,0:0:0:0:
292,296,20828,5,8,0:0:0:0:
260,296,20916,1,0,0:0:0:0:
228,296,21004,1,0,0:0:0:0:
196,296,21093,1,0,0:0:0:0:
144,344,21181,5,2,0:0:0:0:
128,312,21269,1,0,0:0:0:0:
128,276,21357,1,0,0:0:0:0:
148,244,21446,1,0,0:0:0:0:
144,232,21534,5,8,0:0:0:0:
140,220,21622,1,0,0:0:0:0:
136,208,21710,1,0,0:0:0:0:
132,196,21799,1,0,0:0:0:0:
100,172,21887,6,0,L|100:104,1,62.9999980773926,2|0,0:0|0:0,0:0:0:0:
160,36,22063,2,0,L|160:104,1,62.9999980773926,2|0,0:0|0:0,0:0:0:0:
220,172,22240,2,0,L|220:104,1,62.9999980773926,8|8,0:0|0:0,0:0:0:0:
280,36,22416,2,0,L|280:100,1,62.9999980773926,2|0,0:0|0:0,0:0:0:0:
336,172,22593,5,2,0:0:0:0:
404,276,22769,1,0,0:0:0:0:
468,168,22946,1,8,0:0:0:0:
324,172,23122,1,0,0:0:0:0:
392,276,23299,2,0,P|408:220|400:172,1,105,2|0,0:0|0:0,0:0:0:0:
340,232,23652,2,0,P|328:284|352:328,1,105,8|0,0:0|0:0,0:0:0:0:
272,352,24004,5,2,0:0:0:0:
216,292,24181,1,0,0:0:0:0:
136,264,24357,1,8,0:0:0:0:
52,268,24534,1,0,0:0:0:0:
128,236,24710,1,2,0:0:0:0:
176,168,24887,1,0,0:0:0:0:
108,120,25063,2,0,P|148:88|200:84,2,105,8|2|2,0:0|0:0|0:0,0:0:0:0:
176,168,25593,5,0,0:0:0:0:
256,148,25769,1,8,0:0:0:0:
256,64,25946,1,0,0:0:0:0:
256,148,26122,1,2,0:0:0:0:
156,68,26299,1,2,0:0:0:0:
92,176,26475,2,0,P|112:228|152:252,1,105,8|0,0:0|0:0,0:0:0:0:
12,200,26828,6,0,L|56:360,1,157.5,2|0,0:0|0:0,0:0:0:0:
144,352,27181,2,0,P|176:272|244:256,1,157.5,8|0,0:0|0:0,0:0:0:0:
268,264,27534,1,2,0:0:0:0:
448,264,27710,1,2,0:0:0:0:
356,352,27887,1,8,0:0:0:0:
356,180,28063,1,8,0:0:0:0:
268,264,28240,5,2,0:0:0:0:
256,276,28328,1,0,0:0:0:0:
244,288,28416,1,0,0:0:0:0:
448,264,28593,1,8,0:0:0:0:
356,180,28769,1,0,0:0:0:0:
344,192,28857,1,0,0:0:0:0:
332,204,28946,1,2,0:0:0:0:
320,216,29034,1,0,0:0:0:0:
308,228,29122,1,0,0:0:0:0:
256,160,29299,1,8,0:0:0:0:
196,104,29475,1,0,0:0:0:0:
256,44,29652,5,2,0:0:0:0:
272,44,29740,1,0,0:0:0:0:
288,44,29828,1,0,0:0:0:0:
196,104,30005,1,8,0:0:0:0:
276,76,30181,1,0,0:0:0:0:
292,76,30269,1,0,0:0:0:0:
308,76,30357,1,2,0:0:0:0:
324,76,30446,1,0,0:0:0:0:
340,76,30534,1,0,0:0:0:0:
392,140,30710,1,8,0:0:0:0:
452,252,30887,1,2,0:0:0:0:
508,140,31063,6,0,L|464:172,3,52.5,2|0|0|0,0:0|0:0|0:0|0:0,0:0:0:0:
440,160,31416,2,0,L|412:208,3,52.5,8|0|0|0,0:0|0:0|0:0|0:0,0:0:0:0:
384,212,31769,6,0,L|328:248,3,62.9999980773926,2|0|0|0,0:0|0:0|0:0|0:0,0:0:0:0:
304,236,32122,2,0,L|276:296,3,62.9999980773926,8|0|0|0,0:0|0:0|0:0|0:0,0:0:0:0:
244,296,32475,6,0,L|176:336,3,78.7500030040742,2|0|0|0,0:0|0:0|0:0|0:0,0:0:0:0:
136,288,32828,2,0,P|116:324|124:368,3,78.7500030040742,8|0|0|0,0:0|0:0|0:0|0:0,0:0:0:0:
192,248,33181,6,0,L|144:220,1,52.5,2|0,0:0|0:0,0:0:0:0:
96,188,33357,2,0,L|124:140,1,52.5,2|0,0:0|0:0,0:0:0:0:
160,96,33534,2,0,L|208:120,1,52.5,8|0,0:0|0:0,0:0:0:0:
260,148,33710,2,0,L|232:192,1,52.5,2|0,0:0|0:0,0:0:0:0:
32,32,33887,5,2,0:0:0:0:
176,172,34063,1,0,0:0:0:0:
176,172,34240,1,8,0:0:0:0:
320,32,34416,1,0,0:0:0:0:
456,96,34593,2,0,P|360:136|328:20,1,251.999992309571,2|8,0:0|0:0,0:0:0:0:
388,64,35122,5,0,0:0:0:0:
388,64,35210,1,0,0:0:0:0:
388,64,35299,1,2,0:0:0:0:
320,172,35475,1,0,0:0:0:0:
384,280,35652,1,8,0:0:0:0:
332,164,35828,1,0,0:0:0:0:
220,104,36004,2,0,P|108:128|176:192,1,251.999992309571,2|8,0:0|0:0,0:0:0:0:
76,49,36534,1,2,0:0:0:0:
168,133,36710,5,2,0:0:0:0:
104,244,36887,1,0,0:0:0:0:
228,244,37063,1,8,0:0:0:0:
172,356,37240,1,0,0:0:0:0:
296,360,37416,2,0,P|352:284|304:144,1,251.999992309571,2|8,0:0|0:0,0:0:0:0:
236,36,37946,5,0,0:0:0:0:
272,40,38034,1,0,0:0:0:0:
300,52,38122,1,2,0:0:0:0:
200,128,38299,1,0,0:0:0:0:
80,160,38475,1,8,0:0:0:0:
200,128,38652,1,0,0:0:0:0:
80,160,38828,5,2,0:0:0:0:
232,252,39004,1,2,0:0:0:0:
116,280,39181,1,8,0:0:0:0:
132,104,39357,1,2,0:0:0:0:
64,232,39534,5,2,0:0:0:0:
184,304,39710,1,0,0:0:0:0:
248,180,39887,1,8,0:0:0:0:
360,124,40063,1,0,0:0:0:0:
448,216,40240,2,0,P|424:308|284:328,1,251.999992309571,2|8,0:0|0:0,0:0:0:0:
200,232,40769,5,0,0:0:0:0:
200,232,40857,1,0,0:0:0:0:
200,232,40946,1,2,0:0:0:0:
116,324,41122,1,0,0:0:0:0:
188,220,41299,1,8,0:0:0:0:
116,116,41475,1,0,0:0:0:0:
44,220,41652,2,0,B|76:156|128:128|128:128|256:128,1,251.999992309571,2|8,0:0|0:0,0:0:0:0:
420,192,42181,1,2,0:0:0:0:
300,232,42357,5,2,0:0:0:0:
300,200,42446,1,0,0:0:0:0:
300,168,42534,2,0,L|344:120,1,62.9999980773926
364,104,42710,5,8,0:0:0:0:
364,136,42799,1,0,0:0:0:0:
364,168,42887,2,0,L|364:232,1,62.9999980773926
360,264,43063,5,2,0:0:0:0:
336,284,43152,1,0,0:0:0:0:
312,308,43240,2,0,L|272:256,1,62.9999980773926
252,276,43416,5,8,0:0:0:0:
228,296,43504,1,0,0:0:0:0:
204,316,43593,2,0,L|136:300,1,62.9999980773926
144,276,43769,5,2,0:0:0:0:
144,244,43857,1,0,0:0:0:0:
144,212,43946,2,0,L|188:160,1,62.9999980773926
205,144,44122,5,8,0:0:0:0:
205,176,44210,1,0,0:0:0:0:
205,208,44299,2,0,L|264:236,1,62.9999980773926
268,208,44475,6,0,L|320:168,1,62.9999980773926,2|0,0:0|0:0,0:0:0:0:
316,92,44652,2,0,L|264:128,1,62.9999980773926,2|0,0:0|0:0,0:0:0:0:
336,232,44828,2,0,L|388:192,1,62.9999980773926,8|0,0:0|0:0,0:0:0:0:
244,68,45004,2,0,L|192:108,1,62.9999980773926,2|0,0:0|0:0,0:0:0:0:
120,152,45181,6,0,P|108:96|128:56,1,105,2|0,0:0|0:0,0:0:0:0:
68,112,45534,2,0,L|28:212,1,105,8|0,0:0|0:0,0:0:0:0:
52,288,45887,2,0,P|88:324|140:336,1,105,2|0,0:0|0:0,0:0:0:0:
216,296,46240,2,0,P|184:260|128:252,1,105,8|0,0:0|0:0,0:0:0:0:
216,368,46593,6,0,P|272:348|288:304,1,105,2|0,0:0|0:0,0:0:0:0:
248,232,46946,2,0,P|308:288|376:268,1,157.5,8|0,0:0|0:0,0:0:0:0:
400,252,47299,1,2,0:0:0:0:
364,176,47475,5,0,0:0:0:0:
364,176,47652,1,8,0:0:0:0:
276,116,47828,1,2,0:0:0:0:
372,36,48004,2,0,P|408:76|408:128,1,105,2|0,0:0|0:0,0:0:0:0:
332,88,48357,2,0,P|332:144|296:176,1,105,8|0,0:0|0:0,0:0:0:0:
219,227,48710,6,0,P|169:205|148:157,1,105,2|0,0:0|0:0,0:3:0:0:
236,164,49063,2,0,P|213:112|233:68,1,105,8|0,0:0|0:0,0:3:0:0:
152,40,49416,2,0,P|128:92|84:108,1,105,2|0,0:0|0:0,0:0:0:0:
148,160,49769,2,0,P|112:180|0:160,1,157.5,8|0,0:0|0:0,0:0:0:0:
20,96,50122,5,2,0:0:0:0:
64,216,50299,1,2,0:0:0:0:
104,336,50475,1,8,0:0:0:0:
192,248,50652,1,2,0:0:0:0:
256,300,50828,6,0,P|276:256|256:200,1,105,2|0,0:0|0:0,0:0:0:0:
220,132,51181,2,0,L|308:68,1,105,8|0,0:0|0:0,0:0:0:0:
368,124,51534,2,0,L|440:204,1,105,2|0,0:0|0:0,0:0:0:0:
356,224,51887,2,0,L|428:300,1,105,8|0,0:0|0:0,0:0:0:0:
352,332,52240,6,0,P|300:352|252:340,1,105,2|0,0:0|0:0,0:0:0:0:
204,272,52593,2,0,P|132:244|68:288,1,157.5,8|0,0:0|0:0,0:0:0:0:
56,312,52946,1,2,0:0:0:0:
144,332,53122,5,0,0:0:0:0:
144,332,53299,1,8,0:0:0:0:
96,200,53475,1,2,0:0:0:0:
60,64,53652,2,0,L|164:64,1,105,2|0,0:0|0:0,0:0:0:0:
268,136,54004,2,0,L|160:136,1,105,8|0,0:0|0:0,0:0:0:0:
176,228,54357,6,0,P|212:272|260:276,1,105,2|0,0:0|0:0,0:0:0:0:
336,244,54710,2,0,L|336:140,1,105,8|0,0:0|0:0,0:0:0:0:
404,88,55063,2,0,L|404:192,1,105,2|0,0:0|0:0,0:0:0:0:
472,244,55416,2,0,P|440:304|356:328,1,157.5,8|0,0:0|0:0,0:0:0:0:
332,324,55769,5,2,0:0:0:0:
256,224,55946,1,2,0:0:0:0:
264,348,56122,1,8,0:0:0:0:
336,244,56299,1,2,0:0:0:0:
220,288,56475,6,0,P|184:240|192:196,1,105,2|0,0:0|0:0,0:0:0:0:
264,156,56828,2,0,P|216:116|176:120,1,105,8|0,0:0|0:0,0:0:0:0:
108,72,57181,2,0,L|108:176,1,105,2|0,0:0|0:0,0:0:0:0:
36,136,57534,2,0,L|36:248,1,105,8|0,0:0|0:0,0:0:0:0:
92,304,57887,6,0,P|140:312|176:360,1,105,2|0,0:0|0:0,0:0:0:0:
224,288,58240,2,0,P|272:240|360:228,1,157.5,8|0,0:0|0:0,0:0:0:0:
384,240,58593,1,2,0:0:0:0:
376,324,58769,5,0,0:0:0:0:
376,324,58946,1,8,0:0:0:0:
460,236,59122,1,2,0:0:0:0:
476,112,59299,2,0,P|432:144|420:192,1,105,2|0,0:0|0:0,0:0:0:0:
348,148,59652,2,0,P|312:116|256:108,1,105,8|0,0:0|0:0,0:0:0:0:
188,156,60004,6,0,P|176:104|200:56,1,105,2|0,0:0|0:0,0:0:0:0:
132,184,60357,2,0,P|84:148|72:104,1,105,8|0,0:0|0:0,0:0:0:0:
152,248,60710,2,0,P|104:264|48:248,1,105,2|0,0:0|0:0,0:0:0:0:
212,220,61063,2,0,P|224:284|160:352,1,157.5,8|0,0:0|0:0,0:0:0:0:
140,348,61416,5,2,0:0:0:0:
256,300,61593,1,2,0:0:0:0:
372,348,61769,1,8,0:0:0:0:
488,300,61946,1,2,0:0:0:0:
412,268,62122,6,0,P|360:256|312:280,1,105,2|0,0:0|0:0,0:0:0:0:
244,236,62475,2,0,P|264:188|312:156,1,105,8|0,0:0|0:0,0:0:0:0:
384,184,62828,2,0,P|384:128|348:92,1,105,2|0,0:0|0:0,0:0:0:0:
416,40,63181,2,0,P|368:44|328:88,1,105,8|0,0:0|0:0,0:0:0:0:
256,124,63534,5,2,0:0:0:0:
308,188,63710,1,0,0:0:0:0:
188,172,63887,1,8,0:0:0:0:
132,108,64063,1,0,0:0:0:0:
116,220,64240,2,0,L|180:292,1,94.499997116089,2|0,0:0|0:0,0:0:0:0:
152,304,64593,1,8,0:0:0:0:
276,276,64769,1,2,0:0:0:0:
400,256,64946,5,2,0:0:0:0:
404,288,65034,1,0,0:0:0:0:
392,316,65122,1,0,0:0:0:0:
368,336,65210,1,0,0:0:0:0:
340,348,65299,1,8,0:0:0:0:
308,348,65387,1,0,0:0:0:0:
276,344,65475,1,0,0:0:0:0:
252,324,65563,1,0,0:0:0:0:
268,292,65652,5,2,0:0:0:0:
232,300,65740,1,0,0:0:0:0:
196,304,65828,1,0,0:0:0:0:
160,312,65916,1,0,0:0:0:0:
124,320,66005,1,8,0:0:0:0:
88,328,66093,1,0,0:0:0:0:
52,340,66181,1,0,0:0:0:0:
16,348,66269,1,0,0:0:0:0:
28,312,66357,5,2,0:0:0:0:
48,272,66446,1,0,0:0:0:0:
68,236,66534,1,0,0:0:0:0:
88,200,66622,1,0,0:0:0:0:
112,164,66710,5,8,0:0:0:0:
132,120,66799,1,0,0:0:0:0:
168,152,66887,1,0,0:0:0:0:
188,112,66975,1,0,0:0:0:0:
224,144,67063,6,0,L|276:144,1,52.5,2|0,0:0|0:0,0:0:0:0:
392,196,67240,2,0,L|336:196,1,52.5,2|0,0:0|0:0,0:0:0:0:
280,252,67416,2,0,L|228:252,1,52.5,8|0,0:0|0:0,0:0:0:0:
336,84,67593,2,0,L|388:84,1,52.5,2|0,0:0|0:0,0:0:0:0:
176,300,67769,2,0,L|48:300,1,125.999996154785
