osu file format v12

[General]
AudioFilename: bgm_event1.mp3
AudioLeadIn: 0
PreviewTime: -1
Countdown: 0
SampleSet: None
StackLeniency: 0.5
Mode: 0
LetterboxInBreaks: 1
WidescreenStoryboard: 1

[Editor]
Bookmarks: 3176,5647,67764,73411
DistanceSpacing: 1.5
BeatDivisor: 4
GridSize: 4

[Metadata]
Title:Battle Bgm
TitleUnicode:妖精戰
Artist:Millionarthur
ArtistUnicode:擴散性百萬亞瑟王
Creator:OrangeNeKo
Version:111
Source:
Tags:SquareEnix ma
BeatmapID:319682
BeatmapSetID:125618

[Difficulty]
HPDrainRate:6
CircleSize:4
OverallDifficulty:7
ApproachRate:8
SliderMultiplier:1.99999990463257
SliderTickRate:2

[Events]
//Background and Video events
0,0,"c75f04d3d539b600e21f45eee850352ac75cb72c.jpg",0,0
//Break Periods
//Storyboard Layer 0 (Background)
//Storyboard Layer 1 (Fail)
//Storyboard Layer 2 (Pass)
//Storyboard Layer 3 (Foreground)
//Storyboard Sound Samples
//Background Colour Transformations
3,100,163,162,255

[TimingPoints]
0,352.941176470588,4,2,0,100,1,0
9882,-200,4,2,0,100,0,0
11294,-100,4,2,0,100,0,1
22588,-100,4,2,0,100,0,0
33882,-100,4,2,0,100,0,1
45176,-100,4,2,0,100,0,0
64941,-100,4,2,0,100,0,1
67764,-100,4,2,0,100,0,0

[Colours]
Combo1 : 0,255,0
Combo2 : 255,255,181

[HitObjects]
328,72,0,2,0,L|468:68,1,99.9999952316284
168,128,529,1,0,0:0:0:0:
228,48,705,1,0,0:0:0:0:
268,140,882,1,0,0:0:0:0:
168,128,1058,1,0,0:0:0:0:
228,48,1235,1,0,0:0:0:0:
268,140,1411,6,0,P|279:188|267:236,1,99.9999952316284
55,195,1940,1,0,0:0:0:0:
147,156,2116,1,0,0:0:0:0:
136,256,2293,1,0,0:0:0:0:
55,195,2469,1,0,0:0:0:0:
147,156,2646,1,0,0:0:0:0:
232,216,2823,6,0,L|224:328,1,99.9999952316284
421,228,3353,1,0,0:0:0:0:
409,327,3529,1,0,0:0:0:0:
328,268,3706,1,0,0:0:0:0:
421,228,3882,1,0,0:0:0:0:
409,327,4059,1,0,0:0:0:0:
328,268,4235,6,0,P|328:212|352:156,1,99.9999952316284
176,60,4764,1,0,0:0:0:0:
84,96,4941,1,0,0:0:0:0:
160,160,5117,1,0,0:0:0:0:
176,60,5294,1,0,0:0:0:0:
84,96,5470,1,0,0:0:0:0:
160,160,5647,6,0,L|236:152,1,49.9999976158142
244,172,5823,2,0,L|316:184,1,49.9999976158142
320,152,5999,2,0,P|344:104|332:40,1,99.9999952316284
260,92,6264,1,0,0:0:0:0:
320,152,6352,2,0,L|328:224,1,49.9999976158142
372,224,6529,2,0,L|380:288,1,49.9999976158142
360,304,6705,2,0,P|316:320|240:296,1,99.9999952316284
128,352,7058,6,0,P|144:296|140:248,1,99.9999952316285
40,196,7323,1,0,0:0:0:0:
40,196,7411,2,0,P|88:168|152:160,1,99.9999952316285
104,84,7676,1,0,0:0:0:0:
104,84,7764,2,0,P|196:100|228:124,1,99.9999952316285
252,40,8029,1,0,0:0:0:0:
252,40,8117,2,0,P|292:76|320:136,1,99.9999952316285
440,232,8470,6,0,L|296:248,1,99.9999952316285
296,248,8735,2,0,L|256:320,1,49.9999976158143
228,312,8911,1,0,0:0:0:0:
180,308,8999,1,0,0:0:0:0:
132,300,9088,1,0,0:0:0:0:
84,292,9176,2,0,P|96:232|76:164,2,99.9999952316285
0,184,9705,1,0,0:0:0:0:
104,64,9882,6,0,L|220:88,1,99.9999952316285
408,320,10588,2,0,L|292:296,1,99.9999952316285
40,240,11294,5,0,0:0:0:0:
100,68,11470,1,0,0:0:0:0:
172,104,11647,1,0,0:0:0:0:
120,272,11823,1,0,0:0:0:0:
248,60,11999,2,0,P|300:76|372:68,1,99.9999952316285
384,68,12264,1,0,0:0:0:0:
412,52,12352,1,0,0:0:0:0:
444,196,12529,6,0,P|360:184|308:200,1,99.9999952316285
264,224,12882,1,0,0:0:0:0:
260,324,13058,1,0,0:0:0:0:
356,284,13235,1,0,0:0:0:0:
168,272,13411,2,0,L|116:280,1,49.9999976158143
60,252,13588,2,0,L|0:264,1,49.9999976158143
10,261,13764,1,0,0:0:0:0:
168,272,13941,1,0,0:0:0:0:
80,132,14117,6,0,P|56:88|72:24,1,99.9999952316285
112,32,14382,2,0,L|172:36,1,49.9999976158143
244,84,14647,2,0,L|296:132,1,49.9999976158143
320,132,14823,2,0,B|340:80|340:80|328:4,2,99.9999952316285
400,268,15352,1,0,0:0:0:0:
360,248,15441,1,0,0:0:0:0:
320,240,15529,6,0,P|272:232|212:244,1,99.9999952316285
192,260,15794,2,0,L|180:320,1,49.9999976158143
60,308,16058,2,0,L|52:216,1,49.9999976158143
32,220,16235,2,0,L|40:156,3,49.9999976158143
32,80,16588,1,0,0:0:0:0:
472,240,16941,5,0,0:0:0:0:
392,196,17117,1,0,0:0:0:0:
328,108,17294,1,0,0:0:0:0:
408,68,17470,1,0,0:0:0:0:
264,60,17646,2,0,P|212:76|140:68,1,99.9999952316285
92,60,17911,2,0,L|52:28,1,49.9999976158143
20,176,18176,6,0,P|104:164|156:180,2,99.9999952316285
88,248,18705,1,0,0:0:0:0:
8,276,18882,1,0,0:0:0:0:
164,308,19058,2,0,L|216:316,1,49.9999976158143
316,240,19235,2,0,L|264:248,1,49.9999976158143
312,340,19411,1,0,0:0:0:0:
200,188,19588,1,0,0:0:0:0:
416,188,19764,6,0,L|408:120,1,49.9999976158143
448,112,19941,2,0,L|444:48,1,49.9999976158143
400,32,20029,2,0,L|340:36,1,49.9999976158143
308,56,20205,2,0,L|240:60,1,49.9999976158143
200,68,20382,1,0,0:0:0:0:
200,68,20470,2,0,B|128:84|128:84|72:76,2,99.9999952316285
72,312,20999,6,0,L|92:228,1,49.9999976158143
136,152,21176,2,0,L|152:204,1,49.9999976158143
176,336,21352,2,0,L|192:268,1,49.9999976158143
248,164,21529,2,0,L|272:244,1,49.9999976158143
336,344,21705,2,0,L|352:256,1,49.9999976158143
392,204,21882,2,0,L|384:140,3,49.9999976158143
464,68,22235,1,0,0:0:0:0:
264,64,22411,1,0,0:0:0:0:
432,172,22588,5,0,0:0:0:0:
432,172,22676,1,0,0:0:0:0:
432,172,22764,1,0,0:0:0:0:
168,328,22941,1,0,0:0:0:0:
252,180,23117,1,0,0:0:0:0:
252,180,23205,1,0,0:0:0:0:
252,180,23294,1,0,0:0:0:0:
336,332,23470,1,0,0:0:0:0:
168,328,23647,1,0,0:0:0:0:
248,184,23823,1,0,0:0:0:0:
64,48,23999,5,0,0:0:0:0:
64,48,24088,1,0,0:0:0:0:
64,48,24176,1,0,0:0:0:0:
96,176,24352,1,0,0:0:0:0:
208,72,24529,1,0,0:0:0:0:
208,72,24617,1,0,0:0:0:0:
208,72,24705,1,0,0:0:0:0:
244,208,24882,1,0,0:0:0:0:
96,268,25058,1,0,0:0:0:0:
108,112,25235,1,0,0:0:0:0:
260,40,25411,5,0,0:0:0:0:
260,40,25499,1,0,0:0:0:0:
260,40,25588,1,0,0:0:0:0:
332,188,25764,1,0,0:0:0:0:
376,84,25941,1,0,0:0:0:0:
376,84,26029,1,0,0:0:0:0:
376,84,26117,1,0,0:0:0:0:
332,188,26294,1,0,0:0:0:0:
440,180,26470,1,0,0:0:0:0:
376,84,26647,1,0,0:0:0:0:
376,84,26823,5,0,0:0:0:0:
332,188,26999,1,0,0:0:0:0:
224,176,27176,1,0,0:0:0:0:
180,276,27352,1,0,0:0:0:0:
160,120,27529,5,0,0:0:0:0:
224,176,27705,1,0,0:0:0:0:
332,188,27882,1,0,0:0:0:0:
468,340,28058,1,0,0:0:0:0:
308,288,28235,5,0,0:0:0:0:
308,288,28323,1,0,0:0:0:0:
308,288,28411,1,0,0:0:0:0:
344,56,28588,1,0,0:0:0:0:
256,160,28764,1,0,0:0:0:0:
256,160,28852,1,0,0:0:0:0:
256,160,28941,1,0,0:0:0:0:
176,52,29117,1,0,0:0:0:0:
344,56,29294,1,0,0:0:0:0:
244,164,29470,1,0,0:0:0:0:
288,328,29646,5,0,0:0:0:0:
288,328,29735,1,0,0:0:0:0:
288,328,29823,1,0,0:0:0:0:
416,208,29999,1,0,0:0:0:0:
244,164,30176,1,0,0:0:0:0:
244,164,30264,1,0,0:0:0:0:
244,164,30352,1,0,0:0:0:0:
204,256,30529,1,0,0:0:0:0:
164,104,30705,1,0,0:0:0:0:
336,136,30882,1,0,0:0:0:0:
344,56,31058,6,0,L|404:52,3,49.9999976158143
264,84,31411,6,0,L|204:80,3,49.9999976158143
368,140,31764,6,0,L|428:136,3,49.9999976158143
232,160,32117,6,0,L|172:156,3,49.9999976158143
396,216,32470,6,0,L|456:212,3,49.9999976158143
196,232,32823,6,0,L|136:228,3,49.9999976158143
316,300,33176,1,0,0:0:0:0:
244,320,33264,1,0,0:0:0:0:
168,316,33352,1,0,0:0:0:0:
104,276,33441,1,0,0:0:0:0:
80,204,33529,1,0,0:0:0:0:
116,138,33617,1,0,0:0:0:0:
173,88,33705,1,0,0:0:0:0:
246,72,33794,1,0,0:0:0:0:
