osu file format v12

[General]
AudioFilename: Millennium - Day After Day (Radio Edit).mp3
AudioLeadIn: 2000
PreviewTime: 69102
Countdown: 0
SampleSet: None
StackLeniency: 0.7
Mode: 0
LetterboxInBreaks: 0
EpilepsyWarning: 1
WidescreenStoryboard: 1

[Editor]
Bookmarks: 153959,165951
DistanceSpacing: 1.1
BeatDivisor: 4
GridSize: 4

[Metadata]
Title:Day After Day (Radio Edit)
TitleUnicode:Day After Day (Radio Edit)
Artist:Millennium
ArtistUnicode:Millennium
Creator:BounceBabe
Version:Insane
Source:
Tags:-bakari- techno trance house
BeatmapID:302645
BeatmapSetID:117467

[Difficulty]
HPDrainRate:6
CircleSize:4
OverallDifficulty:7
ApproachRate:8
SliderMultiplier:1.7
SliderTickRate:2

[Events]
//Background and Video events
0,0,"BG.jpg",0,0
//Break Periods
2,125008,130915
2,153951,165094
//Storyboard Layer 0 (Background)
//Storyboard Layer 1 (Fail)
//Storyboard Layer 2 (Pass)
//Storyboard Layer 3 (Foreground)
//Storyboard Sound Samples
//Background Colour Transformations
3,100,255,255,255

[TimingPoints]
-334,428.571428571429,4,2,1,60,1,0
14130,-100,4,3,1,40,0,0
15094,-100,4,3,1,50,0,0
16808,-100,4,1,1,50,0,0
17344,-100,4,3,1,50,0,0
20237,-100,4,1,1,50,0,0
20773,-100,4,3,1,50,0,0
28808,-100,4,3,1,80,0,0
30523,-100,4,1,1,50,0,0
31058,-100,4,3,1,80,0,0
33951,-100,4,1,1,50,0,0
34487,-100,4,3,1,80,0,0
37380,-100,4,1,1,50,0,0
37916,-100,4,3,1,80,0,0
38987,-100,4,2,1,40,0,0
42523,-100,4,3,1,70,0,0
54844,-100,4,3,1,50,0,0
56237,-100,4,3,1,70,0,0
64487,-100,4,3,1,40,0,0
68130,-100,4,2,1,100,0,0
69951,-100,4,3,1,60,0,1
81951,-100,4,3,1,50,0,1
83666,-100,4,3,1,60,0,1
97380,-100,4,3,1,60,0,0
109380,-100,4,3,1,50,0,0
111094,-100,4,3,1,60,0,0
131558,-100,4,2,1,30,0,0
135086,-100,4,2,1,35,0,0
138523,-100,4,3,1,50,0,0
167666,-100,4,3,1,60,0,1
179451,-100,4,2,1,80,0,0
181380,-100,4,3,1,60,0,0
201951,-100,4,3,1,40,0,0
207094,-100,4,3,1,30,0,0

[Colours]
Combo1 : 0,0,255
Combo2 : 255,60,255
Combo3 : 255,70,160
Combo4 : 135,35,255

[HitObjects]
424,32,523,2,0,L|408:120,1,85
456,267,951,2,0,L|472:184,1,85
440,360,1380,2,2,B|376:376|336:328|272:352,1,170
184,368,2023,1,0,0:0:0:0:
88,368,2237,2,2,P|32:320|56:232,1,170
136,192,2880,1,0,0:0:0:0:
220,148,3094,2,2,P|240:62|184:14,1,170
136,192,3951,6,0,P|160:224|200:240,1,85
344,336,4380,2,0,P|320:304|280:288,1,85
432,336,4808,2,2,P|400:264|312:208,1,170
248,160,5451,1,0,0:0:0:0:
232,64,5666,2,2,B|160:40|104:64|104:64|64:48,1,170
32,136,6308,1,0,0:0:0:0:
8,224,6523,2,2,B|80:248|136:224|136:224|176:240,1,170
328,336,7380,5,0,0:0:0:0:
416,320,7594,1,0,0:0:0:0:
456,144,7808,1,0,0:0:0:0:
464,240,8023,1,0,0:0:0:0:
456,144,8237,2,2,P|376:128|352:48,1,170
256,64,8880,1,0,0:0:0:0:
160,80,9094,2,2,P|135:156|55:172,1,170
64,80,9737,1,0,0:0:0:0:
55,172,9951,2,2,B|48:272|48:272|112:336,1,170
280,368,10808,5,0,0:0:0:0:
365,328,11023,1,0,0:0:0:0:
490,203,11237,1,0,0:0:0:0:
405,243,11451,1,0,0:0:0:0:
490,203,11665,2,2,P|422:146|348:163,1,170
280,96,12308,1,0,0:0:0:0:
248,184,12523,2,2,P|174:200|106:144,1,170
136,56,13165,1,0,0:0:0:0:
106,144,13380,2,2,B|32:240|32:240|32:288,1,170,4|0,0:1|0:3,0:0:0:0:
208,352,14237,5,8,0:0:0:0:
304,352,14451,1,8,0:0:0:0:
328,352,14558,1,8,0:0:0:0:
352,352,14665,1,8,0:0:0:0:
448,336,14880,1,8,0:0:0:0:
384,264,15094,6,0,L|408:176,1,85,4|0,0:1|0:0,0:0:0:0:
328,136,15523,2,0,L|352:48,1,85
256,32,15951,2,0,L|233:114,1,85
144,120,16380,2,0,L|121:202,1,85
32,180,16808,2,4,P|48:256|128:292,1,170
126,292,17665,5,0,0:0:0:0:
200,352,17880,1,0,0:0:0:0:
296,368,18094,1,0,0:0:0:0:
392,360,18308,1,0,0:0:0:0:
472,304,18523,2,0,P|496:256|488:224,1,85,4|0,0:0|0:0,0:0:0:0:
449,75,18951,2,0,P|425:123|432:152,1,85
400,240,19380,2,0,P|352:224|328:192,1,85
186,94,19808,2,0,P|234:110|256:136,1,85
330,198,20237,2,4,P|256:232|180:200,1,170
179,199,21094,5,0,0:0:0:0:
96,248,21308,2,0,P|64:280|48:320,2,85
96,152,21951,1,4,0:0:0:0:
96,152,22380,2,0,L|160:96,1,85
224,32,22808,1,0,0:0:0:0:
224,32,23237,2,0,L|320:40,2,85,0|0|4,0:0|0:0|1:0,0:0:0:0:
128,24,23880,1,0,0:0:0:0:
44,68,24094,1,4,1:0:0:0:
44,68,24523,5,0,0:0:0:0:
24,160,24737,2,0,P|16:200|24:248,2,85
112,128,25380,1,4,0:0:0:0:
112,128,25808,2,0,L|200:104,1,85
288,80,26237,1,0,0:0:0:0:
288,80,26666,2,0,L|368:112,1,85
288,80,27094,5,2,0:0:0:0:
156,36,27416,1,2,0:0:0:0:
172,172,27737,1,0,0:0:0:0:
192,264,27951,1,8,0:0:0:0:
200,288,28058,1,0,0:0:0:0:
208,312,28166,1,8,0:0:0:0:
296,344,28380,1,8,0:0:0:0:
392,360,28594,1,8,0:0:0:0:
384,264,28808,6,0,P|392:192|480:152,1,170,4|0,0:0|0:0,0:0:0:0:
480,48,29451,1,0,0:0:0:0:
472,240,29666,2,0,P|391:199|383:127,1,170,4|0,0:0|0:0,0:0:0:0:
384,32,30308,1,0,0:0:0:0:
288,40,30523,2,4,B|264:88|264:88|248:152|264:208,1,170,4|4,0:0|0:0,0:0:0:0:
144,352,31380,5,8,0:0:0:0:
24,216,31594,1,0,0:0:0:0:
64,304,31808,1,8,0:0:0:0:
32,120,32023,1,0,0:0:0:0:
72,32,32237,2,0,P|120:72|112:176,1,170,4|0,0:0|0:0,0:0:0:0:
176,240,32880,1,0,0:0:0:0:
32,120,33094,2,0,P|104:80|184:104,1,170,4|0,0:0|0:0,0:0:0:0:
280,104,33737,1,0,0:0:0:0:
264,196,33951,2,4,B|288:244|288:244|344:248|344:248|368:304,1,170
184,352,34808,6,0,L|96:352,1,85,8|0,0:0|0:0,0:0:0:0:
11,256,35237,2,0,L|96:256,1,85,8|0,0:0|0:0,0:0:0:0:
192,256,35666,2,0,B|272:272|280:352|280:352|320:352,1,170,4|0,0:0|0:0,0:0:0:0:
400,352,36308,1,0,0:0:0:0:
400,256,36523,2,0,B|320:240|312:160|312:160|272:160,1,170,4|0,0:0|0:0,0:0:0:0:
192,160,37166,1,0,0:0:0:0:
96,160,37380,2,4,P|40:120|64:32,1,170
192,160,38237,6,0,P|184:208|160:232,1,85,8|0,0:0|0:0,0:0:0:0:
56,368,38666,2,0,P|64:320|88:296,1,85,8|0,0:0|0:0,0:0:0:0:
176,320,39094,2,0,P|256:328|312:264,1,170,4|2,0:0|0:0,0:0:0:0:
408,248,39737,1,0,0:0:0:0:
352,176,39951,2,0,P|360:96|296:40,1,170,0|2,0:0|0:0,0:0:0:0:
208,32,40594,1,0,0:0:0:0:
112,24,40808,6,0,B|80:120|120:88|80:192,1,170,2|0,0:0|0:0,0:0:0:0:
400,360,41666,2,0,B|432:264|392:296|432:192,1,170,2|0,0:0|0:0,0:0:0:0:
304,56,42523,6,0,L|224:96,2,85
392,24,43166,1,0,0:0:0:0:
376,112,43380,2,0,P|304:208|296:264,1,170,8|0,0:0|0:0,0:0:0:0:
232,320,44023,1,0,0:0:0:0:
144,344,44237,2,0,L|56:360,2,85
232,320,44880,1,0,0:0:0:0:
164,256,45094,2,0,B|116:216|116:216|116:160|76:120,1,170,8|0,0:0|0:0,0:0:0:0:
136,48,45737,6,0,B|184:88|184:88|184:144|224:184,1,170,2|0,0:2|0:0,2:2:0:0:
288,248,46380,1,0,2:2:0:0:
352,184,46594,2,0,B|392:144|392:88|392:88|440:48,1,170,2|0,0:2|0:0,2:2:0:0:
480,136,47237,1,0,2:2:0:0:
448,224,47451,2,0,P|424:280|488:360,1,170,2|0,0:2|0:2,2:2:0:0:
484,359,48094,2,0,L|392:360,1,85,8|8,0:0|0:0,0:0:0:0:
219,360,48523,2,0,L|304:360,2,85,8|0|8,0:0|0:0|0:0,0:0:0:0:
128,360,49165,1,8,0:0:0:0:
56,304,49380,6,0,P|24:264|20:228,2,85
120,232,50023,1,0,0:0:0:0:
72,152,50237,2,0,P|96:80|192:56,1,170,8|0,0:0|0:0,0:0:0:0:
272,56,50880,1,0,0:0:0:0:
368,56,51094,2,0,P|408:48|456:48,2,85
320,136,51737,1,0,0:0:0:0:
296,224,51951,2,0,B|304:304|304:304|368:296|384:328,1,170,8|0,0:0|0:0,0:0:0:0:
472,304,52594,6,0,B|464:224|464:224|400:232|384:200,1,170,2|0,0:2|0:0,0:0:0:0:
320,136,53237,1,0,0:0:0:0:
232,160,53451,2,0,B|216:128|152:136|152:136|144:56,1,170,2|0,0:2|0:0,0:0:0:0:
48,56,54094,1,0,0:0:0:0:
48,152,54308,2,0,P|64:224|40:320,1,170,2|0,0:2|0:0,0:0:0:0:
42,316,54951,6,0,L|128:336,1,85,8|0,0:0|0:0,0:0:0:0:
312,312,55380,1,8,0:0:0:0:
216,320,55594,1,8,0:0:0:0:
208,296,55701,1,0,0:0:0:0:
200,272,55808,1,0,0:0:0:0:
176,184,56023,1,8,0:0:0:0:
152,96,56237,6,0,P|107:83|68:93,1,85,4|0,0:0|0:0,0:0:0:0:
152,96,56665,2,0,P|184:62|223:52,1,85
312,48,57094,2,0,P|368:104|464:96,1,170,2|0,0:0|0:0,0:0:0:0:
456,192,57737,1,0,0:0:0:0:
424,280,57951,2,0,P|454:315|461:354,1,85,4|0,0:0|0:0,0:0:0:0:
424,280,58380,2,0,P|380:263|341:270,1,85
264,320,58808,2,0,B|192:320|144:344|144:344|96:320,1,170,2|0,0:0|0:0,0:0:0:0:
48,248,59451,6,4,P|32:152|88:96,1,170
152,48,60094,1,0,0:0:0:0:
160,144,60308,2,4,P|216:64|295:64,1,170
376,72,60951,1,0,0:0:0:0:
472,88,61165,2,4,B|472:152|472:152|448:184|448:184|448:256,1,170
448,344,61808,5,8,0:0:0:0:
448,344,61915,1,0,0:0:0:0:
304,344,62237,1,0,0:0:0:0:
232,224,62558,1,0,0:0:0:0:
232,224,62665,1,8,0:0:0:0:
216,316,62880,1,8,0:0:0:0:
304,344,63094,6,0,P|360:312|376:212,1,170,8|0,0:0|0:0,0:0:0:0:
332,132,63737,2,8,P|256:100|180:132,1,170,8|0,0:0|0:0,0:0:0:0:
208,344,64594,2,8,P|152:312|136:212,1,170,10|8,0:0|0:0,0:0:0:0:
304,344,65451,2,8,P|360:312|376:212,1,170,10|8,0:0|0:0,0:0:0:0:
256,72,66308,2,0,L|256:160,1,85,0|4,0:0|0:1,0:0:0:0:
256,192,66630,12,2,68237,0:0:0:0:
440,32,69094,6,0,P|400:48|368:80,1,85
258,204,69523,2,0,P|298:188|328:160,1,85
424,152,69951,1,8,0:0:0:0:
464,240,70165,1,0,0:0:0:0:
448,328,70380,1,2,0:0:0:0:
264,304,70808,6,0,P|216:296|184:268,1,85,8|0,0:0|0:0,0:0:0:0:
44,177,71237,2,0,P|92:185|120:208,1,85,8|0,0:0|0:0,0:0:0:0:
208,184,71665,1,8,0:0:0:0:
248,104,71880,1,0,0:0:0:0:
248,8,72094,1,2,0:0:0:0:
408,112,72523,6,0,P|448:176|432:272,1,170
444,360,73166,2,0,P|372:344|340:256,2,170,8|2|0,0:0|0:0|0:0,0:0:0:0:
435,266,74237,2,0,P|448:176|408:112,1,170,8|2,0:0|0:0,0:0:0:0:
320,80,74880,2,0,B|256:64|208:96|144:72,1,170
56,64,75523,1,8,0:0:0:0:
40,248,75951,5,8,0:0:0:0:
24,344,76165,1,0,0:0:0:0:
40,248,76380,1,8,0:0:0:0:
24,344,76594,1,0,0:0:0:0:
112,312,76808,2,0,P|168:336|184:360,1,85,8|0,0:0|0:0,0:0:0:0:
272,352,77237,1,2,0:0:0:0:
448,288,77665,5,8,0:0:0:0:
464,192,77880,1,0,0:0:0:0:
448,288,78094,1,8,0:0:0:0:
464,192,78308,1,0,0:0:0:0:
376,232,78523,2,0,P|344:192|336:152,1,85,8|0,0:0|0:0,0:0:0:0:
336,64,78951,1,2,0:0:0:0:
152,48,79380,6,0,P|68:48|32:120,1,170
32,208,80023,2,0,P|68:276|152:276,2,170,8|2|0,0:0|0:0|0:0,0:0:0:0:
31,116,81094,2,0,P|68:48|152:48,1,170,8|2,0:0|0:0,0:0:0:0:
240,64,81737,1,0,0:0:0:0:
328,48,81951,5,10,0:0:0:0:
456,112,82273,1,2,0:0:0:0:
336,184,82594,1,2,0:0:0:0:
336,184,82808,1,0,0:0:0:0:
256,224,83023,1,8,0:0:0:0:
240,240,83130,1,0,0:0:0:0:
224,256,83237,1,8,0:0:0:0:
144,296,83451,1,8,0:0:0:0:
64,336,83665,6,0,P|48:288|48:248,1,85,4|0,0:0|0:0,0:0:0:0:
120,200,84094,2,0,P|136:120|112:32,1,170,2|0,0:0|0:0,0:0:0:0:
208,32,84737,1,0,0:0:0:0:
304,32,84951,1,4,0:0:0:0:
400,32,85165,1,0,0:0:0:0:
496,32,85380,2,0,P|496:88|480:120,1,85,4|0,0:0|0:0,0:0:0:0:
408,168,85808,2,0,P|392:240|424:336,1,170,2|0,0:0|0:0,0:0:0:0:
419,330,86665,5,0,0:0:0:0:
328,344,86880,2,0,P|272:288|248:200,2,170,2|2|8,0:0|0:0|0:0,0:0:0:0:
419,330,87951,2,0,P|392:240|408:168,1,170,0|8,0:0|0:0,0:0:0:0:
492,128,88594,2,0,P|444:64|364:88,1,170,8|8,0:0|0:0,0:0:0:0:
272,80,89237,1,2,0:0:0:0:
128,200,89665,5,8,0:0:0:0:
56,144,89880,1,0,0:0:0:0:
128,200,90094,1,8,0:0:0:0:
160,288,90308,1,0,0:0:0:0:
232,344,90523,22,0,L|320:360,1,85,4|0,0:0|0:0,0:0:0:0:
408,344,90951,2,0,P|448:296|464:184,1,170,2|0,0:0|0:0,0:0:0:0:
456,96,91594,1,0,0:0:0:0:
384,40,91808,1,4,0:0:0:0:
288,48,92023,1,0,0:0:0:0:
192,48,92237,2,0,L|104:40,1,85,4|0,0:0|0:0,0:0:0:0:
16,72,92665,2,0,P|8:136|64:224,1,170,2|0,0:0|0:0,0:0:0:0:
61,222,93523,5,0,0:0:0:0:
136,272,93737,2,0,P|192:312|296:312,2,170,2|2|8,0:0|0:0|0:0,0:0:0:0:
61,222,94808,2,0,P|8:136|16:72,1,170,0|8,0:0|0:0,0:0:0:0:
96,128,95451,2,0,B|79:43|152:3|169:88|169:88|254:105|214:178|129:161,1,340,4|0,0:1|0:0,0:0:0:0:
64,224,96523,6,0,P|72:280|88:312,1,85,8|0,0:0|0:0,0:0:0:0:
168,272,96951,2,0,P|179:297|187:353,1,85,8|0,0:0|0:0,0:0:0:0:
280,352,97380,1,4,0:0:0:0:
280,352,97808,1,0,0:0:0:0:
368,320,98023,1,0,0:0:0:0:
416,240,98237,1,4,0:0:0:0:
416,240,98665,1,0,0:0:0:0:
408,144,98880,1,0,0:0:0:0:
376,56,99094,2,0,P|472:76|500:136,1,170,4|2,0:0|0:0,0:0:0:0:
320,128,99951,6,0,P|280:112|256:80,1,85,8|0,0:0|0:0,0:0:0:0:
160,80,100380,2,0,P|136:48|96:32,1,85,8|0,0:0|0:0,0:0:0:0:
0,32,100808,1,4,0:0:0:0:
0,32,101237,1,0,0:0:0:0:
8,128,101451,1,0,0:0:0:0:
32,216,101665,1,4,0:0:0:0:
32,216,102094,1,0,0:0:0:0:
96,280,102308,1,0,0:0:0:0:
184,304,102523,2,0,P|128:364|40:352,1,170,4|2,0:0|0:0,0:0:0:0:
168,224,103380,6,0,P|200:192|240:176,1,85,8|0,0:0|0:0,0:0:0:0:
320,216,103808,2,0,P|356:200|388:168,1,85,8|0,0:0|0:0,0:0:0:0:
448,96,104237,1,4,0:0:0:0:
448,96,104665,1,0,0:0:0:0:
488,184,104880,1,0,0:0:0:0:
472,280,105094,1,4,0:0:0:0:
472,280,105523,1,0,0:0:0:0:
392,328,105737,1,0,0:0:0:0:
296,344,105951,2,0,B|248:304|200:312|200:312|144:272,1,170,4|2,0:0|0:0,0:0:0:0:
40,120,106808,6,0,P|88:152|96:176,1,85,8|0,0:0|0:0,0:0:0:0:
192,176,107237,2,0,P|200:152|248:120,1,85,8|0,0:0|0:0,0:0:0:0:
344,104,107665,1,4,0:0:0:0:
344,104,108094,1,0,0:0:0:0:
432,72,108308,1,0,0:0:0:0:
480,152,108523,1,4,0:0:0:0:
480,152,108951,1,0,0:0:0:0:
424,228,109165,1,0,0:0:0:0:
336,196,109380,5,10,0:0:0:0:
248,304,109701,1,2,0:0:0:0:
192,176,110023,1,2,0:0:0:0:
160,264,110237,1,8,0:0:0:0:
248,304,110451,1,8,0:0:0:0:
264,320,110558,1,0,0:0:0:0:
280,336,110665,1,8,0:0:0:0:
376,352,110880,1,8,0:0:0:0:
456,304,111094,6,0,P|472:224|440:136,1,170,4|0,0:0|0:0,0:0:0:0:
376,80,111737,1,0,0:0:0:0:
288,104,111951,2,0,P|208:96|136:40,1,170,4|0,0:0|0:0,0:0:0:0:
56,80,112594,1,0,0:0:0:0:
64,176,112808,2,4,P|144:184|216:240,1,170,4|2,0:0|0:0,0:0:0:0:
32,264,113665,5,8,0:0:0:0:
92,336,113880,1,0,0:0:0:0:
184,348,114094,1,8,0:0:0:0:
272,312,114308,1,0,0:0:0:0:
304,224,114523,2,0,P|352:152|432:144,1,170,4|0,0:0|0:0,0:0:0:0:
400,232,115165,1,0,0:0:0:0:
304,224,115380,2,0,P|287:139|337:76,1,170,4|0,0:0|0:0,0:0:0:0:
400,232,116023,1,0,0:0:0:0:
304,224,116237,2,4,B|200:216|200:216|160:216|136:192,1,170,4|2,0:0|0:0,0:0:0:0:
280,312,117094,5,8,0:0:0:0:
184,320,117308,1,0,0:0:0:0:
88,304,117523,1,8,0:0:0:0:
16,240,117737,1,0,0:0:0:0:
8,144,117951,2,0,P|32:56|104:48,1,170,4|0,0:0|0:0,0:0:0:0:
192,48,118594,1,0,0:0:0:0:
288,48,118808,2,0,P|356:57|380:145,1,170,4|0,0:0|0:0,0:0:0:0:
312,208,119451,1,0,0:0:0:0:
400,240,119665,2,4,P|424:328|492:337,1,170,4|2,0:0|0:0,0:0:0:0:
312,304,120523,6,0,L|224:312,3,85,8|0|8|0,0:0|0:0|0:0|0:0,0:0:0:0:
136,312,121380,1,4,0:0:0:0:
136,312,121808,1,0,0:0:0:0:
72,240,122023,1,0,0:0:0:0:
80,144,122237,1,4,0:0:0:0:
80,144,122665,1,0,0:0:0:0:
136,64,122880,1,0,0:0:0:0:
256,192,123094,12,4,124808,0:1:0:0:
32,32,131665,6,0,L|64:120,1,85,2|0,0:0|0:0,0:0:0:0:
152,104,132094,2,0,L|184:192,1,85,0|0,0:0|0:0,0:0:0:0:
272,168,132523,2,0,L|304:256,1,85,2|0,0:0|0:0,0:0:0:0:
392,240,132951,2,0,L|424:328,1,85,2|0,0:0|0:0,0:0:0:0:
392,240,133380,6,0,P|432:208|448:168,1,85,2|0,0:0|0:0,0:0:0:0:
432,88,133808,2,0,P|445:58|485:26,1,85,0|0,0:0|0:0,0:0:0:0:
352,144,134237,2,0,P|312:176|296:216,1,85,2|0,0:0|0:0,0:0:0:0:
312,296,134665,2,0,P|298:325|258:357,1,85,2|0,0:0|0:0,0:0:0:0:
164,360,135094,6,0,P|96:320|72:236,1,170,2|0,0:0|0:0,0:0:0:0:
80,144,135737,1,0,0:0:0:0:
160,192,135951,2,0,P|193:216|235:219,2,85,2|0|2,0:0|0:0|0:0,0:0:0:0:
204,108,136594,2,0,P|170:83|128:80,1,85,0|0,0:0|0:0,0:0:0:0:
32,56,137023,5,2,0:0:0:0:
58,146,137237,1,2,0:0:0:0:
128,80,137451,1,2,0:0:0:0:
128,80,137880,1,8,0:3:0:0:
148,92,137987,1,0,0:3:0:0:
168,104,138094,1,8,0:3:0:0:
232,168,138308,1,8,0:3:0:0:
288,240,138523,6,0,P|336:264|360:288,1,85,8|0,0:0|0:0,0:0:0:0:
448,312,138951,1,0,0:0:0:0:
480,136,139165,1,0,0:0:0:0:
464,224,139380,1,8,0:0:0:0:
496,48,139808,6,0,P|440:40|408:48,1,85,0|0,0:0|0:0,0:0:0:0:
320,72,140237,1,8,0:0:0:0:
136,32,140451,1,0,0:0:0:0:
224,64,140665,1,0,0:0:0:0:
40,24,140880,1,0,0:0:0:0:
40,24,141094,1,8,0:0:0:0:
40,208,141523,5,0,0:0:0:0:
40,208,141737,2,8,P|48:296|112:336,2,170
208,288,143023,1,0,0:0:0:0:
208,288,143451,2,8,P|200:200|136:160,1,170
56,112,144094,1,0,0:0:0:0:
120,40,144308,1,0,0:0:0:0:
216,32,144523,1,8,0:0:0:0:
216,32,144951,21,8,0:0:0:0:
216,32,145165,2,8,P|304:48|344:112,1,170
348,300,146023,2,8,P|436:284|476:220,2,170
168,256,147308,2,8,P|86:267|39:335,2,170,0|0|0,0:0|0:0|0:0,0:0:0:0:
256,88,148594,1,0,0:0:0:0:
256,88,148808,1,4,0:1:0:0:
256,192,148916,12,2,152237,2:0:0:0:
256,192,165951,12,0,167237,0:0:0:0:
448,336,167666,5,0,0:0:0:0:
464,156,167880,1,0,0:0:0:0:
464,248,168094,2,0,P|408:240|368:144,1,170,2|2,0:0|0:2,0:0:0:0:
424,64,168737,1,0,0:0:0:0:
328,56,168951,1,2,0:2:0:0:
240,80,169166,1,0,0:0:0:0:
144,72,169380,1,2,0:2:0:0:
40,200,169594,1,0,0:0:0:0:
40,104,169808,2,0,P|104:136|128:232,1,170,2|0,0:0|0:0,0:0:0:0:
129,225,170666,5,0,0:0:0:0:
168,312,170880,2,0,P|232:360|320:344,2,170,2|2|8,0:0|0:0|0:0,0:0:0:0:
224,240,171951,2,0,P|308:226|372:274,1,170,0|8,0:0|0:0,0:0:0:0:
440,208,172594,2,0,P|392:144|405:59,1,170,8|8,0:0|0:0,0:0:0:0:
405,59,173237,1,2,0:0:0:0:
216,48,173666,5,8,0:0:0:0:
312,40,173880,1,0,0:0:0:0:
216,48,174094,1,8,0:0:0:0:
128,80,174308,1,0,0:0:0:0:
64,144,174523,5,0,0:0:0:0:
96,328,174737,1,0,0:0:0:0:
80,236,174951,2,0,P|164:260|192:336,1,170,2|2,0:0|0:2,0:0:0:0:
284,356,175594,1,0,0:0:0:0:
376,336,175808,1,2,0:2:0:0:
440,268,176023,1,0,0:0:0:0:
456,176,176237,1,2,0:2:0:0:
496,0,176451,1,0,0:0:0:0:
448,80,176666,2,0,B|400:56|336:64|280:40,1,170,2|0,0:0|0:0,0:0:0:0:
283,41,177523,5,0,0:0:0:0:
192,72,177737,2,0,P|192:144|112:200,2,170,2|2|0,0:0|0:0|0:0,0:0:0:0:
104,104,178808,2,0,P|30:159|30:231,1,170,8|8,0:0|0:0,0:0:0:0:
96,296,179451,22,0,B|57:279|23:369|125:392|153:363|204:358|204:358|210:307|238:279|215:177|125:211|142:250,1,425,4|2,0:1|0:0,0:0:0:0:
56,216,180737,1,0,0:0:0:0:
88,128,180951,1,2,0:0:0:0:
256,48,181166,1,0,0:0:0:0:
168,72,181380,5,8,0:0:0:0:
168,72,181808,2,0,P|184:144|192:152,1,85
256,216,182237,1,8,0:0:0:0:
376,336,182666,2,0,P|336:273|326:269,3,85,0|0|8|0,0:0|0:0|0:0|0:0,0:0:0:0:
256,216,183523,1,4,0:1:0:0:
408,104,183951,5,8,0:0:0:0:
472,40,184166,1,0,0:0:0:0:
416,200,184380,1,8,0:0:0:0:
480,264,184594,1,0,0:0:0:0:
416,200,184808,5,8,0:0:0:0:
416,200,185237,2,0,P|352:192|328:176,1,85
272,112,185666,1,8,0:0:0:0:
104,56,186094,2,0,P|168:64|192:80,3,85,0|0|8|0,0:0|0:0|0:0|0:0,0:0:0:0:
272,112,186951,1,4,0:1:0:0:
192,280,187380,5,8,0:0:0:0:
104,248,187594,1,0,0:0:0:0:
192,280,187808,1,8,0:0:0:0:
280,312,188023,1,0,0:0:0:0:
368,336,188237,6,0,P|416:344|464:336,1,85,8|0,0:0|0:0,0:0:0:0:
496,256,188666,2,0,P|448:248|400:256,1,85
336,200,189094,2,0,P|300:204|252:196,1,85,8|0,0:0|0:0,0:0:0:0:
296,112,189523,2,0,P|331:107|379:115,1,85
440,44,189951,2,4,P|360:20|272:24,1,170,8|4,0:0|0:1,0:0:0:0:
152,168,190808,5,8,0:0:0:0:
104,248,191023,1,0,0:0:0:0:
56,328,191237,1,8,0:0:0:0:
104,248,191451,1,0,0:0:0:0:
152,168,191666,6,0,L|136:80,1,85,8|0,0:0|0:0,0:0:0:0:
224,40,192094,2,0,L|239:123,1,85
320,168,192523,2,0,L|335:251,1,85,8|0,0:0|0:0,0:0:0:0:
422,207,192951,2,0,L|406:123,1,85
392,32,193380,5,10,0:0:0:0:
272,96,193701,1,2,0:0:0:0:
136,72,194023,1,2,0:0:0:0:
72,136,194237,1,8,0:0:0:0:
16,208,194451,1,8,0:0:0:0:
24,232,194558,1,0,0:0:0:0:
32,256,194666,1,8,0:0:0:0:
64,344,194880,1,8,0:0:0:0:
136,280,195094,6,0,P|184:264|304:296,1,170,4|0,0:0|0:0,0:0:0:0:
384,320,195737,1,0,0:0:0:0:
376,224,195951,2,0,P|360:176|392:56,1,170,4|0,0:0|0:0,0:0:0:0:
480,64,196594,1,0,0:0:0:0:
386,62,196808,2,4,L|208:40,1,170,4|2,0:0|0:0,0:0:0:0:
32,32,197666,5,8,0:0:0:0:
8,120,197880,1,0,0:0:0:0:
16,216,198094,1,8,0:0:0:0:
72,288,198308,1,0,0:0:0:0:
160,320,198523,2,0,P|240:280|312:304,1,170,4|0,0:0|0:0,0:0:0:0:
244,368,199166,1,0,0:0:0:0:
160,320,199380,2,0,P|188:235|256:201,1,170,4|0,0:0|0:0,0:0:0:0:
244,368,200023,1,0,0:0:0:0:
336,368,200237,2,4,B|408:352|408:352|424:296|472:272,1,170,4|2,0:0|0:0,0:0:0:0:
504,96,201094,5,8,0:0:0:0:
440,32,201308,1,0,0:0:0:0:
344,16,201523,1,8,0:0:0:0:
248,24,201737,1,0,0:0:0:0:
160,56,201951,2,0,P|120:136|48:136,1,170,4|0,0:0|0:0,0:0:0:0:
0,216,202594,1,0,0:0:0:0:
48,296,202808,2,0,P|120:296|160:376,1,170,4|0,0:0|0:0,0:0:0:0:
240,336,203451,1,0,0:0:0:0:
264,248,203666,2,4,P|192:248|152:168,1,170,4|2,0:0|0:0,0:0:0:0:
336,192,204523,6,0,P|400:160|408:144,3,85,8|0|8|0,0:0|0:0|0:0|0:0,0:0:0:0:
440,64,205380,1,4,0:0:0:0:
440,64,205808,1,0,0:0:0:0:
496,136,206023,1,0,0:0:0:0:
496,232,206237,1,4,0:0:0:0:
496,232,206666,1,0,0:0:0:0:
448,312,206880,1,0,0:0:0:0:
360,336,207094,5,4,0:0:0:0:
264,336,207308,1,8,0:0:0:0:
240,328,207416,1,0,0:0:0:0:
216,320,207523,1,8,0:0:0:0:
120,312,207737,1,8,0:0:0:0:
72,232,207951,1,8,0:0:0:0:
24,312,208166,1,8,0:0:0:0:
72,232,208380,1,8,0:0:0:0:
96,144,208594,1,10,0:0:0:0:
