osu file format v12

[General]
AudioFilename: Millennium - Day After Day (Radio Edit).mp3
AudioLeadIn: 2000
PreviewTime: 69102
Countdown: 0
SampleSet: None
StackLeniency: 0.7
Mode: 0
LetterboxInBreaks: 0
EpilepsyWarning: 1
WidescreenStoryboard: 1

[Editor]
Bookmarks: 135094,153959,165951
DistanceSpacing: 1.2
BeatDivisor: 4
GridSize: 8

[Metadata]
Title:Day After Day (Radio Edit)
TitleUnicode:Day After Day (Radio Edit)
Artist:Millennium
ArtistUnicode:Millennium
Creator:BounceBabe
Version:Hard
Source:
Tags:-bakari- techno trance house
BeatmapID:302644
BeatmapSetID:117467

[Difficulty]
HPDrainRate:5
CircleSize:3
OverallDifficulty:5
ApproachRate:7
SliderMultiplier:1.4
SliderTickRate:2

[Events]
//Background and Video events
0,0,"BG.jpg",0,0
//Break Periods
2,125008,130766
2,153951,165051
//Storyboard Layer 0 (Background)
//Storyboard Layer 1 (Fail)
//Storyboard Layer 2 (Pass)
//Storyboard Layer 3 (Foreground)
//Storyboard Sound Samples
//Background Colour Transformations
3,100,255,255,255

[TimingPoints]
-334,428.571428571429,4,2,1,60,1,0
14130,-100,4,3,1,40,0,0
15094,-100,4,3,1,50,0,0
16808,-100,4,1,1,50,0,0
17344,-100,4,3,1,50,0,0
20237,-100,4,1,1,50,0,0
20773,-100,4,3,1,50,0,0
28808,-100,4,3,1,80,0,0
30523,-100,4,1,1,50,0,0
31058,-100,4,3,1,80,0,0
33951,-100,4,1,1,50,0,0
34487,-100,4,3,1,80,0,0
37380,-100,4,1,1,50,0,0
37916,-100,4,3,1,80,0,0
38987,-100,4,2,1,40,0,0
42523,-100,4,3,1,70,0,0
54844,-100,4,3,1,50,0,0
56237,-100,4,3,1,70,0,0
64487,-100,4,3,1,40,0,0
68130,-100,4,2,1,100,0,0
69951,-100,4,3,1,60,0,1
81951,-100,4,3,1,50,0,1
83666,-100,4,3,1,60,0,1
97380,-100,4,3,1,60,0,0
109380,-100,4,3,1,50,0,0
111094,-100,4,3,1,60,0,0
131558,-100,4,2,1,30,0,0
135086,-100,4,2,1,35,0,0
138523,-100,4,3,1,50,0,0
167666,-100,4,3,1,60,0,1
179451,-100,4,2,1,80,0,0
181380,-100,4,3,1,60,0,0
201951,-100,4,3,1,40,0,0
207094,-100,4,3,1,30,0,0

[Colours]
Combo1 : 0,0,255
Combo2 : 255,60,255
Combo3 : 255,70,160
Combo4 : 135,35,255

[HitObjects]
40,32,523,1,0,0:0:0:0:
120,56,737,2,0,L|192:80,2,70
40,32,1380,2,2,P|24:144|96:192,1,210
176,192,2237,2,2,P|248:240|230:351,1,210
144,352,3094,2,2,B|48:352|48:352|16:352|0:344,1,140
96,200,3951,5,0,0:0:0:0:
176,192,4166,2,0,P|208:152|216:120,2,70
96,200,4808,2,2,P|152:268|252:224,1,210
296,160,5666,2,2,P|394:118|450:186,1,210
456,272,6523,2,2,B|456:352|456:352|424:352|392:360,1,140
232,352,7380,5,0,0:0:0:0:
152,352,7594,2,0,B|104:344|104:344|88:320,2,70
232,352,8237,2,2,B|288:312|288:312|312:232|312:232|360:200,1,210
440,176,9094,2,2,B|384:136|384:136|360:56|360:56|312:24,1,210
224,24,9951,2,2,P|168:40|144:112,1,140
160,280,10808,5,0,0:0:0:0:
84,320,11023,2,0,L|12:360,2,70
160,280,11666,2,2,B|192:352|272:336|272:336|304:264,1,210
256,200,12523,2,2,B|285:133|285:133|365:117|397:189,1,210
480,192,13380,2,0,L|464:336,1,140,4|0,1:0|0:0,0:0:0:0:
296,344,14237,5,8,0:0:0:0:
256,272,14451,2,0,L|320:240,2,70,0|8|0,0:0|0:0|0:0,0:0:0:0:
216,344,15094,1,4,0:0:0:0:
32,224,15523,1,0,0:0:0:0:
32,144,15737,2,0,L|48:72,1,70
216,56,16380,1,0,0:0:0:0:
216,136,16594,2,0,L|200:208,1,70,0|4,0:0|0:0,0:0:0:0:
160,368,17237,1,4,0:0:0:0:
328,368,17666,5,0,0:0:0:0:
408,344,17880,2,0,P|448:320|464:296,2,70
384,264,18523,1,4,0:0:0:0:
480,136,18951,1,0,0:0:0:0:
456,56,19166,2,0,P|424:32|384:32,1,70
232,72,19808,1,0,0:0:0:0:
256,152,20023,2,0,P|288:176|328:176,1,70,0|4,0:0|0:0,0:0:0:0:
480,216,20666,1,4,0:0:0:0:
368,344,21094,5,0,0:0:0:0:
288,344,21308,1,0,0:0:0:0:
208,336,21523,2,0,P|152:328|136:320,1,70
72,280,21951,2,0,P|8:200|8:152,1,140,4|0,0:0|0:0,0:0:0:0:
112,40,22808,2,0,P|176:120|178:153,1,140
304,264,23666,1,4,1:0:0:0:
304,264,24094,1,4,1:0:0:0:
464,312,24523,5,0,0:0:0:0:
496,232,24737,1,0,0:0:0:0:
504,152,24951,2,0,P|504:104|496:80,1,70
440,24,25380,2,0,L|296:24,1,140,4|0,0:0|0:0,0:0:0:0:
160,120,26237,2,0,L|304:120,1,140
400,256,27094,6,0,P|384:296|320:312,2,105,2|2|10,0:0|0:0|0:0,0:0:0:0:
248,320,28166,1,8,0:0:0:0:
208,320,28273,1,0,0:0:0:0:
168,320,28380,2,0,L|80:320,1,70,8|0,0:0|0:0,0:0:0:0:
24,288,28808,6,0,P|8:224|48:168,1,140,4|0,0:0|0:0,0:0:0:0:
156,40,29666,2,0,P|172:104|132:160,1,140,4|0,0:0|0:0,0:0:0:0:
96,236,30308,1,0,0:0:0:0:
128,312,30523,2,4,L|272:336,1,140
432,344,31380,5,8,0:0:0:0:
472,272,31594,2,0,L|496:200,1,70,0|8,0:0|0:0,0:0:0:0:
432,144,32023,2,0,L|456:72,1,70,0|4,0:0|0:0,0:0:0:0:
288,80,32666,2,0,L|265:146,1,70,0|0,0:0|0:0,0:0:0:0:
240,224,33094,1,4,0:0:0:0:
72,248,33523,2,0,L|94:181,1,70
120,104,33951,1,4,0:0:0:0:
120,104,34380,1,4,0:0:0:0:
200,256,34808,6,0,L|224:328,1,70,8|0,0:0|0:0,0:0:0:0:
296,280,35237,2,0,L|318:346,1,70,8|0,0:0|0:0,0:0:0:0:
400,344,35666,2,0,P|472:336|480:280,1,140,4|0,0:0|0:0,0:0:0:0:
500,112,36523,2,0,P|428:120|420:176,1,140,4|0,0:0|0:0,0:0:0:0:
400,260,37166,1,0,0:0:0:0:
336,200,37380,2,4,L|264:64,1,140
104,56,38237,5,8,0:0:0:0:
48,120,38451,2,0,L|32:192,1,70,0|8,0:0|0:0,0:0:0:0:
96,248,38880,2,0,L|80:320,1,70,0|4,0:0|0:0,0:0:0:0:
248,352,39523,1,0,0:0:0:0:
264,272,39737,2,2,L|279:203,1,70
440,168,40380,1,0,0:0:0:0:
424,248,40594,2,2,L|408:316,2,70
440,168,41237,1,2,0:0:0:0:
128,40,42094,5,0,0:0:0:0:
128,40,42523,2,0,P|64:104|112:200,1,210
152,272,43380,2,0,L|128:344,2,70,8|0|0,0:0|0:0|0:0,0:0:0:0:
304,336,44237,2,0,P|368:272|320:176,1,210
280,104,45094,2,0,L|304:32,2,70,8|0|0,0:0|0:0|0:0,0:0:0:0:
240,180,45737,6,0,L|168:300,2,140,2|2|2,2:0|2:0|2:0,0:0:0:0:
392,104,47023,1,0,0:0:0:0:
240,180,47451,2,0,P|160:164|136:108,1,140,2|2,2:0|2:0,0:0:0:0:
96,48,48094,2,0,P|56:40|16:16,2,70,8|0|8,0:0|0:0|0:0,0:0:0:0:
264,32,48951,2,0,P|304:40|344:64,1,70
408,88,49380,6,0,L|432:160,1,70
416,240,49808,2,0,L|440:312,1,70
352,320,50237,2,0,B|272:312|288:336|208:320,1,140,8|0,0:0|0:0,0:0:0:0:
128,312,50880,1,0,0:0:0:0:
56,272,51094,6,0,L|48:192,1,70
112,144,51523,2,0,L|104:64,1,70
176,32,51951,2,0,P|232:80|296:80,1,140,8|0,0:0|0:0,0:0:0:0:
376,56,52594,6,0,L|424:192,1,140,2|2,2:0|2:0,0:0:0:0:
344,336,53451,2,0,L|297:203,2,140,2|2|2,2:0|2:0|2:0,0:0:0:0:
184,344,54737,1,0,0:0:0:0:
104,344,54951,2,8,L|80:272,2,70
184,344,55594,6,8,L|168:296,2,35
268,344,56023,1,8,0:0:0:0:
352,344,56237,2,0,L|416:304,1,70,4|0,0:0|0:0,0:0:0:0:
392,224,56666,2,0,L|456:184,1,70
480,104,57094,2,0,P|440:72|352:64,1,140,2|0,0:0|0:0,0:0:0:0:
184,64,57951,2,0,L|104:48,1,70,4|0,0:0|0:0,0:0:0:0:
104,136,58380,2,0,L|35:122,1,70
16,200,58808,2,0,P|16:288|56:320,1,140,2|0,0:0|0:0,0:0:0:0:
128,344,59451,6,4,L|288:344,1,140
408,256,60308,2,4,L|268:256,1,140
184,256,60951,1,0,0:0:0:0:
104,240,61166,2,4,P|88:184|120:104,2,140
232,344,62451,1,0,0:0:0:0:
392,304,62880,6,4,B|472:304|472:304|512:256,1,140
424,112,63737,2,4,B|344:112|344:112|304:160,1,140
136,160,64594,2,0,L|40:48,2,140,2|2|2,0:0|0:0|0:0,0:0:0:0:
248,288,65880,1,2,0:0:0:0:
248,288,66308,2,0,L|296:232,1,70,0|4,0:0|1:0,0:0:0:0:
256,192,66737,12,2,68237,0:0:0:0:
408,56,69094,5,2,0:0:0:0:
448,128,69308,1,0,0:0:0:0:
456,216,69523,1,2,0:0:0:0:
456,216,69951,6,0,L|424:280,1,70,8|0,0:0|0:0,0:0:0:0:
360,336,70380,2,0,L|208:336,1,140,2|0,0:0|0:0,0:0:0:0:
72,264,71237,1,0,0:0:0:0:
72,96,71666,2,0,L|112:32,1,70,8|0,0:0|0:0,0:0:0:0:
192,40,72094,2,0,L|344:40,1,140,2|0,0:0|0:0,0:0:0:0:
504,40,72951,1,0,0:0:0:0:
420,40,73166,6,0,P|420:112|468:160,1,140,2|2,0:0|0:0,0:0:0:0:
416,320,74023,1,0,0:0:0:0:
416,320,74237,2,0,P|416:248|368:200,1,140,2|0,0:0|0:0,0:0:0:0:
288,192,74880,2,0,P|243:145|243:73,1,140,2|0,0:0|0:0,0:0:0:0:
176,24,75523,1,2,0:0:0:0:
48,128,75951,5,8,0:0:0:0:
96,192,76166,1,0,0:0:0:0:
16,200,76380,1,8,0:0:0:0:
16,200,76808,6,0,L|32:280,1,70,8|0,0:0|0:0,0:0:0:0:
48,352,77237,2,0,P|120:352|176:304,1,140,2|0,0:0|0:0,0:0:0:0:
280,184,78094,1,0,0:0:0:0:
368,40,78523,2,0,L|440:48,1,70,8|0,0:0|0:0,0:0:0:0:
480,120,78951,2,0,P|464:176|512:248,1,140,2|0,0:0|0:0,0:0:0:0:
368,344,79808,1,0,0:0:0:0:
280,344,80023,6,0,L|136:344,1,140,2|2,0:0|0:0,0:0:0:0:
24,224,80880,1,0,0:0:0:0:
24,224,81094,2,0,L|88:96,1,140,2|0,0:0|0:0,0:0:0:0:
152,152,81737,2,0,L|214:26,1,140,2|0,0:0|0:0,0:0:0:0:
296,24,82380,1,2,0:0:0:0:
460,52,82808,5,8,0:0:0:0:
472,136,83023,2,8,L|500:160,2,35
392,104,83451,1,0,0:0:0:0:
304,112,83666,5,4,0:0:0:0:
232,160,83880,1,0,0:0:0:0:
208,240,84094,1,2,0:0:0:0:
64,320,84523,2,0,L|40:248,1,70
80,176,84951,2,0,L|56:104,1,70,4|0,0:0|0:0,0:0:0:0:
40,24,85380,1,4,0:0:0:0:
120,40,85594,1,0,0:0:0:0:
200,32,85808,1,2,0:0:0:0:
344,112,86237,6,0,L|384:256,1,140,4|0,0:0|0:0,0:0:0:0:
464,240,86880,2,0,L|426:105,1,140,2|0,0:0|0:0,0:0:0:0:
256,112,87737,1,0,0:0:0:0:
256,112,87951,2,0,L|293:246,1,140,4|0,0:0|0:0,0:0:0:0:
240,312,88594,2,0,L|105:349,1,140,4|0,0:0|0:0,0:0:0:0:
24,368,89237,1,2,0:0:0:0:
24,200,89666,5,8,0:0:0:0:
40,120,89880,1,0,0:0:0:0:
88,56,90094,1,8,0:0:0:0:
168,40,90308,1,0,0:0:0:0:
251,52,90523,5,4,0:0:0:0:
243,136,90737,2,0,P|243:180|251:204,1,70,0|2,0:0|0:0,0:0:0:0:
344,344,91380,2,0,L|416:336,1,70
408,256,91808,2,0,L|480:248,1,70,4|0,0:0|0:0,0:0:0:0:
504,168,92237,1,4,0:0:0:0:
488,88,92451,1,0,0:0:0:0:
432,24,92666,1,2,0:0:0:0:
264,48,93094,6,0,P|192:32|136:72,1,140,4|0,0:0|0:0,0:0:0:0:
88,136,93737,2,0,P|160:152|216:112,1,140,2|0,0:0|0:0,0:0:0:0:
80,224,94594,1,0,0:0:0:0:
80,224,94808,2,0,L|176:336,1,140,4|0,0:0|0:0,0:0:0:0:
255,331,95451,2,0,L|346:224,1,140,4|0,0:0|0:0,0:0:0:0:
400,160,96094,1,2,0:0:0:0:
288,32,96523,6,0,L|208:32,2,70,8|0|8,0:0|0:0|0:0,0:0:0:0:
376,32,97166,1,0,0:0:0:0:
456,32,97380,6,0,L|480:248,1,210,4|0,0:0|0:0,0:0:0:0:
488,328,98237,2,0,B|432:336|400:288|400:288|288:304,1,210,4|0,0:0|0:0,0:0:0:0:
208,312,99094,1,4,0:0:0:0:
40,336,99523,1,2,0:0:0:0:
96,176,99951,6,0,L|80:104,2,70,8|0|8,0:0|0:0|0:0,0:0:0:0:
112,256,100594,1,0,0:0:0:0:
152,328,100808,2,0,P|224:344|320:256,1,210,4|0,0:0|0:0,0:0:0:0:
400,256,101666,2,0,L|472:56,1,210,4|0,0:0|0:0,0:0:0:0:
392,32,102523,1,4,0:0:0:0:
224,32,102951,1,2,0:0:0:0:
288,184,103380,6,0,L|304:112,2,70,8|0|8,0:0|0:0|0:0,0:0:0:0:
256,264,104023,1,0,0:0:0:0:
200,328,104237,2,0,P|120:320|64:200,1,210,4|0,0:0|0:0,0:0:0:0:
128,168,105094,2,0,B|163:130|144:73|144:73|188:28|243:41,1,210,4|0,0:0|0:0,0:0:0:0:
328,48,105951,1,4,0:0:0:0:
492,76,106380,1,2,0:0:0:0:
376,200,106808,6,0,L|396:128,2,70,8|0|8,0:0|0:0|0:0,0:0:0:0:
352,280,107451,1,0,0:0:0:0:
296,344,107666,2,0,P|248:280|272:160,1,210,4|0,0:0|0:0,0:0:0:0:
200,112,108523,2,0,L|96:304,1,210,4|0,0:0|0:0,0:0:0:0:
48,368,109380,6,0,P|12:312|28:244,1,140,2|2,0:0|0:0,0:0:0:0:
112,96,110237,1,8,0:0:0:0:
176,32,110451,1,8,0:0:0:0:
264,32,110666,1,8,0:0:0:0:
176,32,110880,1,8,0:0:0:0:
264,32,111094,6,0,L|320:160,1,140,4|0,0:0|0:0,0:0:0:0:
488,140,111951,2,0,L|432:12,1,140,4|0,0:0|0:0,0:0:0:0:
348,20,112594,1,0,0:0:0:0:
264,32,112808,2,0,L|320:160,1,140,4|2,0:0|0:0,0:0:0:0:
384,320,113666,5,8,0:0:0:0:
464,352,113880,1,0,0:0:0:0:
384,320,114094,1,8,0:0:0:0:
304,312,114308,1,0,0:0:0:0:
224,328,114523,6,0,P|168:304|144:224,1,140,4|0,0:0|0:0,0:0:0:0:
116,68,115380,2,0,P|172:92|196:172,1,140,4|0,0:0|0:0,0:0:0:0:
228,240,116023,1,0,0:0:0:0:
224,328,116237,2,0,P|168:304|144:224,1,140,4|2,0:0|0:0,0:0:0:0:
304,176,117094,5,8,0:0:0:0:
360,112,117308,1,0,0:0:0:0:
384,192,117523,1,8,0:0:0:0:
440,128,117737,1,0,0:0:0:0:
464,208,117951,6,0,B|464:272|464:272|400:320,1,140,4|0,0:0|0:0,0:0:0:0:
243,285,118808,2,0,B|243:221|243:221|304:176,1,140,4|0,0:0|0:0,0:0:0:0:
384,192,119451,1,0,0:0:0:0:
464,208,119666,2,0,B|464:272|464:272|400:320,1,140,4|2,0:0|0:0,0:0:0:0:
232,320,120523,5,8,0:0:0:0:
152,288,120737,1,0,0:0:0:0:
96,224,120951,1,8,0:0:0:0:
72,304,121166,1,0,0:0:0:0:
96,224,121380,6,0,P|104:144|80:88,1,140,4|0,0:0|0:0,0:0:0:0:
240,32,122237,2,0,P|232:112|256:168,1,140,4|0,0:0|0:0,0:0:0:0:
184,216,122880,1,0,0:0:0:0:
256,192,123094,12,4,124808,1:0:0:0:
24,48,131666,6,2,L|56:120,1,70
88,192,132094,1,0,0:0:0:0:
88,192,132523,2,2,P|96:272|208:336,1,210
280,336,133380,6,2,L|352:336,1,70
432,336,133808,1,0,0:0:0:0:
432,336,134237,2,2,B|432:256|476:208|476:208|456:136,1,210
400,80,135094,6,2,B|331:60|331:60|283:104|203:104,1,210
64,192,136166,1,0,0:0:0:0:
203,279,136594,2,2,B|283:279|331:323|331:323|400:304,1,210
480,280,137451,1,0,0:0:0:0:
464,112,137880,6,0,L|504:88,2,35,8|0|8,3:0|0:0|3:0,3:0:0:0:
384,96,138308,1,8,3:0:0:0:
304,104,138523,6,0,L|232:136,1,70,8|0,0:0|0:0,0:0:0:0:
160,104,138951,2,0,L|88:136,1,70,0|0,0:0|0:0,0:0:0:0:
32,184,139380,2,0,L|48:328,1,140,8|0,0:0|0:0,0:0:0:0:
216,344,140237,6,0,L|288:336,1,70,8|0,0:0|0:0,0:0:0:0:
368,304,140666,2,0,L|440:296,1,70
496,232,141094,2,0,P|496:144|464:96,1,140,8|0,0:0|0:0,0:0:0:0:
408,40,141737,6,8,L|256:40,1,140,8|8,0:0|0:0,0:0:0:0:
128,128,142594,2,8,L|268:128,1,140,8|8,0:0|0:0,0:0:0:0:
408,216,143451,2,8,L|268:216,1,140,8|8,0:0|0:0,0:0:0:0:
224,288,144094,2,0,P|264:300|296:296,2,70
120,160,144951,1,0,0:0:0:0:
120,160,145166,6,8,P|160:120|144:40,1,140
312,72,146023,2,8,P|272:112|288:192,1,140
424,96,146880,2,8,P|437:172|397:212,1,140
320,248,147523,1,0,0:0:0:0:
248,288,147737,2,8,P|296:328|368:316,2,140
192,232,148808,1,4,1:0:0:0:
256,192,148916,12,2,152237,2:0:0:0:
256,192,165951,12,0,167237,0:0:0:0:
48,48,167666,5,0,0:0:0:0:
48,48,167880,1,0,0:0:0:0:
48,48,168094,2,0,P|88:104|80:184,1,140,2|0,0:0|0:0,0:0:0:0:
96,344,168951,1,2,2:0:0:0:
264,344,169380,1,2,2:0:0:0:
264,344,169594,1,0,0:0:0:0:
264,344,169808,2,0,L|416:344,1,140,2|0,0:0|0:0,0:0:0:0:
488,200,170666,1,0,0:0:0:0:
432,136,170880,6,0,P|416:80|336:40,1,140,2|2,0:0|0:0,0:0:0:0:
184,56,171737,1,0,0:0:0:0:
184,56,171951,2,8,P|200:112|280:152,1,140,2|8,0:0|0:0,0:0:0:0:
352,152,172594,2,8,L|376:304,1,140,2|8,0:0|0:0,0:0:0:0:
384,376,173237,1,2,0:0:0:0:
216,368,173666,6,0,L|288:352,2,70
48,352,174523,1,0,0:0:0:0:
48,352,174737,1,0,0:0:0:0:
48,352,174951,2,0,P|72:288|64:216,1,140,2|0,0:0|0:0,0:0:0:0:
64,48,175808,1,2,2:0:0:0:
232,48,176237,1,2,2:0:0:0:
232,48,176451,1,0,0:0:0:0:
232,48,176666,2,0,L|376:48,1,140,2|0,0:0|0:0,0:0:0:0:
472,184,177523,1,0,0:0:0:0:
472,264,177737,6,0,L|336:344,1,140,2|2,0:0|0:0,0:0:0:0:
184,328,178594,1,8,0:0:0:0:
184,328,178808,2,8,L|304:257,1,140,2|8,0:0|0:0,0:0:0:0:
256,192,179451,12,0,180951,0:0:0:0:
80,48,181380,5,4,0:0:0:0:
56,216,181808,2,0,L|16:152,2,70,0|0|4,0:0|0:0|0:0,0:0:0:0:
176,336,182666,1,0,0:0:0:0:
256,336,182880,1,0,0:0:0:0:
336,336,183094,2,4,P|368:288|448:280,1,140,4|4,1:0|1:0,1:0:0:0:
448,112,183951,6,0,L|496:56,2,70,8|0|8,0:0|0:0|0:0,0:0:0:0:
360,112,184594,1,0,0:0:0:0:
280,96,184808,1,4,0:0:0:0:
112,56,185237,2,0,L|32:32,2,70,0|0|4,0:0|0:0|0:0,0:0:0:0:
160,216,186094,1,0,0:0:0:0:
112,280,186308,1,0,0:0:0:0:
64,352,186523,2,4,P|144:368|208:352,1,140,4|4,1:0|1:0,1:0:0:0:
360,312,187380,6,0,L|432:336,2,70,8|0|8,0:0|0:0|0:0,0:0:0:0:
392,232,188023,1,0,0:0:0:0:
432,160,188237,1,4,0:0:0:0:
288,72,188666,2,0,L|344:24,2,70,0|0|4,0:0|0:0|0:0,0:0:0:0:
200,216,189523,1,0,0:0:0:0:
120,192,189737,1,0,0:0:0:0:
48,152,189951,2,4,P|40:96|-24:32,1,140,4|4,1:0|1:0,1:0:0:0:
120,192,190808,6,0,L|72:256,2,70,8|0|8,0:0|0:0|0:0,0:0:0:0:
168,120,191451,1,0,0:0:0:0:
216,48,191666,1,4,0:0:0:0:
384,72,192094,2,0,L|336:136,2,70,0|0|4,0:0|0:0|0:0,0:0:0:0:
472,216,192951,1,0,0:0:0:0:
456,296,193166,1,0,0:0:0:0:
392,352,193380,6,0,L|240:352,1,140,2|2,0:0|0:0,0:0:0:0:
88,312,194237,1,8,0:0:0:0:
62,231,194451,1,8,0:0:0:0:
51,192,194558,1,0,0:0:0:0:
40,153,194666,1,8,0:0:0:0:
72,72,194880,1,8,0:0:0:0:
144,24,195094,6,0,P|240:48|352:24,1,210,4|0,0:0|0:0,0:0:0:0:
432,24,195951,2,0,L|456:248,1,210,4|0,0:0|0:0,0:0:0:0:
464,320,196808,1,4,1:0:0:0:
304,360,197237,1,4,1:0:0:0:
136,352,197666,5,8,0:0:0:0:
72,296,197880,1,0,0:0:0:0:
48,216,198094,1,8,0:0:0:0:
48,48,198523,6,0,B|136:80|144:168|144:168|200:144,1,210,4|0,0:0|0:0,0:0:0:0:
264,120,199380,2,0,B|306:101|306:101|314:189|402:221,1,210,4|0,0:0|0:0,0:0:0:0:
480,256,200237,1,4,0:0:0:0:
496,88,200666,1,2,0:0:0:0:
332,48,201094,5,8,0:0:0:0:
248,44,201308,1,0,0:0:0:0:
164,40,201523,1,8,0:0:0:0:
40,152,201951,6,0,B|88:232|168:256|168:256|192:304,1,210,4|0,0:0|0:0,0:0:0:0:
264,256,202808,2,0,P|304:328|432:312,1,210,4|0,0:0|0:0,0:0:0:0:
488,272,203666,1,4,0:0:0:0:
456,104,204094,1,2,0:0:0:0:
296,48,204523,5,8,0:0:0:0:
216,32,204737,1,0,0:0:0:0:
136,60,204951,1,8,0:0:0:0:
224,208,205380,6,0,B|230:273|230:273|157:283|114:350,1,210,4|0,0:0|0:0,0:0:0:0:
40,320,206237,2,0,B|63:243|23:181|23:181|78:144,1,210,4|0,0:0|0:0,0:0:0:0:
148,100,207094,1,4,0:0:0:0:
228,76,207308,6,0,L|216:36,2,35,8|0|8,0:0|0:0|0:0,0:0:0:0:
268,148,207737,1,8,0:0:0:0:
312,72,207951,1,8,0:0:0:0:
352,148,208166,1,8,0:0:0:0:
416,204,208380,1,8,0:0:0:0:
500,212,208594,1,10,0:0:0:0:
