osu file format v9

[General]
AudioFilename: opera.mp3
AudioLeadIn: 0
PreviewTime: 63619
Countdown: 0
SampleSet: Soft
StackLeniency: 0.7
Mode: 0
LetterboxInBreaks: 1

[Editor]
DistanceSpacing: 1
BeatDivisor: 4
GridSize: 8

[Metadata]
Title:Seikai wa Hitotsu! Janai!! (TV Size)
Artist:Milky Holmes Cast
Creator:Hinacle
Version:Normal
Source:Tantei Opera Milky Holmes
Tags:Kitsuneko mimori suzuko tokui sora sasaki mikoi kitta izumi KanaRin

[Difficulty]
HPDrainRate:3
CircleSize:4
OverallDifficulty:3
ApproachRate:4
SliderMultiplier:1.2
SliderTickRate:2

[Events]
//Background and Video events
Video,2884,"milky holmes OP.avi"
0,0,"BG.jpg"
//Break Periods
//Storyboard Layer 0 (Background)
//Storyboard Layer 1 (Fail)
//Storyboard Layer 2 (Pass)
//Storyboard Layer 3 (Foreground)
//Storyboard Sound Samples
//Background Colour Transformations
3,100,163,162,255

[TimingPoints]
4690,352.941176470588,4,2,1,70,1,0
13072,-100,4,2,1,5,0,0
15895,-100,4,2,1,70,0,0
35660,-100,4,2,1,5,0,0
37954,-100,4,2,1,70,0,0
61072,-100,4,2,1,5,0,0
63984,-100,4,2,1,80,0,1
89307,-100,4,2,1,5,0,1
92042,-100,4,2,1,70,0,0

[Colours]
Combo1 : 145,240,98
Combo2 : 247,172,60
Combo3 : 252,158,201
Combo4 : 81,157,234

[HitObjects]
312,120,4690,2,0,B|368:104|432:120,1,120,4|8
432,240,5395,2,0,B|376:256|312:240,1,120,0|8
192,240,6101,1,0
72,240,6454,1,8
72,120,6807,1,0
192,120,7160,1,8
312,120,7513,6,0,B|368:104|432:120,2,120,4|8|0
312,240,8572,1,8
192,240,8925,2,0,B|136:256|72:240,2,120,0|8|0
192,120,9984,1,8
296,64,10337,5,4
400,120,10689,1,8
400,240,11042,1,0
296,304,11395,1,8
192,240,11748,1,0
192,120,12101,2,0,B|128:104|72:120,2,120,8|0|8
256,192,13160,12,0,15278
256,80,15984,6,0,B|264:200|248:200|256:320,1,240,4|0
376,336,17042,1,8
472,264,17395,1,0
376,192,17748,1,8
472,120,18101,1,0
376,48,18454,1,8
256,32,18807,6,0,B|192:16|128:32,1,120,0|8
136,152,19513,1,0
136,272,19866,1,8
256,272,20219,2,0,B|320:288|384:272,2,120,0|8|0
256,152,21278,1,8
328,56,21631,6,0,B|384:40|448:56,1,120,4|8
448,176,22337,2,0,B|464:232|448:296,1,120,0|8
328,296,23042,2,0,B|272:312|208:296,1,120,0|8
208,176,23748,2,0,B|192:120|208:56,1,120,0|8
328,56,24454,6,0,B|344:112|328:176,1,120,4|8
328,296,25160,2,0,B|272:312|208:296,1,120,0|8
88,296,25866,2,0,B|72:240|88:176,1,120,4|8
88,56,26572,2,0,B|144:40|208:56,1,120,0|8
208,176,27278,6,0,B|328:184|328:168|448:176,1,240,4|0
464,296,28337,1,8
360,360,28689,1,0
256,296,29042,1,8
152,360,29395,1,0
48,296,29748,1,8
32,176,30101,6,0,B|56:120|120:88,1,120,0|8
216,24,30807,2,0,B|272:48|304:112,1,120,0|8
304,224,31513,1,0
216,304,31866,1,8
128,224,32219,1,0
216,144,32572,1,8
336,144,32925,6,0,B|456:144,2,120,4|8|0
336,264,33984,1,8
216,264,34337,2,0,B|88:264,2,120,4|8|0
216,144,35395,1,8
256,192,35748,12,0,37866
312,104,38572,6,0,B|248:88|192:104,1,120,4|8
72,112,39278,2,0,B|56:176|72:232,1,120,0|8
80,352,39984,1,0
200,352,40337,1,8
320,352,40689,1,0
440,352,41042,1,8
440,232,41395,6,0,B|456:168|440:112,1,120,4|8
352,32,42101,2,0,B|288:16|232:32,1,120,0|8
152,120,42807,2,0,B|136:184|152:240,1,120,0|8
248,312,43513,2,0,B|312:328|368:312,1,120,0|8
376,192,44219,6,0,B|384:128|368:128|376:72,2,120,4|8|0
256,192,45278,1,8
136,192,45631,2,0,B|128:256|144:256|136:312,2,120,0|8|0
136,72,46689,1,8
256,72,47042,5,4
256,312,47748,1,4
464,192,48454,1,4
464,72,48807,1,8
344,72,49160,2,0,B|280:56|224:72,1,120,0|8
104,80,49866,6,0,B|88:136|88:200,1,120,4|8
88,320,50572,2,0,B|144:336|208:336,1,120,0|8
328,336,51278,1,0
448,336,51631,1,8
448,216,51984,1,0
328,216,52337,1,8
208,216,52689,6,0,B|152:232|88:216,1,120,0|8
88,96,53395,2,0,B|144:80|208:96,1,120,0|8
328,96,54101,2,0,B|384:80|448:96,1,120,0|8
448,216,54807,2,0,B|392:232|328:216,1,120,0|8
208,216,55513,6,0,B|144:200|88:216,3,120,4|8|0|8
88,336,56925,2,0,B|152:352|208:336,3,120,4|8|0|8
328,328,58337,5,4
440,288,58689,1,8
328,248,59042,1,0
440,208,59395,1,8
328,168,59748,1,0
440,128,60101,1,8
328,88,60454,1,0
440,48,60807,1,8
256,192,61160,12,0,63278
136,192,63984,6,0,B|64:192|32:128,2,120,4|8|4
256,192,65042,1,8
376,192,65395,2,0,B|448:192|480:256,2,120,0|8|0
256,192,66454,1,8
256,312,66807,5,4
136,312,67160,1,8
136,192,67513,2,0,B|112:136|136:72,1,120,4|8
256,72,68219,1,0
376,72,68572,1,8
376,192,68925,2,0,B|400:248|376:312,1,120,0|8
256,304,69631,6,0,B|256:176,2,120,4|8|0
160,88,71042,2,0,B|40:88,2,120,4|8|0
360,216,72454,2,0,B|480:216,2,120,4|8|0
240,216,73513,1,8
120,216,73866,5,4
32,128,74219,1,4
120,40,74572,1,4
208,128,74925,1,4
288,216,75278,6,0,B|352:232|416:216,1,120,4|8
408,96,75984,2,0,B|344:80|280:96,1,120,4|8
168,96,76689,1,0
64,152,77042,1,8
168,216,77395,1,0
64,280,77748,1,8
168,344,78101,6,0,B|232:360|296:344,1,120,4|8
408,344,78807,2,0,B|424:280|408:216,1,120,4|8
408,104,79513,1,0
288,104,79866,2,0,B|224:88|160:104,2,120,8|0|8
288,224,80925,5,4
248,336,81278,1,8
128,336,81631,1,0
88,224,81984,1,8
136,112,82337,1,4
256,112,82689,2,0,B|320:120|320:104|376:112,2,120,8|0|8
256,232,83748,5,4
136,24,84454,1,4
376,24,85160,1,4
456,112,85513,1,8
376,200,85866,1,0
296,112,86219,1,8
176,112,86572,6,0,B|112:96|48:112,1,120,4|8
56,232,87278,2,0,B|40:296|56:360,1,120,0|8
176,352,87984,2,0,B|240:368|304:352,1,120,0|8
296,232,88689,2,0,B|312:168|296:104,1,120,0|8
256,192,89395,12,4,92042
